  0
SECTION
  2
HEADER
  9
$ACADVER
  1
AC1015
  9
$ACADMAINTVER
 70
     6
  9
$DWGCODEPAGE
  3
ANSI_1252
  9
$INSBASE
 10
0.0
 20
0.0
 30
0.0
  9
$EXTMIN
 10
-774.3547972221513
 20
576.0483798406858
 30
0.0
  9
$EXTMAX
 10
-354.3547972221513
 20
873.0483798406858
 30
0.0
  9
$LIMMIN
 10
0.0
 20
0.0
  9
$LIMMAX
 10
12.0
 20
9.0
  9
$ORTHOMODE
 70
     0
  9
$REGENMODE
 70
     1
  9
$FILLMODE
 70
     1
  9
$QTEXTMODE
 70
     0
  9
$MIRRTEXT
 70
     1
  9
$LTSCALE
 40
1.0
  9
$ATTMODE
 70
     1
  9
$TEXTSIZE
 40
0.2
  9
$TRACEWID
 40
0.05
  9
$TEXTSTYLE
  7
Standard
  9
$CLAYER
  8
0
  9
$CELTYPE
  6
ByLayer
  9
$CECOLOR
 62
   256
  9
$CELTSCALE
 40
1.0
  9
$DISPSILH
 70
     0
  9
$DIMSCALE
 40
1.0
  9
$DIMASZ
 40
0.18
  9
$DIMEXO
 40
0.0625
  9
$DIMDLI
 40
0.38
  9
$DIMRND
 40
0.0
  9
$DIMDLE
 40
0.0
  9
$DIMEXE
 40
0.18
  9
$DIMTP
 40
0.0
  9
$DIMTM
 40
0.0
  9
$DIMTXT
 40
0.18
  9
$DIMCEN
 40
0.09
  9
$DIMTSZ
 40
0.0
  9
$DIMTOL
 70
     0
  9
$DIMLIM
 70
     0
  9
$DIMTIH
 70
     1
  9
$DIMTOH
 70
     1
  9
$DIMSE1
 70
     0
  9
$DIMSE2
 70
     0
  9
$DIMTAD
 70
     0
  9
$DIMZIN
 70
     0
  9
$DIMBLK
  1

  9
$DIMASO
 70
     1
  9
$DIMSHO
 70
     1
  9
$DIMPOST
  1

  9
$DIMAPOST
  1

  9
$DIMALT
 70
     0
  9
$DIMALTD
 70
     2
  9
$DIMALTF
 40
25.4
  9
$DIMLFAC
 40
1.0
  9
$DIMTOFL
 70
     0
  9
$DIMTVP
 40
0.0
  9
$DIMTIX
 70
     0
  9
$DIMSOXD
 70
     0
  9
$DIMSAH
 70
     0
  9
$DIMBLK1
  1

  9
$DIMBLK2
  1

  9
$DIMSTYLE
  2
Standard
  9
$DIMCLRD
 70
     0
  9
$DIMCLRE
 70
     0
  9
$DIMCLRT
 70
     0
  9
$DIMTFAC
 40
1.0
  9
$DIMGAP
 40
0.09
  9
$DIMJUST
 70
     0
  9
$DIMSD1
 70
     0
  9
$DIMSD2
 70
     0
  9
$DIMTOLJ
 70
     1
  9
$DIMTZIN
 70
     0
  9
$DIMALTZ
 70
     0
  9
$DIMALTTZ
 70
     0
  9
$DIMUPT
 70
     0
  9
$DIMDEC
 70
     4
  9
$DIMTDEC
 70
     4
  9
$DIMALTU
 70
     2
  9
$DIMALTTD
 70
     2
  9
$DIMTXSTY
  7
Standard
  9
$DIMAUNIT
 70
     0
  9
$DIMADEC
 70
     0
  9
$DIMALTRND
 40
0.0
  9
$DIMAZIN
 70
     0
  9
$DIMDSEP
 70
    46
  9
$DIMATFIT
 70
     3
  9
$DIMFRAC
 70
     0
  9
$DIMLDRBLK
  1

  9
$DIMLUNIT
 70
     2
  9
$DIMLWD
 70
    -2
  9
$DIMLWE
 70
    -2
  9
$DIMTMOVE
 70
     0
  9
$LUNITS
 70
     2
  9
$LUPREC
 70
     4
  9
$SKETCHINC
 40
0.1
  9
$FILLETRAD
 40
0.5
  9
$AUNITS
 70
     0
  9
$AUPREC
 70
     0
  9
$MENU
  1
.
  9
$ELEVATION
 40
0.0
  9
$PELEVATION
 40
0.0
  9
$THICKNESS
 40
0.0
  9
$LIMCHECK
 70
     0
  9
$CHAMFERA
 40
0.5
  9
$CHAMFERB
 40
0.5
  9
$CHAMFERC
 40
1.0
  9
$CHAMFERD
 40
0.0
  9
$SKPOLY
 70
     0
  9
$TDCREATE
 40
2455569.581723646
  9
$TDUCREATE
 40
2455569.540056979
  9
$TDUPDATE
 40
2455569.581723657
  9
$TDUUPDATE
 40
2455569.540056991
  9
$TDINDWG
 40
0.0000000116
  9
$TDUSRTIMER
 40
0.0000000116
  9
$USRTIMER
 70
     1
  9
$ANGBASE
 50
0.0
  9
$ANGDIR
 70
     0
  9
$PDMODE
 70
     0
  9
$PDSIZE
 40
0.0
  9
$PLINEWID
 40
0.0
  9
$SPLFRAME
 70
     0
  9
$SPLINETYPE
 70
     6
  9
$SPLINESEGS
 70
     8
  9
$HANDSEED
  5
500
  9
$SURFTAB1
 70
     6
  9
$SURFTAB2
 70
     6
  9
$SURFTYPE
 70
     6
  9
$SURFU
 70
     6
  9
$SURFV
 70
     6
  9
$UCSBASE
  2

  9
$UCSNAME
  2

  9
$UCSORG
 10
0.0
 20
0.0
 30
0.0
  9
$UCSXDIR
 10
1.0
 20
0.0
 30
0.0
  9
$UCSYDIR
 10
0.0
 20
1.0
 30
0.0
  9
$UCSORTHOREF
  2

  9
$UCSORTHOVIEW
 70
     0
  9
$UCSORGTOP
 10
0.0
 20
0.0
 30
0.0
  9
$UCSORGBOTTOM
 10
0.0
 20
0.0
 30
0.0
  9
$UCSORGLEFT
 10
0.0
 20
0.0
 30
0.0
  9
$UCSORGRIGHT
 10
0.0
 20
0.0
 30
0.0
  9
$UCSORGFRONT
 10
0.0
 20
0.0
 30
0.0
  9
$UCSORGBACK
 10
0.0
 20
0.0
 30
0.0
  9
$PUCSBASE
  2

  9
$PUCSNAME
  2

  9
$PUCSORG
 10
0.0
 20
0.0
 30
0.0
  9
$PUCSXDIR
 10
1.0
 20
0.0
 30
0.0
  9
$PUCSYDIR
 10
0.0
 20
1.0
 30
0.0
  9
$PUCSORTHOREF
  2

  9
$PUCSORTHOVIEW
 70
     0
  9
$PUCSORGTOP
 10
0.0
 20
0.0
 30
0.0
  9
$PUCSORGBOTTOM
 10
0.0
 20
0.0
 30
0.0
  9
$PUCSORGLEFT
 10
0.0
 20
0.0
 30
0.0
  9
$PUCSORGRIGHT
 10
0.0
 20
0.0
 30
0.0
  9
$PUCSORGFRONT
 10
0.0
 20
0.0
 30
0.0
  9
$PUCSORGBACK
 10
0.0
 20
0.0
 30
0.0
  9
$USERI1
 70
     0
  9
$USERI2
 70
     0
  9
$USERI3
 70
     0
  9
$USERI4
 70
     0
  9
$USERI5
 70
     0
  9
$USERR1
 40
16.5
  9
$USERR2
 40
0.0
  9
$USERR3
 40
0.0
  9
$USERR4
 40
0.0
  9
$USERR5
 40
0.0
  9
$WORLDVIEW
 70
     1
  9
$SHADEDGE
 70
     3
  9
$SHADEDIF
 70
    70
  9
$TILEMODE
 70
     1
  9
$MAXACTVP
 70
    64
  9
$PINSBASE
 10
0.0
 20
0.0
 30
0.0
  9
$PLIMCHECK
 70
     0
  9
$PEXTMIN
 10
1.00000000000000E+20
 20
1.00000000000000E+20
 30
1.00000000000000E+20
  9
$PEXTMAX
 10
-1.00000000000000E+20
 20
-1.00000000000000E+20
 30
-1.00000000000000E+20
  9
$PLIMMIN
 10
0.0
 20
0.0
  9
$PLIMMAX
 10
12.0
 20
9.0
  9
$UNITMODE
 70
     0
  9
$VISRETAIN
 70
     1
  9
$PLINEGEN
 70
     0
  9
$PSLTSCALE
 70
     1
  9
$TREEDEPTH
 70
  3020
  9
$CMLSTYLE
  2
Standard
  9
$CMLJUST
 70
     0
  9
$CMLSCALE
 40
1.0
  9
$PROXYGRAPHICS
 70
     1
  9
$MEASUREMENT
 70
     1
  9
$CELWEIGHT
370
    -1
  9
$ENDCAPS
280
     0
  9
$JOINSTYLE
280
     0
  9
$LWDISPLAY
290
     0
  9
$INSUNITS
 70
     1
  9
$HYPERLINKBASE
  1

  9
$STYLESHEET
  1

  9
$XEDIT
290
     1
  9
$CEPSNTYPE
380
     0
  9
$PSTYLEMODE
290
     1
  9
$FINGERPRINTGUID
  2
{72581DB5-434E-4092-9AC5-F37BB0821656}
  9
$VERSIONGUID
  2
{FAEB1C32-E019-11D5-929B-00C0DF256EC4}
  9
$EXTNAMES
290
     1
  9
$PSVPSCALE
 40
0.0
  9
$OLESTARTUP
290
     0
  0
ENDSEC
  0
SECTION
  2
CLASSES
  0
CLASS
  1
ACDBDICTIONARYWDFLT
  2
AcDbDictionaryWithDefault
  3
ObjectDBX Classes
 90
        0
280
     0
281
     0
  0
CLASS
  1
VISUALSTYLE
  2
AcDbVisualStyle
  3
ObjectDBX Classes
 90
     4095
280
     0
281
     0
  0
CLASS
  1
SCALE
  2
AcDbScale
  3
ObjectDBX Classes
 90
     1153
280
     0
281
     0
  0
CLASS
  1

  2
exOdDbCircle
  3

 90
        0
280
     0
281
     1
  0
CLASS
  1

  2
exOdDbPolyline
  3

 90
        0
280
     0
281
     1
  0
CLASS
  1
DICTIONARYVAR
  2
AcDbDictionaryVar
  3
ObjectDBX Classes
 90
        0
280
     0
281
     0
  0
CLASS
  1
ACDBPLACEHOLDER
  2
AcDbPlaceHolder
  3
ObjectDBX Classes
 90
        0
280
     0
281
     0
  0
CLASS
  1
LAYOUT
  2
AcDbLayout
  3
ObjectDBX Classes
 90
        0
280
     0
281
     0
  0
ENDSEC
  0
SECTION
  2
TABLES
  0
TABLE
  2
VPORT
  5
8
330
0
100
AcDbSymbolTable
 70
     1
  0
VPORT
  5
29
330
8
100
AcDbSymbolTableRecord
100
AcDbViewportTableRecord
  2
*Active
 70
     0
 10
0.0
 20
0.0
 11
1.0
 21
1.0
 12
-564.3547972221513
 22
724.5483798406858
 13
0.0
 23
0.0
 14
0.5
 24
0.5
 15
0.5
 25
0.5
 16
0.0
 26
0.0
 36
1.0
 17
0.0
 27
0.0
 37
0.0
 40
326.7
 41
1.60267857142857
 42
50.0
 43
0.0
 44
0.0
 50
0.0
 51
0.0
 71
     0
 72
   100
 73
     1
 74
     3
 75
     0
 76
     0
 77
     0
 78
     0
281
     0
 65
     1
110
0.0
120
0.0
130
0.0
111
1.0
121
0.0
131
0.0
112
0.0
122
1.0
132
0.0
 79
     0
146
0.0
  0
ENDTAB
  0
TABLE
  2
LTYPE
  5
5
330
0
100
AcDbSymbolTable
 70
     8
  0
LTYPE
  5
14
330
5
100
AcDbSymbolTableRecord
100
AcDbLinetypeTableRecord
  2
ByBlock
 70
     0
  3

 72
    65
 73
     0
 40
0.0
  0
LTYPE
  5
15
330
5
100
AcDbSymbolTableRecord
100
AcDbLinetypeTableRecord
  2
ByLayer
 70
     0
  3

 72
    65
 73
     0
 40
0.0
  0
LTYPE
  5
16
330
5
100
AcDbSymbolTableRecord
100
AcDbLinetypeTableRecord
  2
Continuous
 70
     0
  3
Solid line
 72
    65
 73
     0
 40
0.0
  0
LTYPE
  5
3B
330
5
100
AcDbSymbolTableRecord
100
AcDbLinetypeTableRecord
  2
DASHED
 70
     0
  3
Dashed
 72
    65
 73
     2
 40
15.0
 49
7.0
 74
     0
 49
-8.0
 74
     0
  0
LTYPE
  5
3C
330
5
100
AcDbSymbolTableRecord
100
AcDbLinetypeTableRecord
  2
DOTTED
 70
     0
  3
Dotted
 72
    65
 73
     2
 40
1.0
 49
0.0
 74
     0
 49
-1.0
 74
     0
  0
LTYPE
  5
3D
330
5
100
AcDbSymbolTableRecord
100
AcDbLinetypeTableRecord
  2
DOT_CENTER
 70
     0
  3
Dot_Center
 72
    65
 73
     4
 40
14.0
 49
12.0
 74
     0
 49
-1.0
 74
     0
 49
0.0
 74
     0
 49
-1.0
 74
     0
  0
LTYPE
  5
3E
330
5
100
AcDbSymbolTableRecord
100
AcDbLinetypeTableRecord
  2
LONG_DASHED
 70
     0
  3
Long_Dashed
 72
    65
 73
     2
 40
15.0
 49
10.0
 74
     0
 49
-5.0
 74
     0
  0
LTYPE
  5
3F
330
5
100
AcDbSymbolTableRecord
100
AcDbLinetypeTableRecord
  2
DASH_CENTER
 70
     0
  3
Dash_Center
 72
    65
 73
     4
 40
14.0
 49
11.0
 74
     0
 49
-1.0
 74
     0
 49
1.0
 74
     0
 49
-1.0
 74
     0
  0
LTYPE
  5
40
330
5
100
AcDbSymbolTableRecord
100
AcDbLinetypeTableRecord
  2
PHANTOM
 70
     0
  3
Phantom
 72
    65
 73
     6
 40
13.0
 49
10.0
 74
     0
 49
-1.0
 74
     0
 49
0.0
 74
     0
 49
-1.0
 74
     0
 49
0.0
 74
     0
 49
-1.0
 74
     0
  0
LTYPE
  5
41
330
5
100
AcDbSymbolTableRecord
100
AcDbLinetypeTableRecord
  2
CENTER_DASH_DASH
 70
     0
  3
Center_Dash_Dash
 72
    65
 73
     6
 40
14.0
 49
9.0
 74
     0
 49
-1.0
 74
     0
 49
1.0
 74
     0
 49
-1.0
 74
     0
 49
1.0
 74
     0
 49
-1.0
 74
     0
  0
ENDTAB
  0
TABLE
  2
LAYER
  5
2
330
0
100
AcDbSymbolTable
 70
     2
  0
LAYER
  5
10
330
2
100
AcDbSymbolTableRecord
100
AcDbLayerTableRecord
  2
0
 70
     0
 62
     7
  6
Continuous
370
    -3
390
F
  0
LAYER
  5
42
330
2
100
AcDbSymbolTableRecord
100
AcDbLayerTableRecord
  2
1
 70
     0
 62
     7
  6
Continuous
370
    -3
390
F
  0
ENDTAB
  0
TABLE
  2
STYLE
  5
3
330
0
100
AcDbSymbolTable
 70
     2
  0
STYLE
  5
11
330
3
100
AcDbSymbolTableRecord
100
AcDbTextStyleTableRecord
  2
Standard
 70
     0
 40
0.0
 41
1.0
 50
0.0
 71
     0
 42
0.2
  3
txt
  4

  0
STYLE
  5
E6
330
3
100
AcDbSymbolTableRecord
100
AcDbTextStyleTableRecord
  2
CONVERTER_11
 70
     0
 40
0.0
 41
0.9
 50
0.0
 71
     0
 42
0.2
  3
txt.shx
  4

  0
ENDTAB
  0
TABLE
  2
VIEW
  5
6
330
0
100
AcDbSymbolTable
 70
     0
  0
ENDTAB
  0
TABLE
  2
UCS
  5
7
330
0
100
AcDbSymbolTable
 70
     0
  0
ENDTAB
  0
TABLE
  2
APPID
  5
9
330
0
100
AcDbSymbolTable
 70
     1
  0
APPID
  5
12
330
9
100
AcDbSymbolTableRecord
100
AcDbRegAppTableRecord
  2
ACAD
 70
     0
  0
ENDTAB
  0
TABLE
  2
DIMSTYLE
  5
A
330
0
100
AcDbSymbolTable
 70
    53
100
AcDbDimStyleTable
  0
DIMSTYLE
105
27
330
A
100
AcDbSymbolTableRecord
100
AcDbDimStyleTableRecord
  2
Standard
 70
     0
340
11
  0
DIMSTYLE
105
26E
102
{ACAD_REACTORS
330
26F
102
}
330
A
100
AcDbSymbolTableRecord
100
AcDbDimStyleTableRecord
  2
ME10_DIM_10
 70
     0
 41
5.25
 42
0.0
 44
3.0
 73
     0
 74
     0
 77
     1
 78
     8
140
7.5
147
3.0
172
     1
173
     1
176
     2
177
     2
178
     2
271
     2
340
E6
  0
DIMSTYLE
105
279
102
{ACAD_REACTORS
330
27A
102
}
330
A
100
AcDbSymbolTableRecord
100
AcDbDimStyleTableRecord
  2
ME10_DIM_11
 70
     0
  3
ø<>
 41
5.25
 42
0.0
 44
3.0
 73
     0
 74
     0
 77
     1
 78
     8
140
7.5
147
3.0
172
     1
173
     1
176
     2
177
     2
178
     2
271
     2
340
E6
  0
DIMSTYLE
105
286
102
{ACAD_REACTORS
330
287
102
}
330
A
100
AcDbSymbolTableRecord
100
AcDbDimStyleTableRecord
  2
ME10_DIM_12
 70
     0
 41
5.25
 42
0.0
 44
3.0
 73
     0
 74
     0
 77
     1
 78
     8
140
7.5
147
3.0
172
     1
173
     1
176
     2
177
     2
178
     2
271
     2
340
E6
  0
DIMSTYLE
105
293
102
{ACAD_REACTORS
330
294
102
}
330
A
100
AcDbSymbolTableRecord
100
AcDbDimStyleTableRecord
  2
ME10_DIM_13
 70
     0
 41
5.25
 42
0.0
 44
3.0
 73
     0
 74
     0
 77
     1
 78
     8
140
7.5
147
3.0
172
     1
173
     1
176
     2
177
     2
178
     2
271
     2
340
E6
  0
DIMSTYLE
105
2A0
102
{ACAD_REACTORS
330
2A1
102
}
330
A
100
AcDbSymbolTableRecord
100
AcDbDimStyleTableRecord
  2
ME10_DIM_14
 70
     0
 41
5.25
 42
0.0
 44
3.0
 73
     0
 74
     0
 77
     1
 78
     8
140
7.5
147
3.0
172
     1
173
     1
176
     2
177
     2
178
     2
271
     2
340
E6
  0
DIMSTYLE
105
2AD
102
{ACAD_REACTORS
330
2AE
102
}
330
A
100
AcDbSymbolTableRecord
100
AcDbDimStyleTableRecord
  2
ME10_DIM_15
 70
     0
  3
x45·
 41
5.25
 42
0.0
 44
3.0
 73
     0
 74
     0
 77
     1
 78
     8
140
7.5
147
3.0
172
     1
173
     1
176
     2
177
     2
178
     2
271
     2
340
E6
  0
DIMSTYLE
105
2B9
102
{ACAD_REACTORS
330
2BA
102
}
330
A
100
AcDbSymbolTableRecord
100
AcDbDimStyleTableRecord
  2
ME10_DIM_16
 70
     0
 41
5.25
 42
0.0
 44
3.0
 73
     0
 74
     0
 77
     1
 78
     8
140
7.5
147
3.0
172
     1
173
     1
176
     2
177
     2
178
     2
271
     2
340
E6
  0
DIMSTYLE
105
2C6
102
{ACAD_REACTORS
330
2C7
102
}
330
A
100
AcDbSymbolTableRecord
100
AcDbDimStyleTableRecord
  2
ME10_DIM_17
 70
     0
 41
5.25
 42
0.0
 44
3.0
 73
     0
 74
     0
 77
     1
 78
     8
140
7.5
147
3.0
172
     1
173
     1
176
     2
177
     2
178
     2
271
     2
340
E6
  0
DIMSTYLE
105
2D4
102
{ACAD_REACTORS
330
2D5
102
}
330
A
100
AcDbSymbolTableRecord
100
AcDbDimStyleTableRecord
  2
ME10_DIM_18
 70
     0
 41
5.25
 42
0.0
 44
3.0
 73
     0
 74
     0
 77
     1
 78
     8
140
7.5
147
3.0
172
     1
173
     1
176
     2
177
     2
178
     2
271
     2
340
E6
  0
DIMSTYLE
105
2E1
102
{ACAD_REACTORS
330
2E2
102
}
330
A
100
AcDbSymbolTableRecord
100
AcDbDimStyleTableRecord
  2
ME10_DIM_19
 70
     0
 41
5.25
 42
0.0
 44
3.0
 73
     0
 74
     0
 77
     1
 78
     8
140
7.5
147
3.0
172
     1
173
     1
176
     2
177
     2
178
     2
271
     2
340
E6
  0
DIMSTYLE
105
2EC
102
{ACAD_REACTORS
330
2ED
102
}
330
A
100
AcDbSymbolTableRecord
100
AcDbDimStyleTableRecord
  2
ME10_DIM_20
 70
     0
 41
5.25
 42
0.0
 44
3.0
 73
     0
 74
     0
 77
     1
 78
     8
140
7.5
147
3.0
172
     1
173
     1
176
     2
177
     2
178
     2
271
     2
340
E6
  0
DIMSTYLE
105
2FB
102
{ACAD_REACTORS
330
2FC
102
}
330
A
100
AcDbSymbolTableRecord
100
AcDbDimStyleTableRecord
  2
ME10_DIM_21
 70
     0
 41
5.25
 42
0.0
 44
3.0
 73
     0
 74
     0
 77
     1
 78
     8
140
7.5
147
3.0
172
     1
173
     1
176
     2
177
     2
178
     2
271
     2
340
E6
  0
DIMSTYLE
105
306
102
{ACAD_REACTORS
330
307
102
}
330
A
100
AcDbSymbolTableRecord
100
AcDbDimStyleTableRecord
  2
ME10_DIM_22
 70
     0
 41
5.25
 42
0.0
 44
3.0
 73
     0
 74
     0
 77
     1
 78
     8
140
7.5
147
3.0
172
     1
173
     1
176
     2
177
     2
178
     2
271
     2
340
E6
  0
DIMSTYLE
105
316
102
{ACAD_REACTORS
330
317
102
}
330
A
100
AcDbSymbolTableRecord
100
AcDbDimStyleTableRecord
  2
ME10_DIM_23
 70
     0
 41
5.25
 42
0.0
 44
3.0
 73
     0
 74
     0
 77
     1
 78
     8
140
7.5
147
3.0
172
     1
173
     1
176
     2
177
     2
178
     2
271
     2
340
E6
344
312
  0
DIMSTYLE
105
322
102
{ACAD_REACTORS
330
323
102
}
330
A
100
AcDbSymbolTableRecord
100
AcDbDimStyleTableRecord
  2
ME10_DIM_24
 70
     0
 41
5.25
 42
0.0
 44
3.0
 73
     0
 74
     0
 77
     1
 78
     8
140
7.5
147
3.0
172
     1
173
     1
176
     2
177
     2
178
     2
271
     2
340
E6
343
312
  0
DIMSTYLE
105
32D
102
{ACAD_REACTORS
330
32E
102
}
330
A
100
AcDbSymbolTableRecord
100
AcDbDimStyleTableRecord
  2
ME10_DIM_25
 70
     0
  3
ø<>
 41
5.25
 42
0.0
 44
3.0
 73
     0
 74
     0
 77
     1
 78
     8
140
7.5
147
3.0
172
     1
173
     1
176
     2
177
     2
178
     2
271
     2
340
E6
  0
DIMSTYLE
105
338
102
{ACAD_REACTORS
330
339
102
}
330
A
100
AcDbSymbolTableRecord
100
AcDbDimStyleTableRecord
  2
ME10_DIM_26
 70
     0
  3
ø<>-j7
 41
5.25
 42
0.0
 44
3.0
 73
     0
 74
     0
 77
     1
 78
     8
140
7.5
147
3.0
172
     1
173
     1
176
     2
177
     2
178
     2
271
     2
340
E6
  0
DIMSTYLE
105
345
102
{ACAD_REACTORS
330
346
102
}
330
A
100
AcDbSymbolTableRecord
100
AcDbDimStyleTableRecord
  2
ME10_DIM_27
 70
     0
 41
5.25
 42
0.0
 44
3.0
 73
     0
 74
     0
 77
     1
 78
     8
140
7.5
147
3.0
172
     1
173
     1
176
     2
177
     2
178
     2
271
     2
340
E6
  0
DIMSTYLE
105
350
102
{ACAD_REACTORS
330
351
102
}
330
A
100
AcDbSymbolTableRecord
100
AcDbDimStyleTableRecord
  2
ME10_DIM_28
 70
     0
 41
5.25
 42
0.0
 44
3.0
 73
     0
 74
     0
 77
     1
 78
     8
140
7.5
147
3.0
172
     1
173
     1
176
     2
177
     2
178
     2
271
     2
340
E6
  0
DIMSTYLE
105
35D
102
{ACAD_REACTORS
330
35E
102
}
330
A
100
AcDbSymbolTableRecord
100
AcDbDimStyleTableRecord
  2
ME10_DIM_29
 70
     0
 41
5.25
 42
0.0
 44
3.0
 73
     0
 74
     0
 77
     1
 78
     8
140
7.5
147
3.0
172
     1
173
     1
176
     2
177
     2
178
     2
271
     2
340
E6
  0
DIMSTYLE
105
368
102
{ACAD_REACTORS
330
369
102
}
330
A
100
AcDbSymbolTableRecord
100
AcDbDimStyleTableRecord
  2
ME10_DIM_30
 70
     0
 41
5.25
 42
0.0
 44
3.0
 73
     0
 74
     0
 77
     1
 78
     8
140
7.5
147
3.0
172
     1
173
     1
176
     2
177
     2
178
     2
271
     2
340
E6
  0
DIMSTYLE
105
373
102
{ACAD_REACTORS
330
374
102
}
330
A
100
AcDbSymbolTableRecord
100
AcDbDimStyleTableRecord
  2
ME10_DIM_31
 70
     0
  3
ø<>-j5
 41
5.25
 42
0.0
 44
3.0
 73
     0
 74
     0
 77
     1
 78
     8
140
7.5
147
3.0
172
     1
173
     1
176
     2
177
     2
178
     2
271
     2
340
E6
  0
DIMSTYLE
105
37E
102
{ACAD_REACTORS
330
37F
102
}
330
A
100
AcDbSymbolTableRecord
100
AcDbDimStyleTableRecord
  2
ME10_DIM_32
 70
     0
  3
ø<>-j5
 41
5.25
 42
0.0
 44
3.0
 73
     0
 74
     0
 77
     1
 78
     8
140
7.5
147
3.0
172
     1
173
     1
176
     2
177
     2
178
     2
271
     2
340
E6
  0
DIMSTYLE
105
38B
102
{ACAD_REACTORS
330
38C
102
}
330
A
100
AcDbSymbolTableRecord
100
AcDbDimStyleTableRecord
  2
ME10_DIM_33
 70
     0
 41
5.25
 42
0.0
 44
3.0
 73
     0
 74
     0
 77
     1
 78
     8
140
7.5
147
3.0
172
     1
173
     1
176
     2
177
     2
178
     2
271
     2
340
E6
  0
DIMSTYLE
105
398
102
{ACAD_REACTORS
330
399
102
}
330
A
100
AcDbSymbolTableRecord
100
AcDbDimStyleTableRecord
  2
ME10_DIM_34
 70
     0
 41
5.25
 42
0.0
 44
3.0
 73
     0
 74
     0
 77
     1
 78
     8
140
7.5
147
3.0
172
     1
173
     1
176
     2
177
     2
178
     2
271
     2
340
E6
  0
DIMSTYLE
105
3A3
102
{ACAD_REACTORS
330
3A4
102
}
330
A
100
AcDbSymbolTableRecord
100
AcDbDimStyleTableRecord
  2
ME10_DIM_35
 70
     0
 41
5.25
 42
0.0
 44
3.0
 73
     0
 74
     0
 77
     1
 78
     8
140
7.5
147
3.0
172
     1
173
     1
176
     2
177
     2
178
     2
271
     2
340
E6
  0
DIMSTYLE
105
3AE
102
{ACAD_REACTORS
330
3AF
102
}
330
A
100
AcDbSymbolTableRecord
100
AcDbDimStyleTableRecord
  2
ME10_DIM_36
 70
     0
 41
5.25
 42
0.0
 44
3.0
 73
     0
 74
     0
 77
     1
 78
     8
140
7.5
147
3.0
172
     1
173
     1
176
     2
177
     2
178
     2
271
     2
340
E6
  0
DIMSTYLE
105
3BB
102
{ACAD_REACTORS
330
3BC
102
}
330
A
100
AcDbSymbolTableRecord
100
AcDbDimStyleTableRecord
  2
ME10_DIM_37
 70
     0
 41
5.25
 42
0.0
 44
3.0
 73
     0
 74
     0
 77
     1
 78
     8
140
7.5
147
3.0
172
     1
173
     1
176
     2
177
     2
178
     2
271
     2
340
E6
  0
DIMSTYLE
105
3C6
102
{ACAD_REACTORS
330
3C7
102
}
330
A
100
AcDbSymbolTableRecord
100
AcDbDimStyleTableRecord
  2
ME10_DIM_38
 70
     0
 41
5.25
 42
0.0
 44
3.0
 73
     0
 74
     0
 77
     1
 78
     8
140
7.5
147
3.0
172
     1
173
     1
176
     2
177
     2
178
     2
271
     2
340
E6
  0
DIMSTYLE
105
3D1
102
{ACAD_REACTORS
330
3D2
102
}
330
A
100
AcDbSymbolTableRecord
100
AcDbDimStyleTableRecord
  2
ME10_DIM_39
 70
     0
 41
5.25
 42
0.0
 44
3.0
 73
     0
 74
     0
 77
     1
 78
     8
140
7.5
147
3.0
172
     1
173
     1
176
     2
177
     2
178
     2
271
     2
340
E6
  0
DIMSTYLE
105
3DC
102
{ACAD_REACTORS
330
3DD
102
}
330
A
100
AcDbSymbolTableRecord
100
AcDbDimStyleTableRecord
  2
ME10_DIM_40
 70
     0
 41
5.25
 42
0.0
 44
3.0
 73
     0
 74
     0
 77
     1
 78
     8
140
7.5
147
3.0
172
     1
173
     1
176
     2
177
     2
178
     2
271
     2
340
E6
  0
DIMSTYLE
105
3E7
102
{ACAD_REACTORS
330
3E8
102
}
330
A
100
AcDbSymbolTableRecord
100
AcDbDimStyleTableRecord
  2
ME10_DIM_41
 70
     0
 41
5.25
 42
0.0
 44
3.0
 73
     0
 74
     0
 77
     1
 78
     8
140
7.5
147
3.0
172
     1
173
     1
176
     2
177
     2
178
     2
271
     2
340
E6
  0
DIMSTYLE
105
3F2
102
{ACAD_REACTORS
330
3F3
102
}
330
A
100
AcDbSymbolTableRecord
100
AcDbDimStyleTableRecord
  2
ME10_DIM_42
 70
     0
 41
5.25
 42
0.0
 44
3.0
 73
     0
 74
     0
 77
     1
 78
     8
140
7.5
147
3.0
172
     1
173
     1
176
     2
177
     2
178
     2
271
     2
340
E6
  0
DIMSTYLE
105
3FD
102
{ACAD_REACTORS
330
3FE
102
}
330
A
100
AcDbSymbolTableRecord
100
AcDbDimStyleTableRecord
  2
ME10_DIM_43
 70
     0
 41
5.25
 42
0.0
 44
3.0
 73
     0
 74
     0
 77
     1
 78
     8
140
7.5
147
3.0
172
     1
173
     1
176
     2
177
     2
178
     2
271
     2
340
E6
  0
DIMSTYLE
105
408
102
{ACAD_REACTORS
330
409
102
}
330
A
100
AcDbSymbolTableRecord
100
AcDbDimStyleTableRecord
  2
ME10_DIM_44
 70
     0
 41
5.25
 42
0.0
 44
3.0
 73
     0
 74
     0
 77
     1
 78
     8
140
7.5
147
3.0
172
     1
173
     1
176
     2
177
     2
178
     2
271
     2
340
E6
  0
DIMSTYLE
105
413
102
{ACAD_REACTORS
330
414
102
}
330
A
100
AcDbSymbolTableRecord
100
AcDbDimStyleTableRecord
  2
ME10_DIM_45
 70
     0
 41
5.25
 42
0.0
 44
3.0
 73
     0
 74
     0
 77
     1
 78
     8
140
7.5
147
3.0
172
     1
173
     1
176
     2
177
     2
178
     2
271
     2
340
E6
  0
DIMSTYLE
105
41E
102
{ACAD_REACTORS
330
41F
102
}
330
A
100
AcDbSymbolTableRecord
100
AcDbDimStyleTableRecord
  2
ME10_DIM_46
 70
     0
 41
5.25
 42
0.0
 44
3.0
 73
     0
 74
     0
 77
     1
 78
     8
140
7.5
147
3.0
172
     1
173
     1
176
     2
177
     2
178
     2
271
     2
340
E6
  0
DIMSTYLE
105
42A
102
{ACAD_REACTORS
330
42B
102
}
330
A
100
AcDbSymbolTableRecord
100
AcDbDimStyleTableRecord
  2
ME10_DIM_47
 70
     0
 41
5.25
 42
0.0
 44
3.0
 73
     0
 74
     0
 77
     1
 78
     8
140
7.5
147
3.0
172
     1
173
     1
176
     2
177
     2
178
     2
271
     2
340
E6
  0
DIMSTYLE
105
436
102
{ACAD_REACTORS
330
437
102
}
330
A
100
AcDbSymbolTableRecord
100
AcDbDimStyleTableRecord
  2
ME10_DIM_48
 70
     0
 41
5.25
 42
0.0
 44
3.0
 73
     0
 74
     0
 77
     1
 78
     8
140
7.5
147
3.0
172
     1
173
     1
176
     2
177
     2
178
     2
271
     2
340
E6
  0
DIMSTYLE
105
443
102
{ACAD_REACTORS
330
444
102
}
330
A
100
AcDbSymbolTableRecord
100
AcDbDimStyleTableRecord
  2
ME10_DIM_49
 70
     0
 41
5.25
 42
0.0
 44
3.0
 73
     0
 74
     0
 77
     1
 78
     8
140
7.5
147
3.0
172
     1
173
     1
176
     2
177
     2
178
     2
271
     2
340
E6
  0
DIMSTYLE
105
44E
102
{ACAD_REACTORS
330
44F
102
}
330
A
100
AcDbSymbolTableRecord
100
AcDbDimStyleTableRecord
  2
ME10_DIM_50
 70
     0
 41
5.25
 42
0.0
 44
3.0
 73
     0
 74
     0
 77
     1
 78
     8
140
7.5
147
3.0
172
     1
173
     1
176
     2
177
     2
178
     2
271
     2
340
E6
  0
DIMSTYLE
105
459
102
{ACAD_REACTORS
330
45A
102
}
330
A
100
AcDbSymbolTableRecord
100
AcDbDimStyleTableRecord
  2
ME10_DIM_51
 70
     0
 41
5.25
 42
0.0
 44
3.0
 73
     0
 74
     0
 77
     1
 78
     8
140
7.5
147
3.0
172
     1
173
     1
176
     2
177
     2
178
     2
271
     2
340
E6
  0
DIMSTYLE
105
464
102
{ACAD_REACTORS
330
465
102
}
330
A
100
AcDbSymbolTableRecord
100
AcDbDimStyleTableRecord
  2
ME10_DIM_52
 70
     0
 41
5.25
 42
0.0
 44
3.0
 73
     0
 74
     0
 77
     1
 78
     8
140
7.5
147
3.0
172
     1
173
     1
176
     2
177
     2
178
     2
271
     2
340
E6
  0
DIMSTYLE
105
470
102
{ACAD_REACTORS
330
471
102
}
330
A
100
AcDbSymbolTableRecord
100
AcDbDimStyleTableRecord
  2
ME10_DIM_53
 70
     0
 41
5.25
 42
0.0
 44
3.0
 73
     0
 74
     0
 77
     1
 78
     8
140
7.5
147
3.0
172
     1
173
     1
176
     2
177
     2
178
     2
271
     2
340
E6
  0
DIMSTYLE
105
47C
102
{ACAD_REACTORS
330
47D
102
}
330
A
100
AcDbSymbolTableRecord
100
AcDbDimStyleTableRecord
  2
ME10_DIM_54
 70
     0
 41
5.25
 42
0.0
 44
3.0
 73
     0
 74
     0
 77
     1
 78
     8
140
7.5
147
3.0
172
     1
173
     1
176
     2
177
     2
178
     2
271
     2
340
E6
  0
DIMSTYLE
105
489
102
{ACAD_REACTORS
330
48A
102
}
330
A
100
AcDbSymbolTableRecord
100
AcDbDimStyleTableRecord
  2
ME10_DIM_55
 70
     0
 41
5.25
 42
0.0
 44
3.0
 73
     0
 74
     0
 77
     1
 78
     8
140
7.5
147
3.0
172
     1
173
     1
176
     2
177
     2
178
     2
271
     2
340
E6
  0
DIMSTYLE
105
497
102
{ACAD_REACTORS
330
498
102
}
330
A
100
AcDbSymbolTableRecord
100
AcDbDimStyleTableRecord
  2
ME10_DIM_56
 70
     0
 41
5.25
 42
0.0
 44
3.0
 73
     0
 74
     0
 77
     1
 78
     8
140
7.5
147
3.0
172
     1
173
     1
176
     2
177
     2
178
     2
271
     2
340
E6
  0
DIMSTYLE
105
4A4
102
{ACAD_REACTORS
330
4A5
102
}
330
A
100
AcDbSymbolTableRecord
100
AcDbDimStyleTableRecord
  2
ME10_DIM_57
 70
     0
 41
5.25
 42
0.0
 44
3.0
 73
     0
 74
     0
 77
     1
 78
     8
140
7.5
147
3.0
172
     1
173
     1
176
     2
177
     2
178
     2
271
     2
340
E6
  0
DIMSTYLE
105
4AF
102
{ACAD_REACTORS
330
4B0
102
}
330
A
100
AcDbSymbolTableRecord
100
AcDbDimStyleTableRecord
  2
ME10_DIM_58
 70
     0
 41
5.25
 42
0.0
 44
3.0
 73
     0
 74
     0
 77
     1
 78
     8
140
7.5
147
3.0
172
     1
173
     1
176
     2
177
     2
178
     2
271
     2
340
E6
  0
DIMSTYLE
105
4BB
102
{ACAD_REACTORS
330
4BC
102
}
330
A
100
AcDbSymbolTableRecord
100
AcDbDimStyleTableRecord
  2
ME10_DIM_59
 70
     0
 41
5.25
 42
0.0
 44
3.0
 73
     0
 74
     0
 77
     1
 78
     8
140
7.5
147
3.0
172
     1
173
     1
176
     2
177
     2
178
     2
271
     2
340
E6
  0
DIMSTYLE
105
4C6
102
{ACAD_REACTORS
330
4C7
102
}
330
A
100
AcDbSymbolTableRecord
100
AcDbDimStyleTableRecord
  2
ME10_DIM_60
 70
     0
 41
5.25
 42
0.0
 44
3.0
 73
     0
 74
     0
 77
     1
 78
     8
140
7.5
147
3.0
172
     1
173
     1
176
     2
177
     2
178
     2
271
     2
340
E6
  0
DIMSTYLE
105
4D2
102
{ACAD_REACTORS
330
4D3
102
}
330
A
100
AcDbSymbolTableRecord
100
AcDbDimStyleTableRecord
  2
ME10_DIM_61
 70
     0
 41
5.25
 42
0.0
 44
3.0
 73
     0
 74
     0
 77
     1
 78
     8
140
7.5
147
3.0
172
     1
173
     1
176
     2
177
     2
178
     2
271
     2
340
E6
  0
ENDTAB
  0
TABLE
  2
BLOCK_RECORD
  5
1
330
0
100
AcDbSymbolTable
 70
    61
  0
BLOCK_RECORD
  5
1F
330
1
100
AcDbSymbolTableRecord
100
AcDbBlockTableRecord
  2
*Model_Space
340
22
  0
BLOCK_RECORD
  5
1B
330
1
100
AcDbSymbolTableRecord
100
AcDbBlockTableRecord
  2
*Paper_Space
340
1E
  0
BLOCK_RECORD
  5
23
330
1
100
AcDbSymbolTableRecord
100
AcDbBlockTableRecord
  2
*Paper_Space0
340
26
  0
BLOCK_RECORD
  5
43
330
1
100
AcDbSymbolTableRecord
100
AcDbBlockTableRecord
  2
A4
340
0
102
{BLKREFS
331
69
102
}
  0
BLOCK_RECORD
  5
46
330
1
100
AcDbSymbolTableRecord
100
AcDbBlockTableRecord
  2
Top
340
0
102
{BLKREFS
331
6C
102
}
  0
BLOCK_RECORD
  5
263
330
1
100
AcDbSymbolTableRecord
100
AcDbBlockTableRecord
  2
*D3
340
0
  0
BLOCK_RECORD
  5
270
330
1
100
AcDbSymbolTableRecord
100
AcDbBlockTableRecord
  2
*D4
340
0
  0
BLOCK_RECORD
  5
27B
330
1
100
AcDbSymbolTableRecord
100
AcDbBlockTableRecord
  2
*D5
340
0
  0
BLOCK_RECORD
  5
288
330
1
100
AcDbSymbolTableRecord
100
AcDbBlockTableRecord
  2
*D6
340
0
  0
BLOCK_RECORD
  5
295
330
1
100
AcDbSymbolTableRecord
100
AcDbBlockTableRecord
  2
*D7
340
0
  0
BLOCK_RECORD
  5
2A2
330
1
100
AcDbSymbolTableRecord
100
AcDbBlockTableRecord
  2
*D8
340
0
  0
BLOCK_RECORD
  5
2AF
330
1
100
AcDbSymbolTableRecord
100
AcDbBlockTableRecord
  2
*D9
340
0
  0
BLOCK_RECORD
  5
2BB
330
1
100
AcDbSymbolTableRecord
100
AcDbBlockTableRecord
  2
*D10
340
0
  0
BLOCK_RECORD
  5
2C8
330
1
100
AcDbSymbolTableRecord
100
AcDbBlockTableRecord
  2
*D11
340
0
  0
BLOCK_RECORD
  5
2D6
330
1
100
AcDbSymbolTableRecord
100
AcDbBlockTableRecord
  2
*D12
340
0
  0
BLOCK_RECORD
  5
2E3
330
1
100
AcDbSymbolTableRecord
100
AcDbBlockTableRecord
  2
*D13
340
0
  0
BLOCK_RECORD
  5
2EE
330
1
100
AcDbSymbolTableRecord
100
AcDbBlockTableRecord
  2
*D14
340
0
  0
BLOCK_RECORD
  5
2FD
330
1
100
AcDbSymbolTableRecord
100
AcDbBlockTableRecord
  2
*D15
340
0
  0
BLOCK_RECORD
  5
308
330
1
100
AcDbSymbolTableRecord
100
AcDbBlockTableRecord
  2
*D16
340
0
  0
BLOCK_RECORD
  5
312
330
1
100
AcDbSymbolTableRecord
100
AcDbBlockTableRecord
  2
_OBLIQUE
340
0
  0
BLOCK_RECORD
  5
318
330
1
100
AcDbSymbolTableRecord
100
AcDbBlockTableRecord
  2
*D18
340
0
  0
BLOCK_RECORD
  5
324
330
1
100
AcDbSymbolTableRecord
100
AcDbBlockTableRecord
  2
*D19
340
0
  0
BLOCK_RECORD
  5
32F
330
1
100
AcDbSymbolTableRecord
100
AcDbBlockTableRecord
  2
*D20
340
0
  0
BLOCK_RECORD
  5
33A
330
1
100
AcDbSymbolTableRecord
100
AcDbBlockTableRecord
  2
*D21
340
0
  0
BLOCK_RECORD
  5
347
330
1
100
AcDbSymbolTableRecord
100
AcDbBlockTableRecord
  2
*D22
340
0
  0
BLOCK_RECORD
  5
352
330
1
100
AcDbSymbolTableRecord
100
AcDbBlockTableRecord
  2
*D23
340
0
  0
BLOCK_RECORD
  5
35F
330
1
100
AcDbSymbolTableRecord
100
AcDbBlockTableRecord
  2
*D24
340
0
  0
BLOCK_RECORD
  5
36A
330
1
100
AcDbSymbolTableRecord
100
AcDbBlockTableRecord
  2
*D25
340
0
  0
BLOCK_RECORD
  5
375
330
1
100
AcDbSymbolTableRecord
100
AcDbBlockTableRecord
  2
*D26
340
0
  0
BLOCK_RECORD
  5
380
330
1
100
AcDbSymbolTableRecord
100
AcDbBlockTableRecord
  2
*D27
340
0
  0
BLOCK_RECORD
  5
38D
330
1
100
AcDbSymbolTableRecord
100
AcDbBlockTableRecord
  2
*D28
340
0
  0
BLOCK_RECORD
  5
39A
330
1
100
AcDbSymbolTableRecord
100
AcDbBlockTableRecord
  2
*D29
340
0
  0
BLOCK_RECORD
  5
3A5
330
1
100
AcDbSymbolTableRecord
100
AcDbBlockTableRecord
  2
*D30
340
0
  0
BLOCK_RECORD
  5
3B0
330
1
100
AcDbSymbolTableRecord
100
AcDbBlockTableRecord
  2
*D31
340
0
  0
BLOCK_RECORD
  5
3BD
330
1
100
AcDbSymbolTableRecord
100
AcDbBlockTableRecord
  2
*D32
340
0
  0
BLOCK_RECORD
  5
3C8
330
1
100
AcDbSymbolTableRecord
100
AcDbBlockTableRecord
  2
*D33
340
0
  0
BLOCK_RECORD
  5
3D3
330
1
100
AcDbSymbolTableRecord
100
AcDbBlockTableRecord
  2
*D34
340
0
  0
BLOCK_RECORD
  5
3DE
330
1
100
AcDbSymbolTableRecord
100
AcDbBlockTableRecord
  2
*D35
340
0
  0
BLOCK_RECORD
  5
3E9
330
1
100
AcDbSymbolTableRecord
100
AcDbBlockTableRecord
  2
*D36
340
0
  0
BLOCK_RECORD
  5
3F4
330
1
100
AcDbSymbolTableRecord
100
AcDbBlockTableRecord
  2
*D37
340
0
  0
BLOCK_RECORD
  5
3FF
330
1
100
AcDbSymbolTableRecord
100
AcDbBlockTableRecord
  2
*D38
340
0
  0
BLOCK_RECORD
  5
40A
330
1
100
AcDbSymbolTableRecord
100
AcDbBlockTableRecord
  2
*D39
340
0
  0
BLOCK_RECORD
  5
415
330
1
100
AcDbSymbolTableRecord
100
AcDbBlockTableRecord
  2
*D40
340
0
  0
BLOCK_RECORD
  5
420
330
1
100
AcDbSymbolTableRecord
100
AcDbBlockTableRecord
  2
*D41
340
0
  0
BLOCK_RECORD
  5
42C
330
1
100
AcDbSymbolTableRecord
100
AcDbBlockTableRecord
  2
*D42
340
0
  0
BLOCK_RECORD
  5
438
330
1
100
AcDbSymbolTableRecord
100
AcDbBlockTableRecord
  2
*D43
340
0
  0
BLOCK_RECORD
  5
445
330
1
100
AcDbSymbolTableRecord
100
AcDbBlockTableRecord
  2
*D44
340
0
  0
BLOCK_RECORD
  5
450
330
1
100
AcDbSymbolTableRecord
100
AcDbBlockTableRecord
  2
*D45
340
0
  0
BLOCK_RECORD
  5
45B
330
1
100
AcDbSymbolTableRecord
100
AcDbBlockTableRecord
  2
*D46
340
0
  0
BLOCK_RECORD
  5
466
330
1
100
AcDbSymbolTableRecord
100
AcDbBlockTableRecord
  2
*D47
340
0
  0
BLOCK_RECORD
  5
472
330
1
100
AcDbSymbolTableRecord
100
AcDbBlockTableRecord
  2
*D48
340
0
  0
BLOCK_RECORD
  5
47E
330
1
100
AcDbSymbolTableRecord
100
AcDbBlockTableRecord
  2
*D49
340
0
  0
BLOCK_RECORD
  5
48B
330
1
100
AcDbSymbolTableRecord
100
AcDbBlockTableRecord
  2
*D50
340
0
  0
BLOCK_RECORD
  5
499
330
1
100
AcDbSymbolTableRecord
100
AcDbBlockTableRecord
  2
*D51
340
0
  0
BLOCK_RECORD
  5
4A6
330
1
100
AcDbSymbolTableRecord
100
AcDbBlockTableRecord
  2
*D52
340
0
  0
BLOCK_RECORD
  5
4B1
330
1
100
AcDbSymbolTableRecord
100
AcDbBlockTableRecord
  2
*D53
340
0
  0
BLOCK_RECORD
  5
4BD
330
1
100
AcDbSymbolTableRecord
100
AcDbBlockTableRecord
  2
*D54
340
0
  0
BLOCK_RECORD
  5
4C8
330
1
100
AcDbSymbolTableRecord
100
AcDbBlockTableRecord
  2
*D55
340
0
  0
BLOCK_RECORD
  5
4D4
330
1
100
AcDbSymbolTableRecord
100
AcDbBlockTableRecord
  2
*D56
340
0
102
{BLKREFS
331
4DC
102
}
  0
BLOCK_RECORD
  5
4DD
330
1
100
AcDbSymbolTableRecord
100
AcDbBlockTableRecord
  2
*D57
340
0
102
{BLKREFS
331
4E4
102
}
  0
BLOCK_RECORD
  5
4E5
330
1
100
AcDbSymbolTableRecord
100
AcDbBlockTableRecord
  2
*D58
340
0
102
{BLKREFS
331
4EB
102
}
  0
BLOCK_RECORD
  5
4EC
330
1
100
AcDbSymbolTableRecord
100
AcDbBlockTableRecord
  2
*D59
340
0
102
{BLKREFS
331
4F3
102
}
  0
BLOCK_RECORD
  5
4F4
330
1
100
AcDbSymbolTableRecord
100
AcDbBlockTableRecord
  2
*D60
340
0
102
{BLKREFS
331
4FB
102
}
  0
ENDTAB
  0
ENDSEC
  0
SECTION
  2
BLOCKS
  0
BLOCK
  5
20
330
1F
100
AcDbEntity
  8
0
100
AcDbBlockBegin
  2
*Model_Space
 70
     0
 10
0.0
 20
0.0
 30
0.0
  3
*Model_Space
  1

  0
ENDBLK
  5
21
330
1F
100
AcDbEntity
  8
0
100
AcDbBlockEnd
  0
BLOCK
  5
1C
330
1B
100
AcDbEntity
 67
     1
  8
0
100
AcDbBlockBegin
  2
*Paper_Space
 70
     0
 10
0.0
 20
0.0
 30
0.0
  3
*Paper_Space
  1

  0
ENDBLK
  5
1D
330
1B
100
AcDbEntity
 67
     1
  8
0
100
AcDbBlockEnd
  0
BLOCK
  5
24
330
23
100
AcDbEntity
  8
0
100
AcDbBlockBegin
  2
*Paper_Space0
 70
     0
 10
0.0
 20
0.0
 30
0.0
  3
*Paper_Space0
  1

  0
ENDBLK
  5
25
330
23
100
AcDbEntity
  8
0
100
AcDbBlockEnd
  0
BLOCK
  5
44
330
43
100
AcDbEntity
  8
0
100
AcDbBlockBegin
  2
A4
 70
     0
 10
4719.66145506624
 20
-2039.598345181284
 30
0.0
  3
A4
  1

  0
LINE
  5
6D
330
43
100
AcDbEntity
  8
1
  6
Continuous
 62
     4
100
AcDbLine
 10
-438.5539542273309
 20
716.0115182135469
 30
0.0
 11
-438.5539542273309
 21
701.0115182135469
 31
0.0
  0
LINE
  5
6E
330
43
100
AcDbEntity
  8
1
  6
Continuous
 62
     4
100
AcDbLine
 10
-428.5539542273309
 20
716.0115182135469
 30
0.0
 11
-428.5539542273309
 21
701.0115182135469
 31
0.0
  0
LINE
  5
6F
330
43
100
AcDbEntity
  8
1
  6
Continuous
 62
     4
100
AcDbLine
 10
-526.2206208940006
 20
767.833527682852
 30
0.0
 11
-428.8872875606703
 21
767.833527682852
 31
0.0
  0
LINE
  5
70
330
43
100
AcDbEntity
  8
1
  6
Continuous
 62
     4
100
AcDbLine
 10
-526.2206208940006
 20
732.833527682852
 30
0.0
 11
-526.2206208940006
 21
767.833527682852
 31
0.0
  0
LINE
  5
71
330
43
100
AcDbEntity
  8
1
  6
Continuous
 62
     4
100
AcDbLine
 10
-526.2206208940006
 20
732.833527682852
 30
0.0
 11
-428.8872875606703
 21
732.833527682852
 31
0.0
  0
LINE
  5
72
330
43
100
AcDbEntity
  8
1
  6
Continuous
 62
     2
100
AcDbLine
 10
-428.8872875606703
 20
742.833527682852
 30
0.0
 11
-526.2206208940006
 21
742.833527682852
 31
0.0
  0
LINE
  5
73
330
43
100
AcDbEntity
  8
1
  6
Continuous
 62
     2
100
AcDbLine
 10
-526.2206208940006
 20
752.833527682852
 30
0.0
 11
-428.8872875606703
 21
752.833527682852
 31
0.0
  0
LINE
  5
74
330
43
100
AcDbEntity
  8
1
  6
Continuous
 62
     4
100
AcDbLine
 10
-509.5539542273309
 20
767.833527682852
 30
0.0
 11
-509.5539542273309
 21
732.833527682852
 31
0.0
  0
LINE
  5
75
330
43
100
AcDbEntity
  8
1
  6
Continuous
 62
     4
100
AcDbLine
 10
-472.5539542273309
 20
767.833527682852
 30
0.0
 11
-472.5539542273309
 21
732.833527682852
 31
0.0
  0
LINE
  5
76
330
43
100
AcDbEntity
  8
1
  6
Continuous
 62
     2
100
AcDbLine
 10
-428.8872875606703
 20
747.833527682852
 30
0.0
 11
-509.5539542273309
 21
747.833527682852
 31
0.0
  0
LINE
  5
77
330
43
100
AcDbEntity
  8
1
  6
Continuous
 62
     2
100
AcDbLine
 10
-509.55395422734
 20
757.833527682852
 30
0.0
 11
-428.8872875606703
 21
757.833527682852
 31
0.0
  0
LINE
  5
78
330
43
100
AcDbEntity
  8
1
  6
Continuous
 62
     4
100
AcDbLine
 10
-428.8872875606703
 20
762.833527682852
 30
0.0
 11
-526.2206208940006
 21
762.833527682852
 31
0.0
  0
LINE
  5
79
330
43
100
AcDbEntity
  8
1
  6
Continuous
 62
     4
100
AcDbLine
 10
-461.8872875606703
 20
767.833527682852
 30
0.0
 11
-461.8872875606703
 21
732.833527682852
 31
0.0
  0
LINE
  5
7A
330
43
100
AcDbEntity
  8
1
  6
Continuous
 62
     4
100
AcDbLine
 10
-481.8872875606703
 20
767.833527682852
 30
0.0
 11
-481.8872875606703
 21
732.833527682852
 31
0.0
  0
LINE
  5
7B
330
43
100
AcDbEntity
  8
1
  6
Continuous
 62
     4
100
AcDbLine
 10
-491.8872875606703
 20
767.833527682852
 30
0.0
 11
-491.8872875606703
 21
732.833527682852
 31
0.0
  0
LINE
  5
7C
330
43
100
AcDbEntity
  8
1
  6
Continuous
 62
     4
100
AcDbLine
 10
-428.8872875606703
 20
767.833527682852
 30
0.0
 11
-428.8872875606703
 21
732.833527682852
 31
0.0
  0
LINE
  5
7D
330
43
100
AcDbEntity
  8
1
  6
Continuous
 62
     2
100
AcDbLine
 10
-509.55395422734
 20
737.833527682852
 30
0.0
 11
-428.8872875606703
 21
737.833527682852
 31
0.0
  0
LINE
  5
7E
330
43
100
AcDbEntity
  8
1
  6
Continuous
 62
     4
100
AcDbLine
 10
-453.8872875606703
 20
767.833527682852
 30
0.0
 11
-453.8872875606703
 21
732.833527682852
 31
0.0
  0
LINE
  5
7F
330
43
100
AcDbEntity
  8
1
  6
Continuous
 62
     4
100
AcDbLine
 10
-443.8872875606703
 20
767.833527682852
 30
0.0
 11
-443.8872875606703
 21
732.833527682852
 31
0.0
  0
LINE
  5
80
330
43
100
AcDbEntity
  8
1
  6
Continuous
 62
     4
100
AcDbLine
 10
-463.5539542273309
 20
716.0115182135469
 30
0.0
 11
-463.5539542273309
 21
701.0115182135469
 31
0.0
  0
LINE
  5
81
330
43
100
AcDbEntity
  8
1
  6
Continuous
 62
     4
100
AcDbLine
 10
-473.5539542273309
 20
716.0115182135469
 30
0.0
 11
-473.5539542273309
 21
701.0115182135469
 31
0.0
  0
LINE
  5
82
330
43
100
AcDbEntity
  8
1
  6
Continuous
 62
     4
100
AcDbLine
 10
-418.5539542273309
 20
716.0115182135469
 30
0.0
 11
-418.5539542273309
 21
701.0115182135469
 31
0.0
  0
LINE
  5
83
330
43
100
AcDbEntity
  8
1
  6
Continuous
 62
     4
100
AcDbLine
 10
-388.5539542273309
 20
716.0115182135469
 30
0.0
 11
-388.5539542273309
 21
701.0115182135469
 31
0.0
  0
LINE
  5
84
330
43
100
AcDbEntity
  8
1
  6
Continuous
 62
     4
100
AcDbLine
 10
-506.2206208940006
 20
716.0115182135469
 30
0.0
 11
-506.2206208940006
 21
701.0115182135469
 31
0.0
  0
LINE
  5
85
330
43
100
AcDbEntity
  8
1
  6
Continuous
 62
     4
100
AcDbLine
 10
-496.2206208940006
 20
716.0115182135469
 30
0.0
 11
-496.2206208940006
 21
701.0115182135469
 31
0.0
  0
LINE
  5
86
330
43
100
AcDbEntity
  8
1
  6
Continuous
 62
     4
100
AcDbLine
 10
-448.5539542273309
 20
716.0115182135469
 30
0.0
 11
-448.5539542273309
 21
701.0115182135469
 31
0.0
  0
LINE
  5
87
330
43
100
AcDbEntity
  8
1
  6
Continuous
 62
     4
100
AcDbLine
 10
-388.5539542273309
 20
711.0115182135469
 30
0.0
 11
-526.2206208940006
 21
711.0115182135469
 31
0.0
  0
LINE
  5
88
330
43
100
AcDbEntity
  8
1
  6
Continuous
 62
     2
100
AcDbLine
 10
-526.2206208940006
 20
706.0115182135469
 30
0.0
 11
-388.5539542273309
 21
706.0115182135469
 31
0.0
  0
LINE
  5
89
330
43
100
AcDbEntity
  8
1
  6
Continuous
 62
     4
100
AcDbLine
 10
-486.2206208940006
 20
716.0115182135469
 30
0.0
 11
-486.2206208940006
 21
701.0115182135469
 31
0.0
  0
LINE
  5
8A
330
43
100
AcDbEntity
  8
1
  6
Continuous
 62
     4
100
AcDbLine
 10
-526.2206208940006
 20
716.0115182135469
 30
0.0
 11
-526.2206208940006
 21
701.0115182135469
 31
0.0
  0
LINE
  5
8B
330
43
100
AcDbEntity
  8
1
  6
Continuous
 62
     4
100
AcDbLine
 10
-526.2206208940006
 20
701.0115182135469
 30
0.0
 11
-388.5539542273309
 21
701.0115182135469
 31
0.0
  0
LINE
  5
8C
330
43
100
AcDbEntity
  8
1
  6
Continuous
 62
     4
100
AcDbLine
 10
-526.2206208940006
 20
716.0115182135469
 30
0.0
 11
-388.5539542273309
 21
716.0115182135469
 31
0.0
  0
LINE
  5
8D
330
43
100
AcDbEntity
  8
1
  6
Continuous
 62
     2
100
AcDbLine
 10
-774.3547972221513
 20
873.0483798406858
 30
0.0
 11
-354.3547972221513
 21
873.0483798406858
 31
0.0
  0
LINE
  5
8E
330
43
100
AcDbEntity
  8
1
  6
Continuous
 62
     7
100
AcDbLine
 10
-769.3547972221513
 20
868.0483798406858
 30
0.0
 11
-359.3547972221513
 21
868.0483798406858
 31
0.0
  0
LINE
  5
8F
330
43
100
AcDbEntity
  8
1
  6
Continuous
 62
     2
100
AcDbLine
 10
-774.3547972221513
 20
576.0483798406858
 30
0.0
 11
-774.3547972221513
 21
873.0483798406858
 31
0.0
  0
LINE
  5
90
330
43
100
AcDbEntity
  8
1
  6
Continuous
 62
     7
100
AcDbLine
 10
-769.3547972221513
 20
581.0483798406858
 30
0.0
 11
-769.3547972221513
 21
868.0483798406858
 31
0.0
  0
LINE
  5
91
330
43
100
AcDbEntity
  8
1
  6
Continuous
 62
     7
100
AcDbLine
 10
-544.3547972221513
 20
581.0483798406858
 30
0.0
 11
-769.3547972221513
 21
581.0483798406858
 31
0.0
  0
LINE
  5
92
330
43
100
AcDbEntity
  8
1
  6
Continuous
 62
     2
100
AcDbLine
 10
-354.3547972221513
 20
576.0483798406858
 30
0.0
 11
-774.3547972221513
 21
576.0483798406858
 31
0.0
  0
LINE
  5
93
330
43
100
AcDbEntity
  8
1
  6
Continuous
 62
     7
100
AcDbLine
 10
-359.3547972221513
 20
868.0483798406858
 30
0.0
 11
-359.3547972221513
 21
633.0483798406858
 31
0.0
  0
LINE
  5
94
330
43
100
AcDbEntity
  8
1
  6
Continuous
 62
     2
100
AcDbLine
 10
-354.3547972221513
 20
873.0483798406858
 30
0.0
 11
-354.3547972221513
 21
576.0483798406858
 31
0.0
  0
LINE
  5
95
330
43
100
AcDbEntity
  8
1
  6
Continuous
 62
     7
100
AcDbLine
 10
-541.8547972221513
 20
603.0483798406858
 30
0.0
 11
-497.2161471188501
 21
603.0483798406858
 31
0.0
  0
LINE
  5
96
330
43
100
AcDbEntity
  8
1
  6
Continuous
 62
     7
100
AcDbLine
 10
-386.8547972221513
 20
629.2983798406858
 30
0.0
 11
-386.8547972221513
 21
628.0483798406858
 31
0.0
  0
LINE
  5
97
330
43
100
AcDbEntity
  8
1
  6
Continuous
 62
     7
100
AcDbLine
 10
-359.3547972221513
 20
629.2983798406858
 30
0.0
 11
-359.3547972221513
 21
625.5483798406858
 31
0.0
  0
LINE
  5
98
330
43
100
AcDbEntity
  8
1
  6
Continuous
 62
     2
100
AcDbLine
 10
-359.3547972221513
 20
629.2983798406858
 30
0.0
 11
-386.8547972221513
 21
629.2983798406858
 31
0.0
  0
LINE
  5
99
330
43
100
AcDbEntity
  8
1
  6
Continuous
 62
     7
100
AcDbLine
 10
-359.3547972221513
 20
625.5483798406858
 30
0.0
 11
-359.3547972221513
 21
621.7983798406858
 31
0.0
  0
LINE
  5
9A
330
43
100
AcDbEntity
  8
1
  6
Continuous
 62
     7
100
AcDbLine
 10
-386.8547972221513
 20
625.5483798406858
 30
0.0
 11
-386.8547972221513
 21
623.0483798406858
 31
0.0
  0
LINE
  5
9B
330
43
100
AcDbEntity
  8
1
  6
Continuous
 62
     2
100
AcDbLine
 10
-386.8547972221513
 20
625.5483798406858
 30
0.0
 11
-359.3547972221513
 21
625.5483798406858
 31
0.0
  0
LINE
  5
9C
330
43
100
AcDbEntity
  8
1
  6
Continuous
 62
     7
100
AcDbLine
 10
-386.8547972221513
 20
621.7983798406858
 30
0.0
 11
-386.8547972221513
 21
618.0483798406858
 31
0.0
  0
LINE
  5
9D
330
43
100
AcDbEntity
  8
1
  6
Continuous
 62
     7
100
AcDbLine
 10
-359.3547972221513
 20
621.7983798406858
 30
0.0
 11
-359.3547972221513
 21
618.0483798406858
 31
0.0
  0
LINE
  5
9E
330
43
100
AcDbEntity
  8
1
  6
Continuous
 62
     2
100
AcDbLine
 10
-359.3547972221513
 20
621.7983798406858
 30
0.0
 11
-386.8547972221513
 21
621.7983798406858
 31
0.0
  0
LINE
  5
9F
330
43
100
AcDbEntity
  8
1
  6
Continuous
 62
     7
100
AcDbLine
 10
-359.3547972221513
 20
612.5483798406858
 30
0.0
 11
-359.3547972221513
 21
607.0483798406858
 31
0.0
  0
LINE
  5
A0
330
43
100
AcDbEntity
  8
1
  6
Continuous
 62
     2
100
AcDbLine
 10
-359.3547972221513
 20
612.5483798406858
 30
0.0
 11
-413.3547972221513
 21
612.5483798406858
 31
0.0
  0
LINE
  5
A1
330
43
100
AcDbEntity
  8
1
  6
Continuous
 62
     7
100
AcDbLine
 10
-359.3547972221513
 20
607.0483798406858
 30
0.0
 11
-359.3547972221513
 21
601.5483798406858
 31
0.0
  0
LINE
  5
A2
330
43
100
AcDbEntity
  8
1
  6
Continuous
 62
     7
100
AcDbLine
 10
-413.3547972221513
 20
607.0483798406858
 30
0.0
 11
-413.3547972221513
 21
601.5483798406858
 31
0.0
  0
LINE
  5
A3
330
43
100
AcDbEntity
  8
1
  6
Continuous
 62
     2
100
AcDbLine
 10
-413.3547972221513
 20
607.0483798406858
 30
0.0
 11
-359.3547972221513
 21
607.0483798406858
 31
0.0
  0
LINE
  5
A4
330
43
100
AcDbEntity
  8
1
  6
Continuous
 62
     7
100
AcDbLine
 10
-413.3547972221513
 20
601.5483798406858
 30
0.0
 11
-413.3547972221513
 21
596.0483798406858
 31
0.0
  0
LINE
  5
A5
330
43
100
AcDbEntity
  8
1
  6
Continuous
 62
     7
100
AcDbLine
 10
-359.3547972221513
 20
601.5483798406858
 30
0.0
 11
-359.3547972221513
 21
596.0483798406858
 31
0.0
  0
LINE
  5
A6
330
43
100
AcDbEntity
  8
1
  6
Continuous
 62
     2
100
AcDbLine
 10
-359.3547972221513
 20
601.5483798406858
 30
0.0
 11
-413.3547972221513
 21
601.5483798406858
 31
0.0
  0
LINE
  5
A7
330
43
100
AcDbEntity
  8
1
  6
Continuous
 62
     7
100
AcDbLine
 10
-376.8547972221513
 20
618.0483798406858
 30
0.0
 11
-359.3547972221513
 21
618.0483798406858
 31
0.0
  0
LINE
  5
A8
330
43
100
AcDbEntity
  8
1
  6
Continuous
 62
     7
100
AcDbLine
 10
-376.8547972221513
 20
596.0483798406858
 30
0.0
 11
-394.3547972221513
 21
596.0483798406858
 31
0.0
  0
LINE
  5
A9
330
43
100
AcDbEntity
  8
1
  6
Continuous
 62
     2
100
AcDbLine
 10
-376.8547972221513
 20
596.0483798406858
 30
0.0
 11
-376.8547972221513
 21
618.0483798406858
 31
0.0
  0
LINE
  5
AA
330
43
100
AcDbEntity
  8
1
  6
Continuous
 62
     7
100
AcDbLine
 10
-394.3547972221513
 20
596.0483798406858
 30
0.0
 11
-413.3547972221513
 21
596.0483798406858
 31
0.0
  0
LINE
  5
AB
330
43
100
AcDbEntity
  8
1
  6
Continuous
 62
     7
100
AcDbLine
 10
-394.3547972221513
 20
618.0483798406858
 30
0.0
 11
-386.8547972221513
 21
618.0483798406858
 31
0.0
  0
LINE
  5
AC
330
43
100
AcDbEntity
  8
1
  6
Continuous
 62
     2
100
AcDbLine
 10
-394.3547972221513
 20
618.0483798406858
 30
0.0
 11
-394.3547972221513
 21
596.0483798406858
 31
0.0
  0
LINE
  5
AD
330
43
100
AcDbEntity
  8
1
  6
Continuous
 62
     7
100
AcDbLine
 10
-399.3547972221513
 20
618.0483798406858
 30
0.0
 11
-394.3547972221513
 21
618.0483798406858
 31
0.0
  0
LINE
  5
AE
330
43
100
AcDbEntity
  8
1
  6
Continuous
 62
     2
100
AcDbLine
 10
-399.3547972221513
 20
618.0483798406858
 30
0.0
 11
-399.3547972221513
 21
633.0483798406858
 31
0.0
  0
LINE
  5
AF
330
43
100
AcDbEntity
  8
1
  6
Continuous
 62
     7
100
AcDbLine
 10
-411.3547972221513
 20
618.0483798406858
 30
0.0
 11
-399.3547972221513
 21
618.0483798406858
 31
0.0
  0
LINE
  5
B0
330
43
100
AcDbEntity
  8
1
  6
Continuous
 62
     7
100
AcDbLine
 10
-411.3547972221513
 20
633.0483798406858
 30
0.0
 11
-431.3547972221513
 21
633.0483798406858
 31
0.0
  0
LINE
  5
B1
330
43
100
AcDbEntity
  8
1
  6
Continuous
 62
     2
100
AcDbLine
 10
-411.3547972221513
 20
633.0483798406858
 30
0.0
 11
-411.3547972221513
 21
618.0483798406858
 31
0.0
  0
LINE
  5
B2
330
43
100
AcDbEntity
  8
1
  6
Continuous
 62
     7
100
AcDbLine
 10
-431.3547972221513
 20
633.0483798406858
 30
0.0
 11
-451.3547972221513
 21
633.0483798406858
 31
0.0
  0
LINE
  5
B3
330
43
100
AcDbEntity
  8
1
  6
Continuous
 62
     7
100
AcDbLine
 10
-431.3547972221513
 20
618.0483798406858
 30
0.0
 11
-413.3547972221513
 21
618.0483798406858
 31
0.0
  0
LINE
  5
B4
330
43
100
AcDbEntity
  8
1
  6
Continuous
 62
     2
100
AcDbLine
 10
-431.3547972221513
 20
618.0483798406858
 30
0.0
 11
-431.3547972221513
 21
633.0483798406858
 31
0.0
  0
LINE
  5
B5
330
43
100
AcDbEntity
  8
1
  6
Continuous
 62
     7
100
AcDbLine
 10
-451.3547972221513
 20
618.0483798406858
 30
0.0
 11
-431.3547972221513
 21
618.0483798406858
 31
0.0
  0
LINE
  5
B6
330
43
100
AcDbEntity
  8
1
  6
Continuous
 62
     2
100
AcDbLine
 10
-451.3547972221513
 20
618.0483798406858
 30
0.0
 11
-451.3547972221513
 21
633.0483798406858
 31
0.0
  0
LINE
  5
B7
330
43
100
AcDbEntity
  8
1
  6
Continuous
 62
     7
100
AcDbLine
 10
-463.8547972221513
 20
633.0483798406858
 30
0.0
 11
-483.8547972221513
 21
633.0483798406858
 31
0.0
  0
LINE
  5
B8
330
43
100
AcDbEntity
  8
1
  6
Continuous
 62
     7
100
AcDbLine
 10
-463.8547972221513
 20
618.0483798406858
 30
0.0
 11
-451.3547972221513
 21
618.0483798406858
 31
0.0
  0
LINE
  5
B9
330
43
100
AcDbEntity
  8
1
  6
Continuous
 62
     2
100
AcDbLine
 10
-463.8547972221513
 20
618.0483798406858
 30
0.0
 11
-463.8547972221513
 21
633.0483798406858
 31
0.0
  0
LINE
  5
BA
330
43
100
AcDbEntity
  8
1
  6
Continuous
 62
     7
100
AcDbLine
 10
-483.8547972221513
 20
618.0483798406858
 30
0.0
 11
-463.8547972221513
 21
618.0483798406858
 31
0.0
  0
LINE
  5
BB
330
43
100
AcDbEntity
  8
1
  6
Continuous
 62
     7
100
AcDbLine
 10
-483.8547972221513
 20
633.0483798406858
 30
0.0
 11
-491.8547972221513
 21
633.0483798406858
 31
0.0
  0
LINE
  5
BC
330
43
100
AcDbEntity
  8
1
  6
Continuous
 62
     2
100
AcDbLine
 10
-483.8547972221513
 20
633.0483798406858
 30
0.0
 11
-483.8547972221513
 21
618.0483798406858
 31
0.0
  0
LINE
  5
BD
330
43
100
AcDbEntity
  8
1
  6
Continuous
 62
     7
100
AcDbLine
 10
-503.8547972221513
 20
633.0483798406858
 30
0.0
 11
-516.3547972221513
 21
633.0483798406858
 31
0.0
  0
LINE
  5
BE
330
43
100
AcDbEntity
  8
1
  6
Continuous
 62
     7
100
AcDbLine
 10
-503.8547972221513
 20
618.0483798406858
 30
0.0
 11
-491.8547972221513
 21
618.0483798406858
 31
0.0
  0
LINE
  5
BF
330
43
100
AcDbEntity
  8
1
  6
Continuous
 62
     2
100
AcDbLine
 10
-503.8547972221513
 20
618.0483798406858
 30
0.0
 11
-503.8547972221513
 21
633.0483798406858
 31
0.0
  0
LINE
  5
C0
330
43
100
AcDbEntity
  8
1
  6
Continuous
 62
     7
100
AcDbLine
 10
-516.3547972221513
 20
618.0483798406858
 30
0.0
 11
-503.8547972221513
 21
618.0483798406858
 31
0.0
  0
LINE
  5
C1
330
43
100
AcDbEntity
  8
1
  6
Continuous
 62
     7
100
AcDbLine
 10
-516.3547972221513
 20
633.0483798406858
 30
0.0
 11
-536.3547972221513
 21
633.0483798406858
 31
0.0
  0
LINE
  5
C2
330
43
100
AcDbEntity
  8
1
  6
Continuous
 62
     2
100
AcDbLine
 10
-516.3547972221513
 20
633.0483798406858
 30
0.0
 11
-516.3547972221513
 21
618.0483798406858
 31
0.0
  0
LINE
  5
C3
330
43
100
AcDbEntity
  8
1
  6
Continuous
 62
     7
100
AcDbLine
 10
-536.3547972221513
 20
618.0483798406858
 30
0.0
 11
-516.3547972221513
 21
618.0483798406858
 31
0.0
  0
LINE
  5
C4
330
43
100
AcDbEntity
  8
1
  6
Continuous
 62
     2
100
AcDbLine
 10
-536.3547972221513
 20
618.0483798406858
 30
0.0
 11
-536.3547972221513
 21
633.0483798406858
 31
0.0
  0
LINE
  5
C5
330
43
100
AcDbEntity
  8
1
  6
Continuous
 62
     7
100
AcDbLine
 10
-544.3547972221513
 20
623.0483798406858
 30
0.0
 11
-544.3547972221513
 21
628.0483798406858
 31
0.0
  0
LINE
  5
C6
330
43
100
AcDbEntity
  8
1
  6
Continuous
 62
     7
100
AcDbLine
 10
-386.8547972221513
 20
623.0483798406858
 30
0.0
 11
-386.8547972221513
 21
621.7983798406858
 31
0.0
  0
LINE
  5
C7
330
43
100
AcDbEntity
  8
1
  6
Continuous
 62
     2
100
AcDbLine
 10
-386.8547972221513
 20
623.0483798406858
 30
0.0
 11
-544.3547972221513
 21
623.0483798406858
 31
0.0
  0
LINE
  5
C8
330
43
100
AcDbEntity
  8
1
  6
Continuous
 62
     7
100
AcDbLine
 10
-386.8547972221513
 20
628.0483798406858
 30
0.0
 11
-386.8547972221513
 21
625.5483798406858
 31
0.0
  0
LINE
  5
C9
330
43
100
AcDbEntity
  8
1
  6
Continuous
 62
     7
100
AcDbLine
 10
-544.3547972221513
 20
628.0483798406858
 30
0.0
 11
-544.3547972221513
 21
633.0483798406858
 31
0.0
  0
LINE
  5
CA
330
43
100
AcDbEntity
  8
1
  6
Continuous
 62
     2
100
AcDbLine
 10
-544.3547972221513
 20
628.0483798406858
 30
0.0
 11
-386.8547972221513
 21
628.0483798406858
 31
0.0
  0
LINE
  5
CB
330
43
100
AcDbEntity
  8
1
  6
Continuous
 62
     7
100
AcDbLine
 10
-439.3547972221513
 20
612.5483798406858
 30
0.0
 11
-439.3547972221513
 21
581.0483798406858
 31
0.0
  0
LINE
  5
CC
330
43
100
AcDbEntity
  8
1
  6
Continuous
 62
     7
100
AcDbLine
 10
-413.3547972221513
 20
612.5483798406858
 30
0.0
 11
-413.3547972221513
 21
607.0483798406858
 31
0.0
  0
LINE
  5
CD
330
43
100
AcDbEntity
  8
1
  6
Continuous
 62
     7
100
AcDbLine
 10
-413.3547972221513
 20
612.5483798406858
 30
0.0
 11
-439.3547972221513
 21
612.5483798406858
 31
0.0
  0
LINE
  5
CE
330
43
100
AcDbEntity
  8
1
  6
Continuous
 62
     7
100
AcDbLine
 10
-413.3547972221513
 20
596.0483798406858
 30
0.0
 11
-544.3547972221513
 21
596.0483798406858
 31
0.0
  0
LINE
  5
CF
330
43
100
AcDbEntity
  8
1
  6
Continuous
 62
     7
100
AcDbLine
 10
-413.3547972221513
 20
618.0483798406858
 30
0.0
 11
-411.3547972221513
 21
618.0483798406858
 31
0.0
  0
LINE
  5
D0
330
43
100
AcDbEntity
  8
1
  6
Continuous
 62
     7
100
AcDbLine
 10
-413.3547972221513
 20
618.0483798406858
 30
0.0
 11
-413.3547972221513
 21
612.5483798406858
 31
0.0
  0
LINE
  5
D1
330
43
100
AcDbEntity
  8
1
  6
Continuous
 62
     7
100
AcDbLine
 10
-491.8547972221513
 20
618.0483798406858
 30
0.0
 11
-483.8547972221513
 21
618.0483798406858
 31
0.0
  0
LINE
  5
D2
330
43
100
AcDbEntity
  8
1
  6
Continuous
 62
     7
100
AcDbLine
 10
-491.8547972221513
 20
633.0483798406858
 30
0.0
 11
-503.8547972221513
 21
633.0483798406858
 31
0.0
  0
LINE
  5
D3
330
43
100
AcDbEntity
  8
1
  6
Continuous
 62
     7
100
AcDbLine
 10
-491.8547972221513
 20
633.0483798406858
 30
0.0
 11
-491.8547972221513
 21
618.0483798406858
 31
0.0
  0
LINE
  5
D4
330
43
100
AcDbEntity
  8
1
  6
Continuous
 62
     7
100
AcDbLine
 10
-386.8547972221513
 20
618.0483798406858
 30
0.0
 11
-376.8547972221513
 21
618.0483798406858
 31
0.0
  0
LINE
  5
D5
330
43
100
AcDbEntity
  8
1
  6
Continuous
 62
     7
100
AcDbLine
 10
-386.8547972221513
 20
633.0483798406858
 30
0.0
 11
-399.3547972221513
 21
633.0483798406858
 31
0.0
  0
LINE
  5
D6
330
43
100
AcDbEntity
  8
1
  6
Continuous
 62
     7
100
AcDbLine
 10
-386.8547972221513
 20
633.0483798406858
 30
0.0
 11
-386.8547972221513
 21
629.2983798406858
 31
0.0
  0
LINE
  5
D7
330
43
100
AcDbEntity
  8
1
  6
Continuous
 62
     7
100
AcDbLine
 10
-399.3547972221513
 20
633.0483798406858
 30
0.0
 11
-411.3547972221513
 21
633.0483798406858
 31
0.0
  0
LINE
  5
D8
330
43
100
AcDbEntity
  8
1
  6
Continuous
 62
     7
100
AcDbLine
 10
-439.3547972221513
 20
581.0483798406858
 30
0.0
 11
-544.3547972221513
 21
581.0483798406858
 31
0.0
  0
LINE
  5
D9
330
43
100
AcDbEntity
  8
1
  6
Continuous
 62
     7
100
AcDbLine
 10
-439.3547972221513
 20
633.0483798406858
 30
0.0
 11
-439.3547972221513
 21
612.5483798406858
 31
0.0
  0
LINE
  5
DA
330
43
100
AcDbEntity
  8
1
  6
Continuous
 62
     7
100
AcDbLine
 10
-451.3547972221513
 20
633.0483798406858
 30
0.0
 11
-463.8547972221513
 21
633.0483798406858
 31
0.0
  0
LINE
  5
DB
330
43
100
AcDbEntity
  8
1
  6
Continuous
 62
     7
100
AcDbLine
 10
-536.3547972221513
 20
633.0483798406858
 30
0.0
 11
-544.3547972221513
 21
633.0483798406858
 31
0.0
  0
LINE
  5
DC
330
43
100
AcDbEntity
  8
1
  6
Continuous
 62
     7
100
AcDbLine
 10
-359.3547972221513
 20
633.0483798406858
 30
0.0
 11
-359.3547972221513
 21
629.2983798406858
 31
0.0
  0
LINE
  5
DD
330
43
100
AcDbEntity
  8
1
  6
Continuous
 62
     7
100
AcDbLine
 10
-359.3547972221513
 20
633.0483798406858
 30
0.0
 11
-386.8547972221513
 21
633.0483798406858
 31
0.0
  0
LINE
  5
DE
330
43
100
AcDbEntity
  8
1
  6
Continuous
 62
     7
100
AcDbLine
 10
-359.3547972221513
 20
618.0483798406858
 30
0.0
 11
-359.3547972221513
 21
612.5483798406858
 31
0.0
  0
LINE
  5
DF
330
43
100
AcDbEntity
  8
1
  6
Continuous
 62
     7
100
AcDbLine
 10
-544.3547972221513
 20
618.0483798406858
 30
0.0
 11
-544.3547972221513
 21
623.0483798406858
 31
0.0
  0
LINE
  5
E0
330
43
100
AcDbEntity
  8
1
  6
Continuous
 62
     7
100
AcDbLine
 10
-544.3547972221513
 20
618.0483798406858
 30
0.0
 11
-536.3547972221513
 21
618.0483798406858
 31
0.0
  0
LINE
  5
E1
330
43
100
AcDbEntity
  8
1
  6
Continuous
 62
     7
100
AcDbLine
 10
-544.3547972221513
 20
596.0483798406858
 30
0.0
 11
-544.3547972221513
 21
618.0483798406858
 31
0.0
  0
LINE
  5
E2
330
43
100
AcDbEntity
  8
1
  6
Continuous
 62
     7
100
AcDbLine
 10
-359.3547972221513
 20
596.0483798406858
 30
0.0
 11
-359.3547972221513
 21
581.0483798406858
 31
0.0
  0
LINE
  5
E3
330
43
100
AcDbEntity
  8
1
  6
Continuous
 62
     7
100
AcDbLine
 10
-359.3547972221513
 20
596.0483798406858
 30
0.0
 11
-376.8547972221513
 21
596.0483798406858
 31
0.0
  0
LINE
  5
E4
330
43
100
AcDbEntity
  8
1
  6
Continuous
 62
     7
100
AcDbLine
 10
-544.3547972221513
 20
581.0483798406858
 30
0.0
 11
-544.3547972221513
 21
596.0483798406858
 31
0.0
  0
LINE
  5
E5
330
43
100
AcDbEntity
  8
1
  6
Continuous
 62
     7
100
AcDbLine
 10
-359.3547972221513
 20
581.0483798406858
 30
0.0
 11
-439.3547972221513
 21
581.0483798406858
 31
0.0
  0
MTEXT
  5
E7
330
43
100
AcDbEntity
  8
1
 62
     2
100
AcDbMText
 10
-544.3547972221513
 20
625.5483798406858
 30
0.0
 40
2.0
 41
0.0
 71
     4
 72
     1
  1
 a)
  7
CONVERTER_11
 73
     1
 44
1.32052821128451
  0
MTEXT
  5
E8
330
43
100
AcDbEntity
  8
1
 62
     2
100
AcDbMText
 10
-536.3547972221513
 20
625.5483798406858
 30
0.0
 40
2.0
 41
0.0
 71
     4
 72
     1
  1
 3394
  7
CONVERTER_11
 73
     1
 44
1.32052821128451
  0
MTEXT
  5
E9
330
43
100
AcDbEntity
  8
1
 62
     2
100
AcDbMText
 10
-517.021463888821
 20
625.5483798406858
 30
0.0
 40
2.0
 41
0.0
 71
     4
 72
     1
  1
 05.10.98
  7
CONVERTER_11
 73
     1
 44
1.32052821128451
  0
MTEXT
  5
EA
330
43
100
AcDbEntity
  8
1
 62
     2
100
AcDbMText
 10
-503.8547972221513
 20
625.5483798406858
 30
0.0
 40
2.0
 41
0.0
 71
     4
 72
     1
  1
 R.D.
  7
CONVERTER_11
 73
     1
 44
1.32052821128451
  0
MTEXT
  5
EB
330
43
100
AcDbEntity
  8
1
 62
     2
100
AcDbMText
 10
-443.55395422734
 20
712.2615182135469
 30
0.0
 40
2.5
 41
0.0
 71
     8
 72
     1
  1
R
  7
CONVERTER_11
 73
     1
 44
1.32052821128451
  0
MTEXT
  5
EC
330
43
100
AcDbEntity
  8
1
 62
     2
100
AcDbMText
 10
-433.55395422734
 20
712.2615182135469
 30
0.0
 40
2.5
 41
0.0
 71
     8
 72
     1
  1
S
  7
CONVERTER_11
 73
     1
 44
1.32052821128451
  0
MTEXT
  5
ED
330
43
100
AcDbEntity
  8
1
 62
     2
100
AcDbMText
 10
-423.55395422734
 20
712.2615182135469
 30
0.0
 40
2.5
 41
0.0
 71
     8
 72
     1
  1
T
  7
CONVERTER_11
 73
     1
 44
1.32052821128451
  0
MTEXT
  5
EE
330
43
100
AcDbEntity
  8
1
 62
     2
100
AcDbMText
 10
-443.55395422734
 20
707.2615182135469
 30
0.0
 40
2.5
 41
0.0
 71
     8
 72
     1
  1
3
  7
CONVERTER_11
 73
     1
 44
1.32052821128451
  0
MTEXT
  5
EF
330
43
100
AcDbEntity
  8
1
 62
     2
100
AcDbMText
 10
-443.55395422734
 20
702.2615182135469
 30
0.0
 40
2.5
 41
0.0
 71
     8
 72
     1
  1
2
  7
CONVERTER_11
 73
     1
 44
1.32052821128451
  0
MTEXT
  5
F0
330
43
100
AcDbEntity
  8
1
 62
     2
100
AcDbMText
 10
-433.55395422734
 20
702.2615182135469
 30
0.0
 40
2.5
 41
0.0
 71
     8
 72
     1
  1
40
  7
CONVERTER_11
 73
     1
 44
1.32052821128451
  0
MTEXT
  5
F1
330
43
100
AcDbEntity
  8
1
 62
     2
100
AcDbMText
 10
-433.55395422734
 20
707.2615182135469
 30
0.0
 40
2.5
 41
0.0
 71
     8
 72
     1
  1
40
  7
CONVERTER_11
 73
     1
 44
1.32052821128451
  0
MTEXT
  5
F2
330
43
100
AcDbEntity
  8
1
 62
     2
100
AcDbMText
 10
-423.55395422734
 20
707.2615182135469
 30
0.0
 40
2.5
 41
0.0
 71
     8
 72
     1
  1
12
  7
CONVERTER_11
 73
     1
 44
1.32052821128451
  0
MTEXT
  5
F3
330
43
100
AcDbEntity
  8
1
 62
     2
100
AcDbMText
 10
-423.55395422734
 20
702.2615182135469
 30
0.0
 40
2.5
 41
0.0
 71
     8
 72
     1
  1
8
  7
CONVERTER_11
 73
     1
 44
1.32052821128451
  0
MTEXT
  5
F4
330
43
100
AcDbEntity
  8
1
 62
     2
100
AcDbMText
 10
-455.8872875606703
 20
739.083527682852
 30
0.0
 40
2.5
 41
0.0
 71
     9
 72
     1
  1
 13
  7
CONVERTER_11
 73
     1
 44
1.32052821128451
  0
MTEXT
  5
F5
330
43
100
AcDbEntity
  8
1
 62
     2
100
AcDbMText
 10
-445.8872875606703
 20
739.083527682852
 30
0.0
 40
2.5
 41
0.0
 71
     9
 72
     1
  1
200
  7
CONVERTER_11
 73
     1
 44
1.32052821128451
  0
MTEXT
  5
F6
330
43
100
AcDbEntity
  8
1
 62
     2
100
AcDbMText
 10
-467.0210553195902
 20
739.083527682852
 30
0.0
 40
2.5
 41
0.0
 71
     9
 72
     1
  1
17
  7
CONVERTER_11
 73
     1
 44
1.32052821128451
  0
MTEXT
  5
F7
330
43
100
AcDbEntity
  8
1
 62
     2
100
AcDbMText
 10
-474.5544527131915
 20
739.083527682853
 30
0.0
 40
2.5
 41
0.0
 71
     9
 72
     1
  1
100
  7
CONVERTER_11
 73
     1
 44
1.32052821128451
  0
MTEXT
  5
F8
330
43
100
AcDbEntity
  8
1
 62
     2
100
AcDbMText
 10
-483.8896791556217
 20
739.083527682852
 30
0.0
 40
2.5
 41
0.0
 71
     9
 72
     1
  1
290
  7
CONVERTER_11
 73
     1
 44
1.32052821128451
  0
MTEXT
  5
F9
330
43
100
AcDbEntity
  8
1
 62
     2
100
AcDbMText
 10
-455.8872875606703
 20
744.083527682852
 30
0.0
 40
2.5
 41
0.0
 71
     9
 72
     1
  1
 12
  7
CONVERTER_11
 73
     1
 44
1.32052821128451
  0
MTEXT
  5
FA
330
43
100
AcDbEntity
  8
1
 62
     2
100
AcDbMText
 10
-455.8872875606703
 20
734.083527682852
 30
0.0
 40
2.5
 41
0.0
 71
     9
 72
     1
  1
 12
  7
CONVERTER_11
 73
     1
 44
1.32052821128451
  0
MTEXT
  5
FB
330
43
100
AcDbEntity
  8
1
 62
     2
100
AcDbMText
 10
-483.8896791556217
 20
749.083527682852
 30
0.0
 40
2.5
 41
0.0
 71
     9
 72
     1
  1
273
  7
CONVERTER_11
 73
     1
 44
1.32052821128451
  0
MTEXT
  5
FC
330
43
100
AcDbEntity
  8
1
 62
     2
100
AcDbMText
 10
-474.5544527131915
 20
749.083527682852
 30
0.0
 40
2.5
 41
0.0
 71
     9
 72
     1
  1
83
  7
CONVERTER_11
 73
     1
 44
1.32052821128451
  0
MTEXT
  5
FD
330
43
100
AcDbEntity
  8
1
 62
     2
100
AcDbMText
 10
-467.0108830275003
 20
749.083527682852
 30
0.0
 40
2.5
 41
0.0
 71
     9
 72
     1
  1
13
  7
CONVERTER_11
 73
     1
 44
1.32052821128451
  0
MTEXT
  5
FE
330
43
100
AcDbEntity
  8
1
 62
     2
100
AcDbMText
 10
-457.5169236837101
 20
749.9289753582889
 30
0.0
 40
2.5
 41
0.0
 71
     5
 72
     1
  1
--
  7
CONVERTER_11
 73
     1
 44
1.32052821128451
  0
MTEXT
  5
FF
330
43
100
AcDbEntity
  8
1
 62
     2
100
AcDbMText
 10
-445.8872875606703
 20
749.083527682852
 30
0.0
 40
2.5
 41
0.0
 71
     9
 72
     1
  1
200
  7
CONVERTER_11
 73
     1
 44
1.32052821128451
  0
MTEXT
  5
100
330
43
100
AcDbEntity
  8
1
 62
     2
100
AcDbMText
 10
-455.8872875606703
 20
754.083527682852
 30
0.0
 40
2.5
 41
0.0
 71
     9
 72
     1
  1
 12
  7
CONVERTER_11
 73
     1
 44
1.32052821128451
  0
MTEXT
  5
101
330
43
100
AcDbEntity
  8
1
 62
     2
100
AcDbMText
 10
-445.8872875606703
 20
754.083527682852
 30
0.0
 40
2.5
 41
0.0
 71
     9
 72
     1
  1
120
  7
CONVERTER_11
 73
     1
 44
1.32052821128451
  0
MTEXT
  5
102
330
43
100
AcDbEntity
  8
1
 62
     2
100
AcDbMText
 10
-463.8872875606703
 20
754.083527682852
 30
0.0
 40
2.5
 41
0.0
 71
     9
 72
     1
  1
14,5
  7
CONVERTER_11
 73
     1
 44
1.32052821128451
  0
MTEXT
  5
103
330
43
100
AcDbEntity
  8
1
 62
     2
100
AcDbMText
 10
-474.5526249317318
 20
754.083527682852
 30
0.0
 40
2.5
 41
0.0
 71
     9
 72
     1
  1
73
  7
CONVERTER_11
 73
     1
 44
1.32052821128451
  0
MTEXT
  5
104
330
43
100
AcDbEntity
  8
1
 62
     2
100
AcDbMText
 10
-483.8872875606703
 20
754.083527682852
 30
0.0
 40
2.5
 41
0.0
 71
     9
 72
     1
  1
263
  7
CONVERTER_11
 73
     1
 44
1.32052821128451
  0
TEXT
  5
105
330
43
100
AcDbEntity
  8
1
 62
     2
100
AcDbText
 10
-503.1921288944213
 20
734.083527682852
 30
0.0
 40
2.5
  1
B14
 41
0.9
  7
CONVERTER_11
100
AcDbText
  0
TEXT
  5
106
330
43
100
AcDbEntity
  8
1
 62
     2
100
AcDbText
 10
-503.1921288944213
 20
744.083527682852
 30
0.0
 40
2.5
  1
B14
 41
0.9
  7
CONVERTER_11
100
AcDbText
  0
MTEXT
  5
107
330
43
100
AcDbEntity
  8
1
 62
     2
100
AcDbMText
 10
-445.8872875606703
 20
734.083527682852
 30
0.0
 40
2.5
 41
0.0
 71
     9
 72
     1
  1
140
  7
CONVERTER_11
 73
     1
 44
1.32052821128451
  0
MTEXT
  5
108
330
43
100
AcDbEntity
  8
1
 62
     2
100
AcDbMText
 10
-463.8872875606703
 20
734.083527682852
 30
0.0
 40
2.5
 41
0.0
 71
     9
 72
     1
  1
41,5
  7
CONVERTER_11
 73
     1
 44
1.32052821128451
  0
MTEXT
  5
109
330
43
100
AcDbEntity
  8
1
 62
     2
100
AcDbMText
 10
-474.5539542273309
 20
734.083527682852
 30
0.0
 40
2.5
 41
0.0
 71
     9
 72
     1
  1
100
  7
CONVERTER_11
 73
     1
 44
1.32052821128451
  0
MTEXT
  5
10A
330
43
100
AcDbEntity
  8
1
 62
     2
100
AcDbMText
 10
-483.8872875606703
 20
734.083527682852
 30
0.0
 40
2.5
 41
0.0
 71
     9
 72
     1
  1
290
  7
CONVERTER_11
 73
     1
 44
1.32052821128451
  0
TEXT
  5
10B
330
43
100
AcDbEntity
  8
1
 62
     2
100
AcDbText
 10
-503.1921288944213
 20
754.083527682852
 30
0.0
 40
2.5
  1
B14
 41
0.9
  7
CONVERTER_11
100
AcDbText
  0
TEXT
  5
10C
330
43
100
AcDbEntity
  8
1
 62
     2
100
AcDbText
 10
-503.1921288944213
 20
739.083527682852
 30
0.0
 40
2.5
  1
B5
 41
0.9
  7
CONVERTER_11
100
AcDbText
  0
TEXT
  5
10D
330
43
100
AcDbEntity
  8
1
 62
     2
100
AcDbText
 10
-503.1921288944213
 20
749.083527682852
 30
0.0
 40
2.5
  1
B5
 41
0.9
  7
CONVERTER_11
100
AcDbText
  0
TEXT
  5
10E
330
43
100
AcDbEntity
  8
1
 62
     2
100
AcDbText
 10
-503.1921288944213
 20
759.083527682852
 30
0.0
 40
2.5
  1
B5
 41
0.9
  7
CONVERTER_11
100
AcDbText
  0
TEXT
  5
10F
330
43
100
AcDbEntity
  8
1
 62
     2
100
AcDbText
 10
-507.5539542273309
 20
764.083527682852
 30
0.0
 40
2.5
  1
Flansch
 41
0.9
  7
CONVERTER_11
100
AcDbText
  0
MTEXT
  5
110
330
43
100
AcDbEntity
  8
1
 62
     2
100
AcDbMText
 10
-474.5544527131915
 20
744.083527682853
 30
0.0
 40
2.5
 41
0.0
 71
     9
 72
     1
  1
83
  7
CONVERTER_11
 73
     1
 44
1.32052821128451
  0
MTEXT
  5
111
330
43
100
AcDbEntity
  8
1
 62
     2
100
AcDbMText
 10
-474.5526249317318
 20
759.083527682852
 30
0.0
 40
2.5
 41
0.0
 71
     9
 72
     1
  1
77,5
  7
CONVERTER_11
 73
     1
 44
1.32052821128451
  0
MTEXT
  5
112
330
43
100
AcDbEntity
  8
1
 62
     2
100
AcDbMText
 10
-477.2206208940006
 20
764.083527682852
 30
0.0
 40
2.5
 41
0.0
 71
     8
 72
     1
  1
A
  7
CONVERTER_11
 73
     1
 44
1.32052821128451
  0
MTEXT
  5
113
330
43
100
AcDbEntity
  8
1
 62
     2
100
AcDbMText
 10
-483.8872875606703
 20
759.083527682852
 30
0.0
 40
2.5
 41
0.0
 71
     9
 72
     1
  1
263
  7
CONVERTER_11
 73
     1
 44
1.32052821128451
  0
MTEXT
  5
114
330
43
100
AcDbEntity
  8
1
 62
     2
100
AcDbMText
 10
-483.8896791556217
 20
744.083527682853
 30
0.0
 40
2.5
 41
0.0
 71
     9
 72
     1
  1
273
  7
CONVERTER_11
 73
     1
 44
1.32052821128451
  0
MTEXT
  5
115
330
43
100
AcDbEntity
  8
1
 62
     2
100
AcDbMText
 10
-463.8872875606703
 20
744.083527682853
 30
0.0
 40
2.5
 41
0.0
 71
     9
 72
     1
  1
24,5
  7
CONVERTER_11
 73
     1
 44
1.32052821128451
  0
TEXT
  5
116
330
43
100
AcDbEntity
  8
1
 62
     2
100
AcDbText
 10
-524.2206208940006
 20
736.583527682852
 30
0.0
 40
2.5
  1
IEC90
 41
0.9
  7
CONVERTER_11
100
AcDbText
  0
TEXT
  5
117
330
43
100
AcDbEntity
  8
1
 62
     2
100
AcDbText
 10
-524.2206208940006
 20
746.583527682852
 30
0.0
 40
2.5
  1
IEC80
 41
0.9
  7
CONVERTER_11
100
AcDbText
  0
MTEXT
  5
118
330
43
100
AcDbEntity
  8
1
 62
     2
100
AcDbMText
 10
-467.0093180594813
 20
759.083527682852
 30
0.0
 40
2.5
 41
0.0
 71
     9
 72
     1
  1
22
  7
CONVERTER_11
 73
     1
 44
1.32052821128451
  0
TEXT
  5
119
330
43
100
AcDbEntity
  8
1
 62
     2
100
AcDbText
 10
-524.2206208940006
 20
756.583527682852
 30
0.0
 40
2.5
  1
IEC71
 41
0.9
  7
CONVERTER_11
100
AcDbText
  0
MTEXT
  5
11A
330
43
100
AcDbEntity
  8
1
 62
     2
100
AcDbMText
 10
-457.8872875606703
 20
764.083527682852
 30
0.0
 40
2.5
 41
0.0
 71
     8
 72
     1
  1
C
  7
CONVERTER_11
 73
     1
 44
1.32052821128451
  0
MTEXT
  5
11B
330
43
100
AcDbEntity
  8
1
 62
     2
100
AcDbMText
 10
-467.2206208940006
 20
764.083527682852
 30
0.0
 40
2.5
 41
0.0
 71
     8
 72
     1
  1
B
  7
CONVERTER_11
 73
     1
 44
1.32052821128451
  0
MTEXT
  5
11C
330
43
100
AcDbEntity
  8
1
 62
     2
100
AcDbMText
 10
-486.8872875606703
 20
764.083527682852
 30
0.0
 40
2.5
 41
0.0
 71
     8
 72
     1
  1
L
  7
CONVERTER_11
 73
     1
 44
1.32052821128451
  0
TEXT
  5
11D
330
43
100
AcDbEntity
  8
1
 62
     2
100
AcDbText
 10
-524.2206208940006
 20
764.083527682852
 30
0.0
 40
2.5
  1
El.Motor
 41
0.9
  7
CONVERTER_11
100
AcDbText
  0
MTEXT
  5
11E
330
43
100
AcDbEntity
  8
1
 62
     2
100
AcDbMText
 10
-445.8872875606703
 20
744.083527682853
 30
0.0
 40
2.5
 41
0.0
 71
     9
 72
     1
  1
120
  7
CONVERTER_11
 73
     1
 44
1.32052821128451
  0
MTEXT
  5
11F
330
43
100
AcDbEntity
  8
1
 62
     2
100
AcDbMText
 10
-445.8872875606703
 20
759.083527682852
 30
0.0
 40
2.5
 41
0.0
 71
     9
 72
     1
  1
160
  7
CONVERTER_11
 73
     1
 44
1.32052821128451
  0
MTEXT
  5
120
330
43
100
AcDbEntity
  8
1
 62
     2
100
AcDbMText
 10
-448.8872875606703
 20
764.083527682852
 30
0.0
 40
2.5
 41
0.0
 71
     8
 72
     1
  1
D
  7
CONVERTER_11
 73
     1
 44
1.32052821128451
  0
MTEXT
  5
121
330
43
100
AcDbEntity
  8
1
 62
     2
100
AcDbMText
 10
-457.5169236837101
 20
759.9289753582889
 30
0.0
 40
2.5
 41
0.0
 71
     5
 72
     1
  1
12
  7
CONVERTER_11
 73
     1
 44
1.32052821128451
  0
MTEXT
  5
122
330
43
100
AcDbEntity
  8
1
 62
     2
100
AcDbMText
 10
-436.3872875606703
 20
734.083527682852
 30
0.0
 40
2.5
 41
0.0
 71
     8
 72
     1
  1
24
  7
CONVERTER_11
 73
     1
 44
1.32052821128451
  0
MTEXT
  5
123
330
43
100
AcDbEntity
  8
1
 62
     2
100
AcDbMText
 10
-436.3872875606703
 20
744.083527682852
 30
0.0
 40
2.5
 41
0.0
 71
     8
 72
     1
  1
19
  7
CONVERTER_11
 73
     1
 44
1.32052821128451
  0
MTEXT
  5
124
330
43
100
AcDbEntity
  8
1
 62
     2
100
AcDbMText
 10
-436.3872875606703
 20
749.083527682852
 30
0.0
 40
2.5
 41
0.0
 71
     8
 72
     1
  1
19
  7
CONVERTER_11
 73
     1
 44
1.32052821128451
  0
MTEXT
  5
125
330
43
100
AcDbEntity
  8
1
 62
     2
100
AcDbMText
 10
-436.3872875606703
 20
754.083527682852
 30
0.0
 40
2.5
 41
0.0
 71
     8
 72
     1
  1
19
  7
CONVERTER_11
 73
     1
 44
1.32052821128451
  0
MTEXT
  5
126
330
43
100
AcDbEntity
  8
1
 62
     2
100
AcDbMText
 10
-436.3872875606703
 20
759.083527682852
 30
0.0
 40
2.5
 41
0.0
 71
     8
 72
     1
  1
19
  7
CONVERTER_11
 73
     1
 44
1.32052821128451
  0
MTEXT
  5
127
330
43
100
AcDbEntity
  8
1
 62
     2
100
AcDbMText
 10
-436.3872875606703
 20
764.083527682852
 30
0.0
 40
2.5
 41
0.0
 71
     8
 72
     1
  1
Rotex
  7
CONVERTER_11
 73
     1
 44
1.32052821128451
  0
MTEXT
  5
128
330
43
100
AcDbEntity
  8
1
 62
     2
100
AcDbMText
 10
-436.3872875606703
 20
739.083527682852
 30
0.0
 40
2.5
 41
0.0
 71
     8
 72
     1
  1
24
  7
CONVERTER_11
 73
     1
 44
1.32052821128451
  0
MTEXT
  5
129
330
43
100
AcDbEntity
  8
1
 62
     2
100
AcDbMText
 10
-457.6121004590914
 20
702.2615182135469
 30
0.0
 40
2.5
 41
0.0
 71
     8
 72
     1
  1
262
  7
CONVERTER_11
 73
     1
 44
1.32052821128451
  0
MTEXT
  5
12A
330
43
100
AcDbEntity
  8
1
 62
     2
100
AcDbMText
 10
-456.0539542273309
 20
712.2615182135469
 30
0.0
 40
2.5
 41
0.0
 71
     8
 72
     1
  1
P
  7
CONVERTER_11
 73
     1
 44
1.32052821128451
  0
MTEXT
  5
12B
330
43
100
AcDbEntity
  8
1
 62
     2
100
AcDbMText
 10
-456.0539542273309
 20
707.2615182135469
 30
0.0
 40
2.5
 41
0.0
 71
     8
 72
     1
  1
306,5
  7
CONVERTER_11
 73
     1
 44
1.32052821128451
  0
MTEXT
  5
12C
330
43
100
AcDbEntity
  8
1
 62
     2
100
AcDbMText
 10
-468.5539542273309
 20
702.2615182135469
 30
0.0
 40
2.5
 41
0.0
 71
     8
 72
     1
  1
50
  7
CONVERTER_11
 73
     1
 44
1.32052821128451
  0
MTEXT
  5
12D
330
43
100
AcDbEntity
  8
1
 62
     2
100
AcDbMText
 10
-468.5539542273309
 20
707.2615182135469
 30
0.0
 40
2.5
 41
0.0
 71
     8
 72
     1
  1
72
  7
CONVERTER_11
 73
     1
 44
1.32052821128451
  0
MTEXT
  5
12E
330
43
100
AcDbEntity
  8
1
 62
     2
100
AcDbMText
 10
-468.5539542273309
 20
712.2615182135469
 30
0.0
 40
2.5
 41
0.0
 71
     8
 72
     1
  1
O
  7
CONVERTER_11
 73
     1
 44
1.32052821128451
  0
MTEXT
  5
12F
330
43
100
AcDbEntity
  8
1
 62
     2
100
AcDbMText
 10
-403.55395422734
 20
712.2615182135469
 30
0.0
 40
2.5
 41
0.0
 71
     8
 72
     1
  1
Zentrumgewinde
  7
CONVERTER_11
 73
     1
 44
1.32052821128451
  0
MTEXT
  5
130
330
43
100
AcDbEntity
  8
1
 62
     2
100
AcDbMText
 10
-403.55395422734
 20
707.2615182135469
 30
0.0
 40
2.5
 41
0.0
 71
     8
 72
     1
  1
M10 x 25
  7
CONVERTER_11
 73
     1
 44
1.32052821128451
  0
MTEXT
  5
131
330
43
100
AcDbEntity
  8
1
 62
     2
100
AcDbMText
 10
-501.2206208940006
 20
712.2615182135469
 30
0.0
 40
2.5
 41
0.0
 71
     8
 72
     1
  1
K
  7
CONVERTER_11
 73
     1
 44
1.32052821128451
  0
MTEXT
  5
132
330
43
100
AcDbEntity
  8
1
 62
     2
100
AcDbMText
 10
-479.8872875606703
 20
712.2615182135469
 30
0.0
 40
2.5
 41
0.0
 71
     8
 72
     1
  1
N
  7
CONVERTER_11
 73
     1
 44
1.32052821128451
  0
MTEXT
  5
133
330
43
100
AcDbEntity
  8
1
 62
     2
100
AcDbMText
 10
-479.8872875606703
 20
707.2615182135469
 30
0.0
 40
2.5
 41
0.0
 71
     8
 72
     1
  1
75,5
  7
CONVERTER_11
 73
     1
 44
1.32052821128451
  0
MTEXT
  5
134
330
43
100
AcDbEntity
  8
1
 62
     2
100
AcDbMText
 10
-501.2206208940006
 20
707.2615182135469
 30
0.0
 40
2.5
 41
0.0
 71
     8
 72
     1
  1
40
  7
CONVERTER_11
 73
     1
 44
1.32052821128451
  0
MTEXT
  5
135
330
43
100
AcDbEntity
  8
1
 62
     2
100
AcDbMText
 10
-491.2206208940006
 20
712.2615182135469
 30
0.0
 40
2.5
 41
0.0
 71
     8
 72
     1
  1
M
  7
CONVERTER_11
 73
     1
 44
1.32052821128451
  0
MTEXT
  5
136
330
43
100
AcDbEntity
  8
1
 62
     2
100
AcDbMText
 10
-491.2206208940006
 20
707.2615182135469
 30
0.0
 40
2.5
 41
0.0
 71
     8
 72
     1
  1
70
  7
CONVERTER_11
 73
     1
 44
1.32052821128451
  0
MTEXT
  5
137
330
43
100
AcDbEntity
  8
1
 62
     2
100
AcDbMText
 10
-516.2206208940006
 20
712.2615182135469
 30
0.0
 40
2.5
 41
0.0
 71
     8
 72
     1
  1
Standard
  7
CONVERTER_11
 73
     1
 44
1.32052821128451
  0
MTEXT
  5
138
330
43
100
AcDbEntity
  8
1
 62
     2
100
AcDbMText
 10
-516.2206208940006
 20
707.2615182135469
 30
0.0
 40
2.5
 41
0.0
 71
     8
 72
     1
  1
1
  7
CONVERTER_11
 73
     1
 44
1.32052821128451
  0
MTEXT
  5
139
330
43
100
AcDbEntity
  8
1
 62
     2
100
AcDbMText
 10
-516.2206208940006
 20
702.2615182135469
 30
0.0
 40
2.5
 41
0.0
 71
     8
 72
     1
  1
2
  7
CONVERTER_11
 73
     1
 44
1.32052821128451
  0
MTEXT
  5
13A
330
43
100
AcDbEntity
  8
1
 62
     2
100
AcDbMText
 10
-403.19723487394
 20
702.2615182135469
 30
0.0
 40
2.5
 41
0.0
 71
     8
 72
     1
  1
M8 x 19
  7
CONVERTER_11
 73
     1
 44
1.32052821128451
  0
MTEXT
  5
13B
330
43
100
AcDbEntity
  8
1
 62
     2
100
AcDbMText
 10
-481.4464097687614
 20
702.2615182135469
 30
0.0
 40
2.5
 41
0.0
 71
     8
 72
     1
  1
53
  7
CONVERTER_11
 73
     1
 44
1.32052821128451
  0
MTEXT
  5
13C
330
43
100
AcDbEntity
  8
1
 62
     2
100
AcDbMText
 10
-491.2206208940006
 20
702.2615182135469
 30
0.0
 40
2.5
 41
0.0
 71
     8
 72
     1
  1
46
  7
CONVERTER_11
 73
     1
 44
1.32052821128451
  0
MTEXT
  5
13D
330
43
100
AcDbEntity
  8
1
 62
     2
100
AcDbMText
 10
-501.2206208940006
 20
702.2615182135469
 30
0.0
 40
2.5
 41
0.0
 71
     8
 72
     1
  1
25
  7
CONVERTER_11
 73
     1
 44
1.32052821128451
  0
MTEXT
  5
13E
330
43
100
AcDbEntity
  8
1
 62
     7
100
AcDbMText
 10
-399.3547972221513
 20
588.5483798406858
 30
0.0
 40
4.0
 41
0.0
 71
     5
 72
     1
  1
MB1-0296-3a
  7
CONVERTER_11
 73
     1
 44
1.32052821128451
  0
MTEXT
  5
13F
330
43
100
AcDbEntity
  8
1
 62
     7
100
AcDbMText
 10
-544.3547972221513
 20
607.0483798406858
 30
0.0
 40
4.0
 41
0.0
 71
     4
 72
     1
  1
 Typ SGG63/11
  7
CONVERTER_11
 73
     1
 44
1.32052821128451
  0
MTEXT
  5
140
330
43
100
AcDbEntity
  8
1
 62
     2
100
AcDbMText
 10
-413.3547972221513
 20
615.2983798406858
 30
0.0
 40
2.0
 41
0.0
 71
     6
 72
     1
  1
 
  7
CONVERTER_11
 73
     1
 44
1.32052821128451
  0
MTEXT
  5
141
330
43
100
AcDbEntity
  8
1
 62
     2
100
AcDbMText
 10
-426.3547972221513
 20
604.2983798406858
 30
0.0
 40
2.5
 41
0.0
 71
     5
 72
     1
  1
 % 
  7
CONVERTER_11
 73
     1
 44
1.32052821128451
  0
MTEXT
  5
142
330
43
100
AcDbEntity
  8
1
 62
     2
100
AcDbMText
 10
-544.3547972221513
 20
599.5483798406858
 30
0.0
 40
2.5
 41
0.0
 71
     4
 72
     1
  1
  
  7
CONVERTER_11
 73
     1
 44
1.32052821128451
  0
MTEXT
  5
143
330
43
100
AcDbEntity
  8
1
 62
     2
100
AcDbMText
 10
-544.3547972221513
 20
614.5483798406858
 30
0.0
 40
2.5
 41
0.0
 71
     4
 72
     1
  1
  Motoranbaum\U+00f6glichkeiten
  7
CONVERTER_11
 73
     1
 44
1.32052821128451
  0
MTEXT
  5
144
330
43
100
AcDbEntity
  8
1
 62
     2
100
AcDbMText
 10
-413.3547972221513
 20
609.7983798406858
 30
0.0
 40
2.0
 41
0.0
 71
     4
 72
     1
  1
 Gepr\U+00fcft
  7
CONVERTER_11
 73
     1
 44
1.32052821128451
  0
MTEXT
  5
145
330
43
100
AcDbEntity
  8
1
 62
     2
100
AcDbMText
 10
-413.3547972221513
 20
615.2983798406858
 30
0.0
 40
2.0
 41
0.0
 71
     4
 72
     1
  1
 Gezeichnet
  7
CONVERTER_11
 73
     1
 44
1.32052821128451
  0
MTEXT
  5
146
330
43
100
AcDbEntity
  8
1
 62
     2
100
AcDbMText
 10
-426.3547972221513
 20
609.7983798406858
 30
0.0
 40
2.0
 41
0.0
 71
     5
 72
     1
  1
Massstab
  7
CONVERTER_11
 73
     1
 44
1.32052821128451
  0
MTEXT
  5
147
330
43
100
AcDbEntity
  8
1
 62
     2
100
AcDbMText
 10
-439.3547972221513
 20
615.2983798406858
 30
0.0
 40
2.0
 41
0.0
 71
     4
 72
     1
  1
 Kd.-Nr.
  7
CONVERTER_11
 73
     1
 44
1.32052821128451
  0
MTEXT
  5
148
330
43
100
AcDbEntity
  8
1
 62
     2
100
AcDbMText
 10
-503.8547972221513
 20
630.5483798406858
 30
0.0
 40
2.0
 41
0.0
 71
     4
 72
     1
  1
 Vis.
  7
CONVERTER_11
 73
     1
 44
1.32052821128451
  0
MTEXT
  5
149
330
43
100
AcDbEntity
  8
1
 62
     2
100
AcDbMText
 10
-516.3547972221513
 20
630.5483798406858
 30
0.0
 40
2.0
 41
0.0
 71
     4
 72
     1
  1
 Dat.
  7
CONVERTER_11
 73
     1
 44
1.32052821128451
  0
MTEXT
  5
14A
330
43
100
AcDbEntity
  8
1
 62
     2
100
AcDbMText
 10
-536.3547972221513
 20
630.5483798406858
 30
0.0
 40
2.0
 41
0.0
 71
     4
 72
     1
  1
 \U+00c4nd.-Nr.
  7
CONVERTER_11
 73
     1
 44
1.32052821128451
  0
MTEXT
  5
14B
330
43
100
AcDbEntity
  8
1
 62
     2
100
AcDbMText
 10
-544.3547972221513
 20
630.5483798406858
 30
0.0
 40
2.0
 41
0.0
 71
     4
 72
     1
  1
 Ind.
  7
CONVERTER_11
 73
     1
 44
1.32052821128451
  0
MTEXT
  5
14C
330
43
100
AcDbEntity
  8
1
 62
     2
100
AcDbMText
 10
-386.8547972221513
 20
623.6733798406858
 30
0.0
 40
1.8
 41
0.0
 71
     4
 72
     1
  1
 Ersatz f\U+00fcr:
  7
CONVERTER_11
 73
     1
 44
1.32052821128451
  0
MTEXT
  5
14D
330
43
100
AcDbEntity
  8
1
 62
     2
100
AcDbMText
 10
-386.8547972221513
 20
631.1733798406858
 30
0.0
 40
1.8
 41
0.0
 71
     4
 72
     1
  1
 Ersetzt durch:
  7
CONVERTER_11
 73
     1
 44
1.32052821128451
  0
MTEXT
  5
14E
330
43
100
AcDbEntity
  8
1
 62
     7
100
AcDbMText
 10
-491.8547972221513
 20
588.5483798406858
 30
0.0
 40
4.0
 41
0.0
 71
     5
 72
     1
  1
TH. Z\U+00dcRRER AG  8055 Z\U+00dcRICH
  7
CONVERTER_11
 73
     1
 44
1.32052821128451
  0
MTEXT
  5
14F
330
43
100
AcDbEntity
  8
1
 62
     2
100
AcDbMText
 10
-392.2838844424114
 20
615.1860651238185
 30
0.0
 40
2.0
 41
0.0
 71
     4
 72
     1
  1
20.02.1996
  7
CONVERTER_11
 73
     1
 44
1.32052821128451
  0
MTEXT
  5
150
330
43
100
AcDbEntity
  8
1
 62
     2
100
AcDbMText
 10
-371.8272006964216
 20
615.1860651238185
 30
0.0
 40
2.0
 41
0.0
 71
     4
 72
     1
  1
N.Frei
  7
CONVERTER_11
 73
     1
 44
1.32052821128451
  0
ENDBLK
  5
45
330
43
100
AcDbEntity
  8
0
100
AcDbBlockEnd
  0
BLOCK
  5
6A
330
46
100
AcDbEntity
  8
0
100
AcDbBlockBegin
  2
Top
 70
     0
 10
-1693.064391666452
 20
2173.645139522059
 30
0.0
  3
Top
  1

  0
INSERT
  5
69
330
46
100
AcDbEntity
  8
1
100
AcDbBlockReference
  2
A4
 10
14158.98436519872
 20
-6118.795035543852
 30
0.0
 41
3.0
 42
3.0
 43
3.0
  0
LINE
  5
151
330
46
100
AcDbEntity
  8
1
  6
DASH_CENTER
 62
     2
100
AcDbLine
 10
-1776.817617242047
 20
2014.500583048554
 30
0.0
 11
-1792.77960871494
 21
2014.500583048554
 31
0.0
  0
LINE
  5
152
330
46
100
AcDbEntity
  8
1
  6
Continuous
 62
     4
100
AcDbLine
 10
-1792.77960871494
 20
2014.500583048554
 30
0.0
 11
-1822.279608714939
 21
2014.500583048554
 31
0.0
  0
LINE
  5
153
330
46
100
AcDbEntity
  8
1
  6
DASH_CENTER
 62
     2
100
AcDbLine
 10
-1822.279608714939
 20
2014.500583048554
 30
0.0
 11
-1857.279608714939
 21
2014.500583048554
 31
0.0
  0
LINE
  5
154
330
46
100
AcDbEntity
  8
1
  6
Continuous
 62
     4
100
AcDbLine
 10
-1857.279608714939
 20
2014.500583048554
 30
0.0
 11
-1862.279608714938
 21
2014.500583048554
 31
0.0
  0
LINE
  5
155
330
46
100
AcDbEntity
  8
1
  6
Continuous
 62
     4
100
AcDbLine
 10
-1863.279608714938
 20
2443.986842203257
 30
0.0
 11
-1792.77960871494
 21
2443.986842203257
 31
0.0
  0
LINE
  5
156
330
46
100
AcDbEntity
  8
1
  6
DASH_CENTER
 62
     2
100
AcDbLine
 10
-2063.917191992547
 20
2443.986842203257
 30
0.0
 11
-1863.279608714938
 21
2443.986842203257
 31
0.0
  0
LINE
  5
157
330
46
100
AcDbEntity
  8
1
  6
Continuous
 62
     2
100
AcDbLine
 10
-1863.363660271044
 20
2185.52181190747
 30
0.0
 11
-1725.548539429114
 21
2185.52181190747
 31
0.0
  0
LINE
  5
158
330
46
100
AcDbEntity
  8
1
  6
Continuous
 62
     2
100
AcDbLine
 10
-1725.548539429114
 20
2185.52181190747
 30
0.0
 11
-1725.548539429114
 21
2202.773777309289
 31
0.0
  0
LINE
  5
159
330
46
100
AcDbEntity
  8
1
  6
Continuous
 62
     2
100
AcDbLine
 10
-1725.548539429114
 20
2202.773777309289
 30
0.0
 11
-1863.363660271044
 21
2202.773777309289
 31
0.0
  0
LINE
  5
15A
330
46
100
AcDbEntity
  8
1
  6
Continuous
 62
     2
100
AcDbLine
 10
-1863.363660271044
 20
2202.773777309289
 30
0.0
 11
-1863.363660271044
 21
2185.52181190747
 31
0.0
  0
LINE
  5
15B
330
46
100
AcDbEntity
  8
1
  6
Continuous
 62
     4
100
AcDbLine
 10
-1819.911367826604
 20
2391.635763969923
 30
0.0
 11
-1863.279608714939
 21
2399.282754944401
 31
0.0
  0
LINE
  5
15C
330
46
100
AcDbEntity
  8
1
  6
Continuous
 62
     4
100
AcDbLine
 10
-1817.650322495463
 20
2484.986842203257
 30
0.0
 11
-1862.279608714939
 21
2484.986842203257
 31
0.0
  0
LINE
  5
15D
330
46
100
AcDbEntity
  8
1
  6
Continuous
 62
     4
100
AcDbLine
 10
-1819.911367826604
 20
1962.14950481522
 30
0.0
 11
-1862.279608714939
 21
1969.62016880899
 31
0.0
  0
LINE
  5
15E
330
46
100
AcDbEntity
  8
1
  6
Continuous
 62
     4
100
AcDbLine
 10
-1852.279608714939
 20
2009.500583048554
 30
0.0
 11
-1827.279608714939
 21
2009.500583048554
 31
0.0
  0
LINE
  5
15F
330
46
100
AcDbEntity
  8
1
  6
Continuous
 62
     4
100
AcDbLine
 10
-1827.279608714939
 20
2019.500583048554
 30
0.0
 11
-1852.279608714939
 21
2019.500583048554
 31
0.0
  0
LINE
  5
160
330
46
100
AcDbEntity
  8
1
  6
Continuous
 62
     4
100
AcDbLine
 10
-1817.650322495463
 20
2055.500583048554
 30
0.0
 11
-1862.279608714939
 21
2055.500583048554
 31
0.0
  0
LINE
  5
161
330
46
100
AcDbEntity
  8
1
  6
DASH_CENTER
 62
     2
100
AcDbLine
 10
-1902.345000141086
 20
2136.435191622405
 30
0.0
 11
-1918.44382082838
 21
2120.336370935112
 31
0.0
  0
LINE
  5
162
330
46
100
AcDbEntity
  8
1
  6
DASH_CENTER
 62
     2
100
AcDbLine
 10
-2012.21421728879
 20
2136.435191622405
 30
0.0
 11
-1996.115396601497
 21
2120.336370935112
 31
0.0
  0
LINE
  5
163
330
46
100
AcDbEntity
  8
1
  6
Continuous
 62
     4
100
AcDbLine
 10
-2001.702258445749
 20
2306.986842203257
 30
0.0
 11
-1987.67697702208
 21
2306.986842203257
 31
0.0
  0
LINE
  5
164
330
46
100
AcDbEntity
  8
1
  6
Continuous
 62
     4
100
AcDbLine
 10
-2002.279608714939
 20
2305.986842203255
 30
0.0
 11
-2002.279608714939
 21
2314.843059426642
 31
0.0
  0
LINE
  5
165
330
46
100
AcDbEntity
  8
1
  6
Continuous
 62
     4
100
AcDbLine
 10
-2035.279608714939
 20
2317.986842203255
 30
0.0
 11
-2006.58478085742
 21
2317.986842203255
 31
0.0
  0
LINE
  5
166
330
46
100
AcDbEntity
  8
1
  6
DASH_CENTER
 62
     2
100
AcDbLine
 10
-2009.608427004725
 20
2328.658023913471
 30
0.0
 11
-1997.91835634439
 21
2340.348094573805
 31
0.0
  0
LINE
  5
167
330
46
100
AcDbEntity
  8
1
  6
DASH_CENTER
 62
     2
100
AcDbLine
 10
-1904.950790425152
 20
2328.658023913471
 30
0.0
 11
-1916.640861085487
 21
2340.348094573806
 31
0.0
  0
LINE
  5
168
330
46
100
AcDbEntity
  8
1
  6
DASH_CENTER
 62
     2
100
AcDbLine
 10
-1904.950790425152
 20
2433.315660493043
 30
0.0
 11
-1916.640861085487
 21
2421.625589832708
 31
0.0
  0
LINE
  5
169
330
46
100
AcDbEntity
  8
1
  6
DASH_CENTER
 62
     2
100
AcDbLine
 10
-2009.608427004724
 20
2433.315660493043
 30
0.0
 11
-1997.91835634439
 21
2421.625589832708
 31
0.0
  0
LINE
  5
16A
330
46
100
AcDbEntity
  8
1
  6
DASH_CENTER
 62
     2
100
AcDbLine
 10
-2037.279608714939
 20
2380.986842203257
 30
0.0
 11
-2022.279608714939
 21
2380.986842203257
 31
0.0
  0
LINE
  5
16B
330
46
100
AcDbEntity
  8
1
  6
DASH_CENTER
 62
     2
100
AcDbLine
 10
-2059.361225795089
 20
2380.986842203257
 30
0.0
 11
-2037.279608714939
 21
2380.986842203257
 31
0.0
  0
LINE
  5
16C
330
46
100
AcDbEntity
  8
1
  6
DASH_CENTER
 62
     2
100
AcDbLine
 10
-2022.279608714939
 20
2380.986842203257
 30
0.0
 11
-2012.279608714939
 21
2380.986842203257
 31
0.0
  0
LINE
  5
16D
330
46
100
AcDbEntity
  8
1
  6
Continuous
 62
     4
100
AcDbLine
 10
-1902.279608714938
 20
1920.500583048554
 30
0.0
 11
-1902.279608714938
 21
1915.000583048554
 31
0.0
  0
LINE
  5
16E
330
46
100
AcDbEntity
  8
1
  6
Continuous
 62
     4
100
AcDbLine
 10
-1877.279608714938
 20
1920.500583048554
 30
0.0
 11
-1877.279608714938
 21
1929.500583048554
 31
0.0
  0
LINE
  5
16F
330
46
100
AcDbEntity
  8
1
  6
Continuous
 62
     4
100
AcDbLine
 10
-1904.279608714938
 20
1934.500583048554
 30
0.0
 11
-1904.279608714938
 21
1952.500583048554
 31
0.0
  0
LINE
  5
170
330
46
100
AcDbEntity
  8
1
  6
Continuous
 62
     4
100
AcDbLine
 10
-1902.279608714938
 20
1929.500583048554
 30
0.0
 11
-1902.279608714938
 21
1932.500583048554
 31
0.0
  0
LINE
  5
171
330
46
100
AcDbEntity
  8
1
  6
Continuous
 62
     4
100
AcDbLine
 10
-1902.279608714938
 20
1920.500583048554
 30
0.0
 11
-1877.279608714938
 21
1920.500583048554
 31
0.0
  0
LINE
  5
172
330
46
100
AcDbEntity
  8
1
  6
Continuous
 62
     4
100
AcDbLine
 10
-1902.279608714938
 20
1929.500583048554
 30
0.0
 11
-1877.279608714938
 21
1929.500583048554
 31
0.0
  0
LINE
  5
173
330
46
100
AcDbEntity
  8
1
  6
Continuous
 62
     4
100
AcDbLine
 10
-2012.279608714938
 20
1915.000583048554
 30
0.0
 11
-2012.279608714938
 21
1920.500583048554
 31
0.0
  0
LINE
  5
174
330
46
100
AcDbEntity
  8
1
  6
Continuous
 62
     4
100
AcDbLine
 10
-2037.279608714939
 20
1929.500583048554
 30
0.0
 11
-2037.279608714938
 21
1920.500583048554
 31
0.0
  0
LINE
  5
175
330
46
100
AcDbEntity
  8
1
  6
Continuous
 62
     4
100
AcDbLine
 10
-1902.279608714938
 20
1915.000583048554
 30
0.0
 11
-2012.279608714938
 21
1915.000583048554
 31
0.0
  0
LINE
  5
176
330
46
100
AcDbEntity
  8
1
  6
Continuous
 62
     4
100
AcDbLine
 10
-2010.279608714939
 20
1952.500583048554
 30
0.0
 11
-2010.279608714938
 21
1934.500583048554
 31
0.0
  0
LINE
  5
177
330
46
100
AcDbEntity
  8
1
  6
Continuous
 62
     4
100
AcDbLine
 10
-2012.279608714939
 20
1932.500583048554
 30
0.0
 11
-2012.279608714938
 21
1929.500583048554
 31
0.0
  0
LINE
  5
178
330
46
100
AcDbEntity
  8
1
  6
Continuous
 62
     4
100
AcDbLine
 10
-2012.279608714938
 20
1920.500583048554
 30
0.0
 11
-2037.279608714938
 21
1920.500583048554
 31
0.0
  0
LINE
  5
179
330
46
100
AcDbEntity
  8
1
  6
Continuous
 62
     4
100
AcDbLine
 10
-2012.279608714938
 20
1929.500583048554
 30
0.0
 11
-2037.279608714939
 21
1929.500583048554
 31
0.0
  0
LINE
  5
17A
330
46
100
AcDbEntity
  8
1
  6
Continuous
 62
     4
100
AcDbLine
 10
-1902.279608714938
 20
1929.500583048554
 30
0.0
 11
-2012.279608714938
 21
1929.500583048554
 31
0.0
  0
LINE
  5
17B
330
46
100
AcDbEntity
  8
1
  6
Continuous
 62
     4
100
AcDbLine
 10
-2012.279608714938
 20
1920.500583048554
 30
0.0
 11
-1902.279608714938
 21
1920.500583048554
 31
0.0
  0
LINE
  5
17C
330
46
100
AcDbEntity
  8
1
  6
Continuous
 62
     4
100
AcDbLine
 10
-2021.779608714939
 20
1957.500583048554
 30
0.0
 11
-2030.779608714939
 21
1957.500583048554
 31
0.0
  0
LINE
  5
17D
330
46
100
AcDbEntity
  8
1
  6
Continuous
 62
     4
100
AcDbLine
 10
-1892.779608714938
 20
1957.500583048554
 30
0.0
 11
-1883.779608714938
 21
1957.500583048554
 31
0.0
  0
LINE
  5
17E
330
46
100
AcDbEntity
  8
1
  6
Continuous
 62
     4
100
AcDbLine
 10
-2002.279608714939
 20
1957.500583048554
 30
0.0
 11
-1912.279608714938
 21
1957.500583048554
 31
0.0
  0
LINE
  5
17F
330
46
100
AcDbEntity
  8
1
  6
Continuous
 62
     4
100
AcDbLine
 10
-1937.279608714938
 20
1910.000583048553
 30
0.0
 11
-1929.779608714938
 21
1910.000583048554
 31
0.0
  0
LINE
  5
180
330
46
100
AcDbEntity
  8
1
  6
Continuous
 62
     4
100
AcDbLine
 10
-1929.779608714938
 20
1910.000583048554
 30
0.0
 11
-1929.779608714938
 21
1915.000583048554
 31
0.0
  0
LINE
  5
181
330
46
100
AcDbEntity
  8
1
  6
DASH_CENTER
 62
     2
100
AcDbLine
 10
-1929.779608714938
 20
2086.500583048553
 30
0.0
 11
-1929.779608714938
 21
2081.500583048554
 31
0.0
  0
LINE
  5
182
330
46
100
AcDbEntity
  8
1
  6
DASH_CENTER
 62
     2
100
AcDbLine
 10
-1929.779608714938
 20
2086.500583048553
 30
0.0
 11
-1937.279608714938
 21
2086.500583048553
 31
0.0
  0
LINE
  5
183
330
46
100
AcDbEntity
  8
1
  6
Continuous
 62
     4
100
AcDbLine
 10
-1977.279608714938
 20
1910.000583048553
 30
0.0
 11
-1937.279608714938
 21
1910.000583048553
 31
0.0
  0
LINE
  5
184
330
46
100
AcDbEntity
  8
1
  6
DASH_CENTER
 62
     2
100
AcDbLine
 10
-1937.279608714938
 20
2086.500583048553
 30
0.0
 11
-1937.279608714938
 21
2156.500583048553
 31
0.0
  0
LINE
  5
185
330
46
100
AcDbEntity
  8
1
  6
Continuous
 62
     4
100
AcDbLine
 10
-1937.279608714938
 20
1840.000583048553
 30
0.0
 11
-1937.279608714938
 21
1910.000583048553
 31
0.0
  0
LINE
  5
186
330
46
100
AcDbEntity
  8
1
  6
Continuous
 62
     4
100
AcDbLine
 10
-1937.279608714938
 20
1840.000583048553
 30
0.0
 11
-1975.779608714938
 21
1840.000583048553
 31
0.0
  0
LINE
  5
187
330
46
100
AcDbEntity
  8
1
  6
DASH_CENTER
 62
     2
100
AcDbLine
 10
-1937.279608714938
 20
2156.500583048553
 30
0.0
 11
-1975.779608714938
 21
2156.500583048553
 31
0.0
  0
LINE
  5
188
330
46
100
AcDbEntity
  8
1
  6
DASH_CENTER
 62
     2
100
AcDbLine
 10
-1975.779608714938
 20
2156.500583048553
 30
0.0
 11
-1977.279608714938
 21
2156.500583048553
 31
0.0
  0
LINE
  5
189
330
46
100
AcDbEntity
  8
1
  6
DASH_CENTER
 62
     2
100
AcDbLine
 10
-1977.279608714938
 20
2086.500583048553
 30
0.0
 11
-1984.779608714938
 21
2086.500583048553
 31
0.0
  0
LINE
  5
18A
330
46
100
AcDbEntity
  8
1
  6
DASH_CENTER
 62
     2
100
AcDbLine
 10
-1937.279608714938
 20
2086.500583048553
 30
0.0
 11
-1977.279608714938
 21
2086.500583048553
 31
0.0
  0
LINE
  5
18B
330
46
100
AcDbEntity
  8
1
  6
DASH_CENTER
 62
     2
100
AcDbLine
 10
-1977.279608714938
 20
2156.500583048553
 30
0.0
 11
-1977.279608714938
 21
2086.500583048553
 31
0.0
  0
LINE
  5
18C
330
46
100
AcDbEntity
  8
1
  6
DASH_CENTER
 62
     2
100
AcDbLine
 10
-1984.779608714938
 20
2081.500583048554
 30
0.0
 11
-1984.779608714938
 21
2086.500583048553
 31
0.0
  0
LINE
  5
18D
330
46
100
AcDbEntity
  8
1
  6
Continuous
 62
     4
100
AcDbLine
 10
-1984.779608714938
 20
1910.000583048554
 30
0.0
 11
-1977.279608714938
 21
1910.000583048553
 31
0.0
  0
LINE
  5
18E
330
46
100
AcDbEntity
  8
1
  6
Continuous
 62
     4
100
AcDbLine
 10
-1984.779608714938
 20
1910.000583048554
 30
0.0
 11
-1984.779608714938
 21
1915.000583048554
 31
0.0
  0
LINE
  5
18F
330
46
100
AcDbEntity
  8
1
  6
Continuous
 62
     4
100
AcDbLine
 10
-1975.779608714938
 20
1840.000583048553
 30
0.0
 11
-1977.279608714938
 21
1840.000583048553
 31
0.0
  0
LINE
  5
190
330
46
100
AcDbEntity
  8
1
  6
Continuous
 62
     4
100
AcDbLine
 10
-1977.279608714938
 20
1840.000583048553
 30
0.0
 11
-1977.279608714938
 21
1910.000583048553
 31
0.0
  0
LINE
  5
191
330
46
100
AcDbEntity
  8
1
  6
Continuous
 62
     4
100
AcDbLine
 10
-1951.279608714939
 20
1849.000583048553
 30
0.0
 11
-1951.279608714939
 21
1877.000583048554
 31
0.0
  0
LINE
  5
192
330
46
100
AcDbEntity
  8
1
  6
Continuous
 62
     4
100
AcDbLine
 10
-1963.279608714938
 20
1877.000583048554
 30
0.0
 11
-1963.279608714938
 21
1849.000583048553
 31
0.0
  0
LINE
  5
193
330
46
100
AcDbEntity
  8
1
  6
DASH_CENTER
 62
     2
100
AcDbLine
 10
-1951.279608714939
 20
2119.500583048553
 30
0.0
 11
-1951.279608714939
 21
2147.500583048553
 31
0.0
  0
LINE
  5
194
330
46
100
AcDbEntity
  8
1
  6
DASH_CENTER
 62
     2
100
AcDbLine
 10
-1963.279608714938
 20
2147.500583048553
 30
0.0
 11
-1963.279608714938
 21
2119.500583048553
 31
0.0
  0
LINE
  5
195
330
46
100
AcDbEntity
  8
1
  6
Continuous
 62
     4
100
AcDbLine
 10
-1963.279608714938
 20
2400.065626231596
 30
0.0
 11
-1963.279608714938
 21
2404.286842203257
 31
0.0
  0
LINE
  5
196
330
46
100
AcDbEntity
  8
1
  6
Continuous
 62
     4
100
AcDbLine
 10
-1963.279608714938
 20
2404.286842203257
 30
0.0
 11
-1951.279608714939
 21
2404.286842203257
 31
0.0
  0
LINE
  5
197
330
46
100
AcDbEntity
  8
1
  6
Continuous
 62
     4
100
AcDbLine
 10
-1951.279608714939
 20
2404.286842203257
 30
0.0
 11
-1951.279608714939
 21
2400.065626231596
 31
0.0
  0
LINE
  5
198
330
46
100
AcDbEntity
  8
1
  6
DASH_CENTER
 62
     2
100
AcDbLine
 10
-1957.279608714938
 20
2502.218421775685
 30
0.0
 11
-1957.279608714938
 21
2293.847665100261
 31
0.0
  0
LINE
  5
199
330
46
100
AcDbEntity
  8
1
  6
Continuous
 62
     4
100
AcDbLine
 10
-2030.779608714938
 20
2081.500583048554
 30
0.0
 11
-2030.779608714939
 21
2076.500583048554
 31
0.0
  0
LINE
  5
19A
330
46
100
AcDbEntity
  8
1
  6
Continuous
 62
     4
100
AcDbLine
 10
-1883.779608714938
 20
2081.500583048554
 30
0.0
 11
-2030.779608714938
 21
2081.500583048554
 31
0.0
  0
LINE
  5
19B
330
46
100
AcDbEntity
  8
1
  6
Continuous
 62
     4
100
AcDbLine
 10
-1883.779608714938
 20
2076.500583048554
 30
0.0
 11
-1883.779608714938
 21
2081.500583048554
 31
0.0
  0
LINE
  5
19C
330
46
100
AcDbEntity
  8
1
  6
DASH_CENTER
 62
     2
100
AcDbLine
 10
-2017.619374939722
 20
1961.500583048554
 30
0.0
 11
-2030.779608714939
 21
1961.500583048554
 31
0.0
  0
LINE
  5
19D
330
46
100
AcDbEntity
  8
1
  6
DASH_CENTER
 62
     2
100
AcDbLine
 10
-1879.529247669311
 20
1961.500583048554
 30
0.0
 11
-1883.779608714938
 21
1961.500583048554
 31
0.0
  0
LINE
  5
19E
330
46
100
AcDbEntity
  8
1
  6
Continuous
 62
     4
100
AcDbLine
 10
-1891.633710681188
 20
2064.500583048554
 30
0.0
 11
-1884.925506748688
 21
2064.500583048554
 31
0.0
  0
LINE
  5
19F
330
46
100
AcDbEntity
  8
1
  6
Continuous
 62
     4
100
AcDbLine
 10
-2002.279608714939
 20
2064.500583048554
 30
0.0
 11
-1912.279608714938
 21
2064.500583048554
 31
0.0
  0
LINE
  5
1A0
330
46
100
AcDbEntity
  8
1
  6
Continuous
 62
     4
100
AcDbLine
 10
-2029.633710681188
 20
2064.500583048554
 30
0.0
 11
-2022.925506748689
 21
2064.500583048554
 31
0.0
  0
LINE
  5
1A1
330
46
100
AcDbEntity
  8
1
  6
Continuous
 62
     4
100
AcDbLine
 10
-1884.925506748688
 20
1964.500583048554
 30
0.0
 11
-1891.633710681188
 21
1964.500583048554
 31
0.0
  0
LINE
  5
1A2
330
46
100
AcDbEntity
  8
1
  6
Continuous
 62
     4
100
AcDbLine
 10
-2022.925506748689
 20
1964.500583048554
 30
0.0
 11
-2029.633710681188
 21
1964.500583048554
 31
0.0
  0
LINE
  5
1A3
330
46
100
AcDbEntity
  8
1
  6
Continuous
 62
     4
100
AcDbLine
 10
-1912.279608714938
 20
1964.500583048554
 30
0.0
 11
-2002.279608714939
 21
1964.500583048554
 31
0.0
  0
LINE
  5
1A4
330
46
100
AcDbEntity
  8
1
  6
DASH_CENTER
 62
     2
100
AcDbLine
 10
-1957.279608714938
 20
2161.986401174367
 30
0.0
 11
-1957.279608714938
 21
1834.345121078547
 31
0.0
  0
LINE
  5
1A5
330
46
100
AcDbEntity
  8
1
  6
DASH_CENTER
 62
     2
100
AcDbLine
 10
-1862.279608714938
 20
2014.500583048554
 30
0.0
 11
-2062.327277846773
 21
2014.500583048554
 31
0.0
  0
LINE
  5
1A6
330
46
100
AcDbEntity
  8
1
  6
Continuous
 62
     4
100
AcDbLine
 10
-2051.279608714939
 20
1952.500583048554
 30
0.0
 11
-2049.279608714939
 21
1952.500583048554
 31
0.0
  0
LINE
  5
1A7
330
46
100
AcDbEntity
  8
1
  6
Continuous
 62
     4
100
AcDbLine
 10
-2049.279608714939
 20
1952.500583048554
 30
0.0
 11
-2049.279608714939
 21
2076.500583048554
 31
0.0
  0
LINE
  5
1A8
330
46
100
AcDbEntity
  8
1
  6
Continuous
 62
     4
100
AcDbLine
 10
-1863.279608714938
 20
1952.500583048554
 30
0.0
 11
-1865.279608714938
 21
1952.500583048554
 31
0.0
  0
LINE
  5
1A9
330
46
100
AcDbEntity
  8
1
  6
Continuous
 62
     4
100
AcDbLine
 10
-1865.279608714938
 20
2076.500583048554
 30
0.0
 11
-1865.279608714938
 21
1952.500583048554
 31
0.0
  0
LINE
  5
1AA
330
46
100
AcDbEntity
  8
1
  6
Continuous
 62
     4
100
AcDbLine
 10
-2052.279608714939
 20
1953.500583048554
 30
0.0
 11
-2051.279608714939
 21
1952.500583048554
 31
0.0
  0
LINE
  5
1AB
330
46
100
AcDbEntity
  8
1
  6
Continuous
 62
     4
100
AcDbLine
 10
-2052.279608714939
 20
2075.500583048554
 30
0.0
 11
-2051.279608714939
 21
2076.500583048554
 31
0.0
  0
LINE
  5
1AC
330
46
100
AcDbEntity
  8
1
  6
Continuous
 62
     4
100
AcDbLine
 10
-1863.279608714938
 20
2076.500583048554
 30
0.0
 11
-1862.279608714938
 21
2075.500583048554
 31
0.0
  0
LINE
  5
1AD
330
46
100
AcDbEntity
  8
1
  6
Continuous
 62
     4
100
AcDbLine
 10
-1863.279608714938
 20
1952.500583048554
 30
0.0
 11
-1862.279608714938
 21
1953.500583048554
 31
0.0
  0
LINE
  5
1AE
330
46
100
AcDbEntity
  8
1
  6
Continuous
 62
     4
100
AcDbLine
 10
-1865.279608714938
 20
2076.500583048554
 30
0.0
 11
-1883.779608714938
 21
2076.500583048554
 31
0.0
  0
LINE
  5
1AF
330
46
100
AcDbEntity
  8
1
  6
Continuous
 62
     4
100
AcDbLine
 10
-2049.279608714939
 20
2076.500583048554
 30
0.0
 11
-2030.779608714939
 21
2076.500583048554
 31
0.0
  0
LINE
  5
1B0
330
46
100
AcDbEntity
  8
1
  6
Continuous
 62
     4
100
AcDbLine
 10
-1912.279608714938
 20
1971.500583048554
 30
0.0
 11
-2002.279608714939
 21
1971.500583048554
 31
0.0
  0
LINE
  5
1B1
330
46
100
AcDbEntity
  8
1
  6
Continuous
 62
     4
100
AcDbLine
 10
-1912.279608714938
 20
2057.500583048554
 30
0.0
 11
-2002.279608714939
 21
2057.500583048554
 31
0.0
  0
LINE
  5
1B2
330
46
100
AcDbEntity
  8
1
  6
Continuous
 62
     4
100
AcDbLine
 10
-1912.279608714938
 20
1971.500583048554
 30
0.0
 11
-1912.279608714938
 21
2057.500583048554
 31
0.0
  0
LINE
  5
1B3
330
46
100
AcDbEntity
  8
1
  6
Continuous
 62
     4
100
AcDbLine
 10
-1912.279608714938
 20
1952.500583048554
 30
0.0
 11
-1912.279608714938
 21
1971.500583048554
 31
0.0
  0
LINE
  5
1B4
330
46
100
AcDbEntity
  8
1
  6
Continuous
 62
     4
100
AcDbLine
 10
-2002.279608714939
 20
1952.500583048554
 30
0.0
 11
-2002.279608714939
 21
1971.500583048554
 31
0.0
  0
LINE
  5
1B5
330
46
100
AcDbEntity
  8
1
  6
Continuous
 62
     4
100
AcDbLine
 10
-2002.279608714939
 20
1971.500583048554
 30
0.0
 11
-2002.279608714939
 21
2057.500583048554
 31
0.0
  0
LINE
  5
1B6
330
46
100
AcDbEntity
  8
1
  6
DASH_CENTER
 62
     2
100
AcDbLine
 10
-2026.279608714938
 20
1969.811953272106
 30
0.0
 11
-2026.279608714938
 21
1948.586989265729
 31
0.0
  0
LINE
  5
1B7
330
46
100
AcDbEntity
  8
1
  6
DASH_CENTER
 62
     2
100
AcDbLine
 10
-2030.779608714939
 20
1961.500583048554
 30
0.0
 11
-2035.008502077475
 21
1961.500583048554
 31
0.0
  0
LINE
  5
1B8
330
46
100
AcDbEntity
  8
1
  6
DASH_CENTER
 62
     2
100
AcDbLine
 10
-1883.779608714938
 20
1961.500583048554
 30
0.0
 11
-1896.40692989125
 21
1961.500583048554
 31
0.0
  0
LINE
  5
1B9
330
46
100
AcDbEntity
  8
1
  6
DASH_CENTER
 62
     2
100
AcDbLine
 10
-1888.279608714938
 20
1969.811953272106
 30
0.0
 11
-1888.279608714938
 21
1948.842711723637
 31
0.0
  0
LINE
  5
1BA
330
46
100
AcDbEntity
  8
1
  6
DASH_CENTER
 62
     2
100
AcDbLine
 10
-1888.279608714938
 20
2083.051222462159
 30
0.0
 11
-1888.279608714938
 21
2058.803368624148
 31
0.0
  0
LINE
  5
1BB
330
46
100
AcDbEntity
  8
1
  6
DASH_CENTER
 62
     2
100
AcDbLine
 10
-1880.552137500943
 20
2067.500583048554
 30
0.0
 11
-1895.895484975434
 21
2067.500583048554
 31
0.0
  0
LINE
  5
1BC
330
46
100
AcDbEntity
  8
1
  6
DASH_CENTER
 62
     2
100
AcDbLine
 10
-2018.386542313446
 20
2067.500583048554
 30
0.0
 11
-2033.985612245844
 21
2067.500583048554
 31
0.0
  0
LINE
  5
1BD
330
46
100
AcDbEntity
  8
1
  6
DASH_CENTER
 62
     2
100
AcDbLine
 10
-2026.279608714938
 20
2059.570535997872
 30
0.0
 11
-2026.279608714938
 21
2083.818389835883
 31
0.0
  0
LINE
  5
1BE
330
46
100
AcDbEntity
  8
1
  6
Continuous
 62
     4
100
AcDbLine
 10
-1883.779608714938
 20
2076.500583048554
 30
0.0
 11
-1883.779608714938
 21
2067.500583048554
 31
0.0
  0
LINE
  5
1BF
330
46
100
AcDbEntity
  8
1
  6
Continuous
 62
     4
100
AcDbLine
 10
-1912.279608714938
 20
2076.500583048554
 30
0.0
 11
-1892.779608714938
 21
2076.500583048554
 31
0.0
  0
LINE
  5
1C0
330
46
100
AcDbEntity
  8
1
  6
Continuous
 62
     4
100
AcDbLine
 10
-1892.779608714938
 20
2076.500583048554
 30
0.0
 11
-1892.779608714938
 21
2067.500583048554
 31
0.0
  0
LINE
  5
1C1
330
46
100
AcDbEntity
  8
1
  6
Continuous
 62
     4
100
AcDbLine
 10
-1865.279608714938
 20
1952.500583048554
 30
0.0
 11
-1883.779608714938
 21
1952.500583048554
 31
0.0
  0
LINE
  5
1C2
330
46
100
AcDbEntity
  8
1
  6
Continuous
 62
     4
100
AcDbLine
 10
-1883.779608714938
 20
1952.500583048554
 30
0.0
 11
-1883.779608714938
 21
1961.500583048554
 31
0.0
  0
LINE
  5
1C3
330
46
100
AcDbEntity
  8
1
  6
Continuous
 62
     4
100
AcDbLine
 10
-1892.779608714938
 20
1952.500583048554
 30
0.0
 11
-1892.779608714938
 21
1961.500583048554
 31
0.0
  0
LINE
  5
1C4
330
46
100
AcDbEntity
  8
1
  6
Continuous
 62
     4
100
AcDbLine
 10
-2002.279608714939
 20
2076.500583048554
 30
0.0
 11
-2021.779608714939
 21
2076.500583048554
 31
0.0
  0
LINE
  5
1C5
330
46
100
AcDbEntity
  8
1
  6
Continuous
 62
     4
100
AcDbLine
 10
-2021.779608714939
 20
2076.500583048554
 30
0.0
 11
-2021.779608714939
 21
2067.500583048554
 31
0.0
  0
LINE
  5
1C6
330
46
100
AcDbEntity
  8
1
  6
Continuous
 62
     4
100
AcDbLine
 10
-2030.779608714939
 20
2076.500583048554
 30
0.0
 11
-2030.779608714939
 21
2067.500583048554
 31
0.0
  0
LINE
  5
1C7
330
46
100
AcDbEntity
  8
1
  6
Continuous
 62
     4
100
AcDbLine
 10
-2021.779608714939
 20
1952.500583048554
 30
0.0
 11
-2021.779608714939
 21
1961.500583048554
 31
0.0
  0
LINE
  5
1C8
330
46
100
AcDbEntity
  8
1
  6
Continuous
 62
     4
100
AcDbLine
 10
-2049.279608714939
 20
1952.500583048554
 30
0.0
 11
-2030.779608714939
 21
1952.500583048554
 31
0.0
  0
LINE
  5
1C9
330
46
100
AcDbEntity
  8
1
  6
Continuous
 62
     4
100
AcDbLine
 10
-2030.779608714939
 20
1952.500583048554
 30
0.0
 11
-2030.779608714939
 21
1961.500583048554
 31
0.0
  0
LINE
  5
1CA
330
46
100
AcDbEntity
  8
1
  6
Continuous
 62
     4
100
AcDbLine
 10
-1862.279608714938
 20
2075.500583048554
 30
0.0
 11
-1862.279608714938
 21
1953.500583048554
 31
0.0
  0
LINE
  5
1CB
330
46
100
AcDbEntity
  8
1
  6
Continuous
 62
     4
100
AcDbLine
 10
-1892.779608714938
 20
1952.500583048554
 30
0.0
 11
-1912.279608714938
 21
1952.500583048554
 31
0.0
  0
LINE
  5
1CC
330
46
100
AcDbEntity
  8
1
  6
Continuous
 62
     4
100
AcDbLine
 10
-1912.279608714938
 20
2057.500583048554
 30
0.0
 11
-1912.279608714938
 21
2076.500583048554
 31
0.0
  0
LINE
  5
1CD
330
46
100
AcDbEntity
  8
1
  6
Continuous
 62
     4
100
AcDbLine
 10
-1865.279608714938
 20
2076.500583048554
 30
0.0
 11
-1863.279608714938
 21
2076.500583048554
 31
0.0
  0
LINE
  5
1CE
330
46
100
AcDbEntity
  8
1
  6
Continuous
 62
     4
100
AcDbLine
 10
-2052.279608714939
 20
2075.500583048554
 30
0.0
 11
-2052.279608714939
 21
1953.500583048554
 31
0.0
  0
LINE
  5
1CF
330
46
100
AcDbEntity
  8
1
  6
Continuous
 62
     4
100
AcDbLine
 10
-2021.779608714939
 20
1952.500583048554
 30
0.0
 11
-2002.279608714939
 21
1952.500583048554
 31
0.0
  0
LINE
  5
1D0
330
46
100
AcDbEntity
  8
1
  6
Continuous
 62
     4
100
AcDbLine
 10
-2002.279608714939
 20
2057.500583048554
 30
0.0
 11
-2002.279608714939
 21
2076.500583048554
 31
0.0
  0
LINE
  5
1D1
330
46
100
AcDbEntity
  8
1
  6
Continuous
 62
     4
100
AcDbLine
 10
-2049.279608714939
 20
2076.500583048554
 30
0.0
 11
-2051.279608714939
 21
2076.500583048554
 31
0.0
  0
LINE
  5
1D2
330
46
100
AcDbEntity
  8
1
  6
DASH_CENTER
 62
     2
100
AcDbLine
 10
-2012.279608714939
 20
2380.986842203257
 30
0.0
 11
-1851.376964668989
 21
2380.986842203257
 31
0.0
  0
LINE
  5
1D3
330
46
100
AcDbEntity
  8
1
  6
DASH_CENTER
 62
     2
100
AcDbLine
 10
-1792.77960871494
 20
2443.986842203257
 30
0.0
 11
-1778.317617242049
 21
2443.986842203257
 31
0.0
  0
LINE
  5
1D4
330
46
100
AcDbEntity
  8
1
  6
Continuous
 62
     4
100
AcDbLine
 10
-1863.279608714938
 20
2445.409491934067
 30
0.0
 11
-1863.279608714938
 21
2356.564192472447
 31
0.0
  0
LINE
  5
1D5
330
46
100
AcDbEntity
  8
1
  6
Continuous
 62
     4
100
AcDbLine
 10
-2030.779608714938
 20
2495.986842203257
 30
0.0
 11
-2030.779608714938
 21
2483.986842203257
 31
0.0
  0
LINE
  5
1D6
330
46
100
AcDbEntity
  8
1
  6
DASH_CENTER
 62
     2
100
AcDbLine
 10
-2026.279608714938
 20
2499.402547971673
 30
0.0
 11
-2026.279608714938
 21
2479.745555544567
 31
0.0
  0
LINE
  5
1D7
330
46
100
AcDbEntity
  8
1
  6
Continuous
 62
     4
100
AcDbLine
 10
-2021.779608714939
 20
2483.986842203257
 30
0.0
 11
-2021.779608714938
 21
2495.986842203257
 31
0.0
  0
LINE
  5
1D8
330
46
100
AcDbEntity
  8
1
  6
Continuous
 62
     4
100
AcDbLine
 10
-2002.279608714939
 20
2485.986842203257
 30
0.0
 11
-2002.279608714939
 21
2495.986842203256
 31
0.0
  0
LINE
  5
1D9
330
46
100
AcDbEntity
  8
1
  6
Continuous
 62
     4
100
AcDbLine
 10
-2004.279608714939
 20
2483.986842203257
 30
0.0
 11
-2035.279608714939
 21
2483.986842203257
 31
0.0
  0
LINE
  5
1DA
330
46
100
AcDbEntity
  8
1
  6
Continuous
 62
     4
100
AcDbLine
 10
-2040.279608714939
 20
2478.986842203257
 30
0.0
 11
-2040.279608714939
 21
2447.986842203257
 31
0.0
  0
LINE
  5
1DB
330
46
100
AcDbEntity
  8
1
  6
Continuous
 62
     4
100
AcDbLine
 10
-2052.279608714938
 20
2474.486842203257
 30
0.0
 11
-2040.279608714938
 21
2474.486842203257
 31
0.0
  0
LINE
  5
1DC
330
46
100
AcDbEntity
  8
1
  6
DASH_CENTER
 62
     2
100
AcDbLine
 10
-2034.072891592431
 20
2469.986842203255
 30
0.0
 11
-2055.75100570738
 21
2469.986842203255
 31
0.0
  0
LINE
  5
1DD
330
46
100
AcDbEntity
  8
1
  6
Continuous
 62
     4
100
AcDbLine
 10
-2040.279608714938
 20
2465.486842203257
 30
0.0
 11
-2052.279608714938
 21
2465.486842203257
 31
0.0
  0
LINE
  5
1DE
330
46
100
AcDbEntity
  8
1
  6
Continuous
 62
     4
100
AcDbLine
 10
-2052.279608714939
 20
2445.986842203257
 30
0.0
 11
-2042.279608714939
 21
2445.986842203257
 31
0.0
  0
LINE
  5
1DF
330
46
100
AcDbEntity
  8
1
  6
DASH_CENTER
 62
     2
100
AcDbLine
 10
-1888.279608714938
 20
2500.208772757567
 30
0.0
 11
-1888.279608714938
 21
2478.903009450137
 31
0.0
  0
LINE
  5
1E0
330
46
100
AcDbEntity
  8
1
  6
Continuous
 62
     4
100
AcDbLine
 10
-1912.279608714938
 20
2495.986842203257
 30
0.0
 11
-1912.279608714938
 21
2485.986842203257
 31
0.0
  0
LINE
  5
1E1
330
46
100
AcDbEntity
  8
1
  6
Continuous
 62
     4
100
AcDbLine
 10
-1892.779608714938
 20
2495.986842203257
 30
0.0
 11
-1892.779608714938
 21
2483.986842203257
 31
0.0
  0
LINE
  5
1E2
330
46
100
AcDbEntity
  8
1
  6
Continuous
 62
     4
100
AcDbLine
 10
-1883.779608714938
 20
2483.986842203257
 30
0.0
 11
-1883.779608714938
 21
2495.986842203257
 31
0.0
  0
LINE
  5
1E3
330
46
100
AcDbEntity
  8
1
  6
Continuous
 62
     4
100
AcDbLine
 10
-1879.279608714938
 20
2483.986842203257
 30
0.0
 11
-1910.279608714938
 21
2483.986842203257
 31
0.0
  0
LINE
  5
1E4
330
46
100
AcDbEntity
  8
1
  6
Continuous
 62
     4
100
AcDbLine
 10
-1862.279608714938
 20
2474.486842203257
 30
0.0
 11
-1874.279608714938
 21
2474.486842203257
 31
0.0
  0
LINE
  5
1E5
330
46
100
AcDbEntity
  8
1
  6
DASH_CENTER
 62
     2
100
AcDbLine
 10
-1859.997108356029
 20
2469.986842203255
 30
0.0
 11
-1877.334606883418
 21
2469.986842203255
 31
0.0
  0
LINE
  5
1E6
330
46
100
AcDbEntity
  8
1
  6
Continuous
 62
     4
100
AcDbLine
 10
-1874.279608714938
 20
2465.486842203257
 30
0.0
 11
-1862.279608714938
 21
2465.486842203257
 31
0.0
  0
LINE
  5
1E7
330
46
100
AcDbEntity
  8
1
  6
Continuous
 62
     4
100
AcDbLine
 10
-1874.279608714938
 20
2447.986842203257
 30
0.0
 11
-1874.279608714938
 21
2478.986842203257
 31
0.0
  0
LINE
  5
1E8
330
46
100
AcDbEntity
  8
1
  6
Continuous
 62
     4
100
AcDbLine
 10
-1872.279608714938
 20
2445.986842203257
 30
0.0
 11
-1862.279608714938
 21
2445.986842203257
 31
0.0
  0
LINE
  5
1E9
330
46
100
AcDbEntity
  8
1
  6
DASH_CENTER
 62
     2
100
AcDbLine
 10
-1888.279608714938
 20
2323.070674956375
 30
0.0
 11
-1888.279608714938
 21
2301.764911648945
 31
0.0
  0
LINE
  5
1EA
330
46
100
AcDbEntity
  8
1
  6
DASH_CENTER
 62
     2
100
AcDbLine
 10
-2026.279608714938
 20
2322.228128861945
 30
0.0
 11
-2026.279608714938
 21
2300.184964785505
 31
0.0
  0
LINE
  5
1EB
330
46
100
AcDbEntity
  8
1
  6
Continuous
 62
     4
100
AcDbLine
 10
-2021.779608714938
 20
2305.986842203255
 30
0.0
 11
-2021.779608714939
 21
2317.986842203255
 31
0.0
  0
LINE
  5
1EC
330
46
100
AcDbEntity
  8
1
  6
Continuous
 62
     4
100
AcDbLine
 10
-2030.779608714939
 20
2317.986842203255
 30
0.0
 11
-2030.779608714938
 21
2305.986842203255
 31
0.0
  0
LINE
  5
1ED
330
46
100
AcDbEntity
  8
1
  6
Continuous
 62
     4
100
AcDbLine
 10
-2052.279608714938
 20
2336.486842203255
 30
0.0
 11
-2040.279608714939
 21
2336.486842203255
 31
0.0
  0
LINE
  5
1EE
330
46
100
AcDbEntity
  8
1
  6
Continuous
 62
     4
100
AcDbLine
 10
-2040.279608714938
 20
2327.486842203255
 30
0.0
 11
-2052.279608714938
 21
2327.486842203255
 31
0.0
  0
LINE
  5
1EF
330
46
100
AcDbEntity
  8
1
  6
DASH_CENTER
 62
     2
100
AcDbLine
 10
-2055.75100570738
 20
2331.986842203257
 30
0.0
 11
-2037.21914210329
 21
2331.986842203257
 31
0.0
  0
LINE
  5
1F0
330
46
100
AcDbEntity
  8
1
  6
Continuous
 62
     4
100
AcDbLine
 10
-2040.279608714939
 20
2353.986842203255
 30
0.0
 11
-2040.279608714939
 21
2322.986842203255
 31
0.0
  0
LINE
  5
1F1
330
46
100
AcDbEntity
  8
1
  6
Continuous
 62
     4
100
AcDbLine
 10
-2042.279608714939
 20
2355.986842203255
 30
0.0
 11
-2052.279608714939
 21
2355.986842203255
 31
0.0
  0
LINE
  5
1F2
330
46
100
AcDbEntity
  8
1
  6
Continuous
 62
     4
100
AcDbLine
 10
-1912.279608714938
 20
2314.843059426642
 30
0.0
 11
-1912.279608714938
 21
2305.986842203255
 31
0.0
  0
LINE
  5
1F3
330
46
100
AcDbEntity
  8
1
  6
Continuous
 62
     4
100
AcDbLine
 10
-1892.779608714938
 20
2317.986842203255
 30
0.0
 11
-1892.779608714938
 21
2305.986842203255
 31
0.0
  0
LINE
  5
1F4
330
46
100
AcDbEntity
  8
1
  6
Continuous
 62
     4
100
AcDbLine
 10
-1883.779608714938
 20
2305.986842203255
 30
0.0
 11
-1883.779608714938
 21
2317.986842203255
 31
0.0
  0
LINE
  5
1F5
330
46
100
AcDbEntity
  8
1
  6
Continuous
 62
     4
100
AcDbLine
 10
-1907.974436572457
 20
2317.986842203255
 30
0.0
 11
-1879.279608714938
 21
2317.986842203255
 31
0.0
  0
LINE
  5
1F6
330
46
100
AcDbEntity
  8
1
  6
Continuous
 62
     4
100
AcDbLine
 10
-1862.279608714938
 20
2336.486842203255
 30
0.0
 11
-1874.279608714938
 21
2336.486842203255
 31
0.0
  0
LINE
  5
1F7
330
46
100
AcDbEntity
  8
1
  6
Continuous
 62
     4
100
AcDbLine
 10
-1874.279608714938
 20
2327.486842203255
 30
0.0
 11
-1862.279608714938
 21
2327.486842203255
 31
0.0
  0
LINE
  5
1F8
330
46
100
AcDbEntity
  8
1
  6
DASH_CENTER
 62
     2
100
AcDbLine
 10
-1877.334606883418
 20
2331.986842203257
 30
0.0
 11
-1861.148412112538
 21
2331.986842203257
 31
0.0
  0
LINE
  5
1F9
330
46
100
AcDbEntity
  8
1
  6
Continuous
 62
     4
100
AcDbLine
 10
-1874.279608714938
 20
2322.986842203255
 30
0.0
 11
-1874.279608714938
 21
2353.986842203255
 31
0.0
  0
LINE
  5
1FA
330
46
100
AcDbEntity
  8
1
  6
Continuous
 62
     4
100
AcDbLine
 10
-1862.279608714938
 20
2355.986842203255
 30
0.0
 11
-1872.279608714938
 21
2355.986842203255
 31
0.0
  0
LINE
  5
1FB
330
46
100
AcDbEntity
  8
1
  6
Continuous
 62
     4
100
AcDbLine
 10
-2049.279608714939
 20
2495.986842203256
 30
0.0
 11
-2052.279608714939
 21
2492.986842203257
 31
0.0
  0
LINE
  5
1FC
330
46
100
AcDbEntity
  8
1
  6
Continuous
 62
     4
100
AcDbLine
 10
-1862.279608714938
 20
2492.986842203257
 30
0.0
 11
-1865.279608714938
 21
2495.986842203257
 31
0.0
  0
LINE
  5
1FD
330
46
100
AcDbEntity
  8
1
  6
Continuous
 62
     4
100
AcDbLine
 10
-2051.279608714939
 20
2445.409491934067
 30
0.0
 11
-2052.279608714939
 21
2445.986842203255
 31
0.0
  0
LINE
  5
1FE
330
46
100
AcDbEntity
  8
1
  6
Continuous
 62
     4
100
AcDbLine
 10
-2049.279608714939
 20
2305.986842203257
 30
0.0
 11
-2052.279608714939
 21
2308.986842203255
 31
0.0
  0
LINE
  5
1FF
330
46
100
AcDbEntity
  8
1
  6
Continuous
 62
     4
100
AcDbLine
 10
-1865.279608714938
 20
2305.986842203257
 30
0.0
 11
-1862.279608714938
 21
2308.986842203255
 31
0.0
  0
LINE
  5
200
330
46
100
AcDbEntity
  8
1
  6
Continuous
 62
     4
100
AcDbLine
 10
-1862.279608714938
 20
2355.986842203255
 30
0.0
 11
-1862.279608714938
 21
2308.986842203255
 31
0.0
  0
LINE
  5
201
330
46
100
AcDbEntity
  8
1
  6
Continuous
 62
     4
100
AcDbLine
 10
-2049.279608714939
 20
2305.986842203257
 30
0.0
 11
-2002.279608714939
 21
2305.986842203257
 31
0.0
  0
LINE
  5
202
330
46
100
AcDbEntity
  8
1
  6
Continuous
 62
     4
100
AcDbLine
 10
-2001.702258445749
 20
2306.986842203257
 30
0.0
 11
-2002.279608714939
 21
2305.986842203257
 31
0.0
  0
LINE
  5
203
330
46
100
AcDbEntity
  8
1
  6
Continuous
 62
     4
100
AcDbLine
 10
-1926.882240407797
 20
2306.986842203257
 30
0.0
 11
-1912.856958984128
 21
2306.986842203257
 31
0.0
  0
LINE
  5
204
330
46
100
AcDbEntity
  8
1
  6
Continuous
 62
     4
100
AcDbLine
 10
-2052.279608714939
 20
2355.986842203255
 30
0.0
 11
-2051.279608714939
 21
2356.564192472447
 31
0.0
  0
LINE
  5
205
330
46
100
AcDbEntity
  8
1
  6
Continuous
 62
     4
100
AcDbLine
 10
-2052.279608714939
 20
2355.986842203255
 30
0.0
 11
-2052.279608714939
 21
2308.986842203255
 31
0.0
  0
LINE
  5
206
330
46
100
AcDbEntity
  8
1
  6
Continuous
 62
     4
100
AcDbLine
 10
-2051.279608714939
 20
2356.564192472447
 30
0.0
 11
-2051.279608714939
 21
2445.409491934067
 31
0.0
  0
LINE
  5
207
330
46
100
AcDbEntity
  8
1
  6
Continuous
 62
     4
100
AcDbLine
 10
-1863.279608714938
 20
2356.564192472447
 30
0.0
 11
-1862.279608714938
 21
2355.986842203255
 31
0.0
  0
LINE
  5
208
330
46
100
AcDbEntity
  8
1
  6
Continuous
 62
     4
100
AcDbLine
 10
-1912.279608714938
 20
2305.986842203257
 30
0.0
 11
-1912.856958984128
 21
2306.986842203257
 31
0.0
  0
LINE
  5
209
330
46
100
AcDbEntity
  8
1
  6
Continuous
 62
     4
100
AcDbLine
 10
-1912.279608714938
 20
2305.986842203257
 30
0.0
 11
-1865.279608714938
 21
2305.986842203257
 31
0.0
  0
LINE
  5
20A
330
46
100
AcDbEntity
  8
1
  6
Continuous
 62
     4
100
AcDbLine
 10
-1862.279608714938
 20
2445.986842203257
 30
0.0
 11
-1862.279608714938
 21
2492.986842203257
 31
0.0
  0
LINE
  5
20B
330
46
100
AcDbEntity
  8
1
  6
Continuous
 62
     4
100
AcDbLine
 10
-1862.279608714938
 20
2445.986842203257
 30
0.0
 11
-1863.279608714938
 21
2445.409491934067
 31
0.0
  0
LINE
  5
20C
330
46
100
AcDbEntity
  8
1
  6
Continuous
 62
     4
100
AcDbLine
 10
-1912.856958984128
 20
2494.986842203257
 30
0.0
 11
-1912.279608714938
 21
2495.986842203257
 31
0.0
  0
LINE
  5
20D
330
46
100
AcDbEntity
  8
1
  6
Continuous
 62
     4
100
AcDbLine
 10
-2002.279608714939
 20
2495.986842203256
 30
0.0
 11
-2001.702258445749
 21
2494.986842203257
 31
0.0
  0
LINE
  5
20E
330
46
100
AcDbEntity
  8
1
  6
Continuous
 62
     4
100
AcDbLine
 10
-2049.279608714939
 20
2495.986842203256
 30
0.0
 11
-2002.279608714939
 21
2495.986842203256
 31
0.0
  0
LINE
  5
20F
330
46
100
AcDbEntity
  8
1
  6
Continuous
 62
     4
100
AcDbLine
 10
-1912.279608714938
 20
2495.986842203257
 30
0.0
 11
-1865.279608714938
 21
2495.986842203257
 31
0.0
  0
LINE
  5
210
330
46
100
AcDbEntity
  8
1
  6
Continuous
 62
     4
100
AcDbLine
 10
-2001.702258445749
 20
2494.986842203257
 30
0.0
 11
-1912.856958984128
 21
2494.986842203257
 31
0.0
  0
LINE
  5
211
330
46
100
AcDbEntity
  8
1
  6
Continuous
 62
     4
100
AcDbLine
 10
-2052.279608714939
 20
2492.986842203257
 30
0.0
 11
-2052.279608714939
 21
2445.986842203255
 31
0.0
  0
LINE
  5
212
330
46
100
AcDbEntity
  8
1
  6
Continuous
 62
     4
100
AcDbLine
 10
-1815.77960871494
 20
1936.500583048554
 30
0.0
 11
-1815.77960871494
 21
2072.500583048553
 31
0.0
  0
LINE
  5
213
330
46
100
AcDbEntity
  8
1
  6
Continuous
 62
     4
100
AcDbLine
 10
-1803.77960871494
 20
1934.500583048554
 30
0.0
 11
-1803.77960871494
 21
2074.500583048553
 31
0.0
  0
LINE
  5
214
330
46
100
AcDbEntity
  8
1
  6
Continuous
 62
     4
100
AcDbLine
 10
-1813.77960871494
 20
2074.500583048553
 30
0.0
 11
-1803.77960871494
 21
2074.500583048553
 31
0.0
  0
LINE
  5
215
330
46
100
AcDbEntity
  8
1
  6
Continuous
 62
     4
100
AcDbLine
 10
-1803.77960871494
 20
1934.500583048554
 30
0.0
 11
-1813.77960871494
 21
1934.500583048554
 31
0.0
  0
LINE
  5
216
330
46
100
AcDbEntity
  8
1
  6
Continuous
 62
     4
100
AcDbLine
 10
-1815.77960871494
 20
2501.986842203257
 30
0.0
 11
-1815.77960871494
 21
2365.986842203257
 31
0.0
  0
LINE
  5
217
330
46
100
AcDbEntity
  8
1
  6
Continuous
 62
     4
100
AcDbLine
 10
-1803.77960871494
 20
2363.986842203257
 30
0.0
 11
-1813.77960871494
 21
2363.986842203257
 31
0.0
  0
LINE
  5
218
330
46
100
AcDbEntity
  8
1
  6
Continuous
 62
     4
100
AcDbLine
 10
-1813.77960871494
 20
2503.986842203257
 30
0.0
 11
-1803.77960871494
 21
2503.986842203257
 31
0.0
  0
LINE
  5
219
330
46
100
AcDbEntity
  8
1
  6
Continuous
 62
     4
100
AcDbLine
 10
-1803.77960871494
 20
2363.986842203257
 30
0.0
 11
-1803.77960871494
 21
2348.986842203257
 31
0.0
  0
LINE
  5
21A
330
46
100
AcDbEntity
  8
1
  6
Continuous
 62
     4
100
AcDbLine
 10
-1803.77960871494
 20
2363.986842203257
 30
0.0
 11
-1803.77960871494
 21
2503.986842203257
 31
0.0
  0
LINE
  5
21B
330
46
100
AcDbEntity
  8
1
  6
Continuous
 62
     4
100
AcDbLine
 10
-1803.779608714942
 20
1934.500583048554
 30
0.0
 11
-1803.779608714942
 21
1919.500583048552
 31
0.0
  0
LINE
  5
21C
330
46
100
AcDbEntity
  8
1
  6
Continuous
 62
     4
100
AcDbLine
 10
-1792.77960871494
 20
1919.500583048552
 30
0.0
 11
-1792.77960871494
 21
2074.500583048553
 31
0.0
  0
LINE
  5
21D
330
46
100
AcDbEntity
  8
1
  6
Continuous
 62
     4
100
AcDbLine
 10
-1803.77960871494
 20
2348.986842203257
 30
0.0
 11
-1792.77960871494
 21
2348.986842203257
 31
0.0
  0
LINE
  5
21E
330
46
100
AcDbEntity
  8
1
  6
Continuous
 62
     4
100
AcDbLine
 10
-1792.77960871494
 20
2348.986842203257
 30
0.0
 11
-1792.77960871494
 21
2503.986842203257
 31
0.0
  0
LINE
  5
21F
330
46
100
AcDbEntity
  8
1
  6
Continuous
 62
     4
100
AcDbLine
 10
-1792.77960871494
 20
2503.986842203257
 30
0.0
 11
-1803.77960871494
 21
2503.986842203257
 31
0.0
  0
LINE
  5
220
330
46
100
AcDbEntity
  8
1
  6
Continuous
 62
     4
100
AcDbLine
 10
-1803.779608714942
 20
1919.500583048552
 30
0.0
 11
-1792.77960871494
 21
1919.500583048552
 31
0.0
  0
LINE
  5
221
330
46
100
AcDbEntity
  8
1
  6
Continuous
 62
     4
100
AcDbLine
 10
-1803.779608714942
 20
2074.500583048553
 30
0.0
 11
-1792.77960871494
 21
2074.500583048553
 31
0.0
  0
ARC
  5
222
330
46
100
AcDbEntity
  8
1
  6
Continuous
 62
     2
100
AcDbCircle
 10
-1892.279608714938
 20
2081.500583048554
 30
0.0
 40
6.999999999998863
100
AcDbArc
 50
0.0
 51
93.08665016207937
  0
ARC
  5
223
330
46
100
AcDbEntity
  8
1
  6
Continuous
 62
     4
100
AcDbCircle
 10
-1892.279608714938
 20
2081.500583048554
 30
0.0
 40
4.0
100
AcDbArc
 50
0.0
 51
180.0
  0
ARC
  5
224
330
46
100
AcDbEntity
  8
1
  6
DASH_CENTER
 62
     2
100
AcDbCircle
 10
-1957.279608714938
 20
2081.500583048554
 30
0.0
 40
64.99999999999909
100
AcDbArc
 50
357.3797772405202
 51
90.0
  0
ARC
  5
225
330
46
100
AcDbEntity
  8
1
  6
DASH_CENTER
 62
     2
100
AcDbCircle
 10
-1957.279608714938
 20
2081.500583048554
 30
0.0
 40
65.0
100
AcDbArc
 50
90.0
 51
181.7804421578475
  0
ARC
  5
226
330
46
100
AcDbEntity
  8
1
  6
Continuous
 62
     2
100
AcDbCircle
 10
-2022.279608714939
 20
2081.500583048554
 30
0.0
 40
7.0
100
AcDbArc
 50
0.0
 51
86.91334983793736
  0
ARC
  5
227
330
46
100
AcDbEntity
  8
1
  6
Continuous
 62
     4
100
AcDbCircle
 10
-2022.279608714939
 20
2081.500583048554
 30
0.0
 40
4.0
100
AcDbArc
 50
90.0
 51
180.0
  0
ARC
  5
228
330
46
100
AcDbEntity
  8
1
  6
Continuous
 62
     4
100
AcDbCircle
 10
-2022.279608714939
 20
2081.500583048554
 30
0.0
 40
4.000000000001137
100
AcDbArc
 50
0.0
 51
90.0
  0
ARC
  5
229
330
46
100
AcDbEntity
  8
1
  6
Continuous
 62
     2
100
AcDbCircle
 10
-1957.279608714938
 20
2146.500583048554
 30
0.0
 40
7.000000000001137
100
AcDbArc
 50
180.0
 51
86.91334983794667
  0
ARC
  5
22A
330
46
100
AcDbEntity
  8
1
  6
Continuous
 62
     2
100
AcDbCircle
 10
-1911.317667937812
 20
2127.462523825679
 30
0.0
 40
7.000000000000861
100
AcDbArc
 50
224.9999999999816
 51
138.0866501620725
  0
ARC
  5
22B
330
46
100
AcDbEntity
  8
1
  6
Continuous
 62
     2
100
AcDbCircle
 10
-2003.241549492064
 20
2127.46252382568
 30
0.0
 40
7.000000000000313
100
AcDbArc
 50
228.0866501620669
 51
135.000000000004
  0
ARC
  5
22C
330
46
100
AcDbEntity
  8
1
  6
Continuous
 62
     4
100
AcDbCircle
 10
-1888.279608714938
 20
2067.500583048554
 30
0.0
 40
4.5
100
AcDbArc
 50
180.0
 51
0.0
  0
ARC
  5
22D
330
46
100
AcDbEntity
  8
1
  6
Continuous
 62
     4
100
AcDbCircle
 10
-2026.279608714939
 20
2067.500583048554
 30
0.0
 40
4.5
100
AcDbArc
 50
180.0
 51
0.0
  0
ARC
  5
22E
330
46
100
AcDbEntity
  8
1
  6
Continuous
 62
     4
100
AcDbCircle
 10
-2026.279608714938
 20
1961.500583048554
 30
0.0
 40
4.499999999998863
100
AcDbArc
 50
0.0
 51
180.0
  0
ARC
  5
22F
330
46
100
AcDbEntity
  8
1
  6
Continuous
 62
     4
100
AcDbCircle
 10
-1888.279608714938
 20
1961.500583048554
 30
0.0
 40
4.5
100
AcDbArc
 50
0.0
 51
180.0
  0
CIRCLE
  5
230
330
46
100
AcDbEntity
  8
1
  6
Continuous
 62
     4
100
AcDbCircle
 10
-1911.317667937812
 20
2127.462523825679
 30
0.0
 40
3.999999999998585
  0
CIRCLE
  5
231
330
46
100
AcDbEntity
  8
1
  6
Continuous
 62
     4
100
AcDbCircle
 10
-1957.279608714938
 20
2146.500583048554
 30
0.0
 40
3.999999999998863
  0
CIRCLE
  5
232
330
46
100
AcDbEntity
  8
1
  6
Continuous
 62
     4
100
AcDbCircle
 10
-2003.241549492064
 20
2127.46252382568
 30
0.0
 40
3.999999999999872
  0
CIRCLE
  5
233
330
46
100
AcDbEntity
  8
1
  6
Continuous
 62
     4
100
AcDbCircle
 10
-2003.241549492064
 20
2335.024901426131
 30
0.0
 40
4.75
  0
CIRCLE
  5
234
330
46
100
AcDbEntity
  8
1
  6
Continuous
 62
     4
100
AcDbCircle
 10
-1911.317667937813
 20
2335.024901426131
 30
0.0
 40
4.75
  0
CIRCLE
  5
235
330
46
100
AcDbEntity
  8
1
  6
Continuous
 62
     4
100
AcDbCircle
 10
-1911.317667937812
 20
2426.948782980382
 30
0.0
 40
4.749999999999091
  0
CIRCLE
  5
236
330
46
100
AcDbEntity
  8
1
  6
Continuous
 62
     4
100
AcDbCircle
 10
-2003.241549492065
 20
2426.948782980382
 30
0.0
 40
4.75
  0
CIRCLE
  5
237
330
46
100
AcDbEntity
  8
1
  6
DASH_CENTER
 62
     2
100
AcDbCircle
 10
-1957.279608714938
 20
2380.986842203257
 30
0.0
 40
65.00000000000114
  0
CIRCLE
  5
238
330
46
100
AcDbEntity
  8
1
  6
Continuous
 62
     4
100
AcDbCircle
 10
-1957.279608714938
 20
2380.986842203257
 30
0.0
 40
80.00000000000114
  0
CIRCLE
  5
239
330
46
100
AcDbEntity
  8
1
  6
Continuous
 62
     4
100
AcDbCircle
 10
-1957.279608714938
 20
2380.986842203257
 30
0.0
 40
55.00000000000114
  0
CIRCLE
  5
23A
330
46
100
AcDbEntity
  8
1
  6
Continuous
 62
     4
100
AcDbCircle
 10
-1957.279608714938
 20
2380.986842203257
 30
0.0
 40
27.5
  0
CIRCLE
  5
23B
330
46
100
AcDbEntity
  8
1
  6
Continuous
 62
     4
100
AcDbCircle
 10
-1957.279608714938
 20
2380.986842203257
 30
0.0
 40
20.00000000000029
  0
ARC
  5
23C
330
46
100
AcDbEntity
  8
1
  6
Continuous
 62
     4
100
AcDbCircle
 10
-1957.279608714938
 20
1849.000583048553
 30
0.0
 40
6.0
100
AcDbArc
 50
180.0
 51
270.0
  0
ARC
  5
23D
330
46
100
AcDbEntity
  8
1
  6
Continuous
 62
     4
100
AcDbCircle
 10
-1957.279608714938
 20
1877.000583048554
 30
0.0
 40
5.999999999998863
100
AcDbArc
 50
0.0
 51
90.0
  0
ARC
  5
23E
330
46
100
AcDbEntity
  8
1
  6
Continuous
 62
     4
100
AcDbCircle
 10
-1820.779608714939
 20
2386.711725204862
 30
0.0
 40
5.0
100
AcDbArc
 50
0.00000000001042
 51
79.9999999999952
  0
ARC
  5
23F
330
46
100
AcDbEntity
  8
1
  6
Continuous
 62
     4
100
AcDbCircle
 10
-1817.779608714939
 20
2486.982659097026
 30
0.0
 40
2.000000000000233
100
AcDbArc
 50
273.7063617405617
 51
0.0
  0
ARC
  5
240
330
46
100
AcDbEntity
  8
1
  6
Continuous
 62
     4
100
AcDbCircle
 10
-1820.779608714939
 20
1957.225466050159
 30
0.0
 40
5.0
100
AcDbArc
 50
0.0
 51
79.9999999999952
  0
ARC
  5
241
330
46
100
AcDbEntity
  8
1
  6
Continuous
 62
     4
100
AcDbCircle
 10
-1852.279608714939
 20
2014.500583048554
 30
0.0
 40
5.0
100
AcDbArc
 50
180.0
 51
270.0
  0
ARC
  5
242
330
46
100
AcDbEntity
  8
1
  6
Continuous
 62
     4
100
AcDbCircle
 10
-1827.279608714939
 20
2014.500583048554
 30
0.0
 40
5.0
100
AcDbArc
 50
270.0
 51
0.0
  0
ARC
  5
243
330
46
100
AcDbEntity
  8
1
  6
Continuous
 62
     4
100
AcDbCircle
 10
-1827.279608714939
 20
2014.500583048554
 30
0.0
 40
5.0
100
AcDbArc
 50
0.0
 51
90.0
  0
ARC
  5
244
330
46
100
AcDbEntity
  8
1
  6
Continuous
 62
     4
100
AcDbCircle
 10
-1852.279608714939
 20
2014.500583048554
 30
0.0
 40
5.0
100
AcDbArc
 50
90.0
 51
180.0
  0
ARC
  5
245
330
46
100
AcDbEntity
  8
1
  6
Continuous
 62
     4
100
AcDbCircle
 10
-1817.779608714939
 20
2057.496399942323
 30
0.0
 40
2.000000000000233
100
AcDbArc
 50
273.7063617405617
 51
0.0
  0
ARC
  5
246
330
46
100
AcDbEntity
  8
1
  6
Continuous
 62
     4
100
AcDbCircle
 10
-1902.279608714938
 20
1934.500583048554
 30
0.0
 40
2.0
100
AcDbArc
 50
180.0
 51
270.0
  0
ARC
  5
247
330
46
100
AcDbEntity
  8
1
  6
Continuous
 62
     4
100
AcDbCircle
 10
-2012.279608714939
 20
1934.500583048554
 30
0.0
 40
2.0
100
AcDbArc
 50
270.0
 51
0.0
  0
ARC
  5
248
330
46
100
AcDbEntity
  8
1
  6
Continuous
 62
     4
100
AcDbCircle
 10
-1957.279608714938
 20
1877.000583048554
 30
0.0
 40
6.0
100
AcDbArc
 50
90.0
 51
180.0
  0
ARC
  5
249
330
46
100
AcDbEntity
  8
1
  6
Continuous
 62
     4
100
AcDbCircle
 10
-1957.279608714938
 20
1849.000583048553
 30
0.0
 40
5.999999999998863
100
AcDbArc
 50
270.0
 51
0.0
  0
ARC
  5
24A
330
46
100
AcDbEntity
  8
1
  6
DASH_CENTER
 62
     2
100
AcDbCircle
 10
-1957.279608714938
 20
2147.500583048553
 30
0.0
 40
5.999999999998863
100
AcDbArc
 50
0.0
 51
180.0
  0
ARC
  5
24B
330
46
100
AcDbEntity
  8
1
  6
DASH_CENTER
 62
     2
100
AcDbCircle
 10
-1957.279608714938
 20
2119.500583048553
 30
0.0
 40
6.0
100
AcDbArc
 50
180.0
 51
0.0
  0
ARC
  5
24C
330
46
100
AcDbEntity
  8
1
  6
Continuous
 62
     4
100
AcDbCircle
 10
-2004.279608714938
 20
2485.986842203257
 30
0.0
 40
2.0
100
AcDbArc
 50
269.9999999999674
 51
0.0
  0
ARC
  5
24D
330
46
100
AcDbEntity
  8
1
  6
Continuous
 62
     4
100
AcDbCircle
 10
-2035.279608714938
 20
2478.986842203257
 30
0.0
 40
5.0
100
AcDbArc
 50
90.00000000001303
 51
180.0
  0
ARC
  5
24E
330
46
100
AcDbEntity
  8
1
  6
Continuous
 62
     4
100
AcDbCircle
 10
-2042.279608714938
 20
2447.986842203257
 30
0.0
 40
2.0
100
AcDbArc
 50
269.9999999999674
 51
0.0
  0
ARC
  5
24F
330
46
100
AcDbEntity
  8
1
  6
Continuous
 62
     4
100
AcDbCircle
 10
-1910.279608714938
 20
2485.986842203257
 30
0.0
 40
2.0
100
AcDbArc
 50
180.0
 51
270.0
  0
ARC
  5
250
330
46
100
AcDbEntity
  8
1
  6
Continuous
 62
     4
100
AcDbCircle
 10
-1879.279608714938
 20
2478.986842203257
 30
0.0
 40
5.0
100
AcDbArc
 50
0.0
 51
90.0
  0
ARC
  5
251
330
46
100
AcDbEntity
  8
1
  6
Continuous
 62
     4
100
AcDbCircle
 10
-1872.279608714938
 20
2447.986842203257
 30
0.0
 40
2.0
100
AcDbArc
 50
180.0
 51
270.0
  0
ARC
  5
252
330
46
100
AcDbEntity
  8
1
  6
Continuous
 62
     4
100
AcDbCircle
 10
-2035.279608714938
 20
2322.986842203255
 30
0.0
 40
5.000000000001137
100
AcDbArc
 50
180.0
 51
269.999999999987
  0
ARC
  5
253
330
46
100
AcDbEntity
  8
1
  6
Continuous
 62
     4
100
AcDbCircle
 10
-2042.279608714938
 20
2353.986842203255
 30
0.0
 40
1.999999999998863
100
AcDbArc
 50
0.0
 51
90.00000000003257
  0
ARC
  5
254
330
46
100
AcDbEntity
  8
1
  6
Continuous
 62
     4
100
AcDbCircle
 10
-1879.279608714938
 20
2322.986842203255
 30
0.0
 40
5.0
100
AcDbArc
 50
270.0
 51
0.0
  0
ARC
  5
255
330
46
100
AcDbEntity
  8
1
  6
Continuous
 62
     4
100
AcDbCircle
 10
-1872.279608714938
 20
2353.986842203255
 30
0.0
 40
2.0
100
AcDbArc
 50
90.0
 51
180.0
  0
ARC
  5
256
330
46
100
AcDbEntity
  8
1
  6
Continuous
 62
     4
100
AcDbCircle
 10
-1813.77960871494
 20
2072.500583048553
 30
0.0
 40
2.0
100
AcDbArc
 50
90.0
 51
180.0
  0
ARC
  5
257
330
46
100
AcDbEntity
  8
1
  6
Continuous
 62
     4
100
AcDbCircle
 10
-1813.77960871494
 20
1936.500583048554
 30
0.0
 40
2.0
100
AcDbArc
 50
180.0
 51
270.0
  0
ARC
  5
258
330
46
100
AcDbEntity
  8
1
  6
Continuous
 62
     4
100
AcDbCircle
 10
-1813.77960871494
 20
2365.986842203257
 30
0.0
 40
2.0
100
AcDbArc
 50
180.0
 51
270.0
  0
ARC
  5
259
330
46
100
AcDbEntity
  8
1
  6
Continuous
 62
     4
100
AcDbCircle
 10
-1813.77960871494
 20
2501.986842203257
 30
0.0
 40
2.0
100
AcDbArc
 50
90.0
 51
180.0
  0
SOLID
  5
25A
330
46
100
AcDbEntity
  8
1
 62
     2
100
AcDbTrace
 10
-1951.780279560004
 20
2159.026715374866
 30
0.0
 11
-1951.313853500423
 21
2157.517308382578
 31
0.0
 12
-1957.279608714938
 22
2156.500583048553
 32
0.0
 13
-1957.279608714938
 23
2156.500583048553
 33
0.0
  0
LEADER
  5
25B
330
46
100
AcDbEntity
  8
1
  6
Continuous
 62
     2
100
AcDbLeader
  3
Standard
 71
     0
 76
     2
 10
-1957.279608714938
 20
2156.500583048553
 30
0.0
 10
-1863.363660271044
 20
2185.52181190747
 30
0.0
  0
SOLID
  5
25C
330
46
100
AcDbEntity
  8
1
 62
     2
100
AcDbTrace
 10
-1898.440229307821
 20
2132.090203147445
 30
0.0
 11
-1897.408340690851
 21
2130.406459874439
 31
0.0
 12
-1904.318934944689
 22
2127.329345407829
 32
0.0
 13
-1904.318934944689
 23
2127.329345407829
 33
0.0
  0
LEADER
  5
25D
330
46
100
AcDbEntity
  8
1
  6
Continuous
 62
     2
100
AcDbLeader
  3
Standard
 71
     0
 76
     2
 10
-1904.318934944689
 20
2127.329345407829
 30
0.0
 10
-1863.306786872104
 20
2152.46379994854
 30
0.0
  0
TEXT
  5
25E
330
46
100
AcDbEntity
  8
1
 62
     2
100
AcDbText
 10
-1859.611085997828
 20
2191.523910786982
 30
0.0
 40
7.49999999999999
  1
Zentrumgewinde
 41
0.9
  7
CONVERTER_11
100
AcDbText
  0
MTEXT
  5
25F
330
46
100
AcDbEntity
  8
1
 62
     2
100
AcDbMText
 10
-1858.429608714939
 20
2419.540915677916
 30
0.0
 40
6.0
 41
0.0
 71
     4
 72
     1
  1
Flansch\P  B5
  7
CONVERTER_11
 73
     1
 44
1.32052821128451
  0
MTEXT
  5
260
330
46
100
AcDbEntity
  8
1
 62
     2
100
AcDbMText
 10
-1858.429608714939
 20
2464.486842203257
 30
0.0
 40
6.0
 41
0.0
 71
     4
 72
     1
  1
Flansch\P  B14
  7
CONVERTER_11
 73
     1
 44
1.32052821128451
  0
LWPOLYLINE
  5
261
330
46
100
AcDbEntity
  8
1
 62
     2
100
AcDbPolyline
 90
        4
 70
     1
 43
0.0
 10
-1863.305564885327
 20
2167.464586185488
 10
-1863.305564885327
 20
2152.464586185488
 10
-1775.555564885327
 20
2152.464586185488
 10
-1775.555564885327
 20
2167.464586185488
  0
TEXT
  5
262
330
46
100
AcDbEntity
  8
1
 62
     2
100
AcDbText
 10
-1859.555564885327
 20
2156.214586185488
 30
0.0
 40
7.49999999999999
  1
Gewinde M5x15
 41
0.9
  7
CONVERTER_11
100
AcDbText
  0
DIMENSION
  5
26F
330
46
100
AcDbEntity
  8
1
100
AcDbDimension
  2
*D3
 10
-1856.279608714938
 20
1920.500583048554
 30
0.0
 11
-1863.404608714938
 21
1933.45126163372
 31
0.0
 70
    32
  1
3,5
 71
     5
 42
-1.0
 53
90.0
  3
ME10_DIM_10
100
AcDbAlignedDimension
 13
-1902.279608714938
 23
1915.000583048554
 33
0.0
 14
-1877.279608714938
 24
1920.500583048554
 34
0.0
 50
90.0
100
AcDbRotatedDimension
  0
DIMENSION
  5
27A
330
46
100
AcDbEntity
  8
1
100
AcDbDimension
  2
*D4
 10
-1883.779608714938
 20
2198.500583048553
 30
0.0
 11
-1959.35439131632
 21
2205.250583048553
 31
0.0
 70
    32
  1
<>
 71
     5
 42
-1.0
 53
0.00013888888889
  3
ME10_DIM_11
100
AcDbAlignedDimension
 13
-2030.779608714938
 23
2081.500583048554
 33
0.0
 14
-1883.779608714938
 24
2081.500583048554
 34
0.0
100
AcDbRotatedDimension
  0
DIMENSION
  5
287
330
46
100
AcDbEntity
  8
1
100
AcDbDimension
  2
*D5
 10
-1963.279608714938
 20
2418.22966387344
 30
0.0
 11
-1973.60795106563
 21
2424.97966387344
 31
0.0
 70
    32
  1
T
 71
     5
 42
-1.0
 53
0.00013888888889
  3
ME10_DIM_12
100
AcDbAlignedDimension
 13
-1951.279608714939
 23
2404.286842203257
 33
0.0
 14
-1963.279608714938
 24
2404.286842203257
 34
0.0
100
AcDbRotatedDimension
  0
DIMENSION
  5
294
330
46
100
AcDbEntity
  8
1
100
AcDbDimension
  2
*D6
 10
-1981.279608714939
 20
2495.986842203256
 30
0.0
 11
-1988.029608714939
 21
2509.088100202699
 31
0.0
 70
    32
  1
<>
 71
     5
 42
-1.0
 53
90.0
  3
ME10_DIM_13
100
AcDbAlignedDimension
 13
-2004.279608714939
 23
2483.986842203257
 33
0.0
 14
-2002.279608714939
 24
2495.986842203256
 34
0.0
 50
90.0
100
AcDbRotatedDimension
  0
DIMENSION
  5
2A1
330
46
100
AcDbEntity
  8
1
100
AcDbDimension
  2
*D7
 10
-2040.27960871494
 20
2424.986842203257
 30
0.0
 11
-2065.266193631798
 21
2431.736842203257
 31
0.0
 70
    32
  1
<>
 71
     5
 42
-1.0
 53
0.00013888888889
  3
ME10_DIM_14
100
AcDbAlignedDimension
 13
-2052.279608714939
 23
2445.986842203255
 33
0.0
 14
-2040.279608714939
 24
2447.986842203257
 34
0.0
100
AcDbRotatedDimension
  0
DIMENSION
  5
2AE
330
46
100
AcDbEntity
  8
1
100
AcDbDimension
  2
*D8
 10
-2052.279608714939
 20
2524.986842203257
 30
0.0
 11
-2026.692485428298
 21
2531.736842203257
 31
0.0
 70
    32
  1
<>
 71
     5
 42
-1.0
 53
0.00013888888889
  3
ME10_DIM_15
100
AcDbAlignedDimension
 13
-2049.279608714939
 23
2495.986842203256
 33
0.0
 14
-2052.279608714939
 24
2492.986842203257
 34
0.0
100
AcDbRotatedDimension
  0
DIMENSION
  5
2BA
330
46
100
AcDbEntity
  8
1
100
AcDbDimension
  2
*D9
 10
-2115.279608714939
 20
2076.500583048554
 30
0.0
 11
-2122.029608714939
 21
2014.750108638381
 31
0.0
 70
    32
  1
<>
 71
     5
 42
-1.0
 53
90.0
  3
ME10_DIM_16
100
AcDbAlignedDimension
 13
-2049.279608714939
 23
1952.500583048554
 33
0.0
 14
-2049.279608714939
 24
2076.500583048554
 34
0.0
 50
90.0
100
AcDbRotatedDimension
  0
DIMENSION
  5
2C7
330
46
100
AcDbEntity
  8
1
100
AcDbDimension
  2
*D10
 10
-2136.279608714939
 20
2014.500583048554
 30
0.0
 11
-2143.029608714939
 21
1971.210529781491
 31
0.0
 70
    32
  1
94
 71
     5
 42
-1.0
 53
90.0
  3
ME10_DIM_17
100
AcDbAlignedDimension
 13
-2037.279608714938
 23
1920.500583048554
 33
0.0
 14
-2062.327277846773
 24
2014.500583048554
 34
0.0
 50
90.0
100
AcDbRotatedDimension
  0
DIMENSION
  5
2D5
330
46
100
AcDbEntity
  8
1
100
AcDbDimension
  2
*D11
 10
-2136.279608714938
 20
2081.500583048554
 30
0.0
 11
-2143.029608714938
 21
2054.745768286001
 31
0.0
 70
    32
  1
65
 71
     5
 42
-1.0
 53
90.0
  3
ME10_DIM_18
100
AcDbAlignedDimension
 13
-2062.327277846773
 23
2014.500583048554
 33
0.0
 14
-2030.779608714938
 24
2081.500583048554
 34
0.0
 50
90.0
100
AcDbRotatedDimension
  0
DIMENSION
  5
2E2
330
46
100
AcDbEntity
  8
1
100
AcDbDimension
  2
*D12
 10
-2073.279608714939
 20
1929.500583048554
 30
0.0
 11
-2080.029608714939
 21
1905.5113904299
 31
0.0
 70
    32
  1
<>
 71
     5
 42
-1.0
 53
90.0
  3
ME10_DIM_19
100
AcDbAlignedDimension
 13
-2037.279608714938
 23
1920.500583048554
 33
0.0
 14
-2037.279608714939
 24
1929.500583048554
 34
0.0
 50
90.0
100
AcDbRotatedDimension
  0
DIMENSION
  5
2ED
330
46
100
AcDbEntity
  8
1
100
AcDbDimension
  2
*D13
 10
-2073.279608714939
 20
1957.500583048554
 30
0.0
 11
-2080.029608714939
 21
1943.613993255541
 31
0.0
 70
    32
  1
<>
 71
     5
 42
-1.0
 53
90.0
  3
ME10_DIM_20
100
AcDbAlignedDimension
 13
-2037.279608714939
 23
1929.500583048554
 33
0.0
 14
-2002.279608714939
 24
1957.500583048554
 34
0.0
 50
90.0
100
AcDbRotatedDimension
  0
DIMENSION
  5
2FC
330
46
100
AcDbEntity
  8
1
100
AcDbDimension
  2
*D14
 10
-2178.279608714939
 20
2086.500583048553
 30
0.0
 11
-2185.404608714939
 21
2008.674818565331
 31
0.0
 70
    32
  1
166,5
 71
     5
 42
-1.0
 53
90.0
  3
ME10_DIM_21
100
AcDbAlignedDimension
 13
-1984.779608714938
 23
1910.000583048554
 33
0.0
 14
-1984.779608714938
 24
2086.500583048553
 34
0.0
 50
90.0
100
AcDbRotatedDimension
  0
DIMENSION
  5
307
330
46
100
AcDbEntity
  8
1
100
AcDbDimension
  2
*D15
 10
-1862.279608714938
 20
2545.986842203257
 30
0.0
 11
-1826.382788616977
 21
2552.736842203257
 31
0.0
 70
    32
  1
A
 71
     5
 42
-1.0
 53
0.00013888888889
  3
ME10_DIM_22
100
AcDbAlignedDimension
 13
-1792.77960871494
 23
2503.986842203257
 33
0.0
 14
-1862.279608714938
 24
2492.986842203257
 34
0.0
100
AcDbRotatedDimension
  0
DIMENSION
  5
317
330
46
100
AcDbEntity
  8
1
100
AcDbDimension
  2
*D16
 10
-1803.779608714939
 20
2524.986842203257
 30
0.0
 11
-1825.549555866216
 21
2531.736842203257
 31
0.0
 70
    32
  1
C
 71
     5
 42
-1.0
 53
0.00013888888889
  3
ME10_DIM_23
100
AcDbAlignedDimension
 13
-1815.77960871494
 23
2501.986842203257
 33
0.0
 14
-1803.77960871494
 24
2503.986842203257
 34
0.0
100
AcDbRotatedDimension
  0
DIMENSION
  5
323
330
46
100
AcDbEntity
  8
1
100
AcDbDimension
  2
*D18
 10
-1792.77960871494
 20
2524.986842203257
 30
0.0
 11
-1781.388220076147
 21
2531.736842203257
 31
0.0
 70
    32
  1
B
 71
     5
 42
-1.0
 53
0.00013888888889
  3
ME10_DIM_24
100
AcDbAlignedDimension
 13
-1803.77960871494
 23
2503.986842203257
 33
0.0
 14
-1792.77960871494
 24
2503.986842203257
 34
0.0
100
AcDbRotatedDimension
  0
DIMENSION
  5
32E
330
46
100
AcDbEntity
  8
1
100
AcDbDimension
  2
*D19
 10
-1877.279608714938
 20
1777.000583048553
 30
0.0
 11
-1957.279608714938
 21
1783.750583048553
 31
0.0
 70
    32
  1
<>
 71
     5
 42
-1.0
 53
0.00013888888889
  3
ME10_DIM_25
100
AcDbAlignedDimension
 13
-2037.279608714938
 23
1920.500583048554
 33
0.0
 14
-1877.279608714938
 24
1920.500583048554
 34
0.0
100
AcDbRotatedDimension
  0
DIMENSION
  5
339
330
46
100
AcDbEntity
  8
1
100
AcDbDimension
  2
*D20
 10
-1902.279608714938
 20
1798.000583048553
 30
0.0
 11
-1957.279608714938
 21
1805.875583048553
 31
0.0
 70
    32
  1
<>
 71
     5
 42
-1.0
 53
0.00013888888889
  3
ME10_DIM_26
100
AcDbAlignedDimension
 13
-2012.279608714938
 23
1915.000583048554
 33
0.0
 14
-1902.279608714938
 24
1915.000583048554
 34
0.0
100
AcDbRotatedDimension
  0
DIMENSION
  5
346
330
46
100
AcDbEntity
  8
1
100
AcDbDimension
  2
*D21
 10
-2073.279608714939
 20
2474.486842203257
 30
0.0
 11
-2080.029608714939
 21
2482.025840698241
 31
0.0
 70
    32
  1
<>
 71
     5
 42
-1.0
 53
90.0
  3
ME10_DIM_27
100
AcDbAlignedDimension
 13
-2052.279608714938
 23
2465.486842203257
 33
0.0
 14
-2052.279608714938
 24
2474.486842203257
 34
0.0
 50
90.0
100
AcDbRotatedDimension
  0
DIMENSION
  5
351
330
46
100
AcDbEntity
  8
1
100
AcDbDimension
  2
*D22
 10
-2136.279608714939
 20
2495.986842203255
 30
0.0
 11
-2143.029608714939
 21
2400.986842203256
 31
0.0
 70
    32
  1
<>
 71
     5
 42
-1.0
 53
90.0
  3
ME10_DIM_28
100
AcDbAlignedDimension
 13
-2049.279608714939
 23
2305.986842203257
 33
0.0
 14
-2049.279608714939
 24
2495.986842203256
 34
0.0
 50
90.0
100
AcDbRotatedDimension
  0
DIMENSION
  5
35E
330
46
100
AcDbEntity
  8
1
100
AcDbDimension
  2
*D23
 10
-2030.779608714938
 20
2284.986842203257
 30
0.0
 11
-2041.066677260007
 21
2291.736842203257
 31
0.0
 70
    32
  1
<>
 71
     5
 42
-1.0
 53
0.00013888888889
  3
ME10_DIM_29
100
AcDbAlignedDimension
 13
-2021.779608714938
 23
2305.986842203255
 33
0.0
 14
-2030.779608714938
 24
2305.986842203255
 34
0.0
100
AcDbRotatedDimension
  0
DIMENSION
  5
369
330
46
100
AcDbEntity
  8
1
100
AcDbDimension
  2
*D24
 10
-1862.279608714938
 20
2221.986842203257
 30
0.0
 11
-1957.279608714939
 21
2228.736842203257
 31
0.0
 70
    32
  1
<>
 71
     5
 42
-1.0
 53
0.00013888888889
  3
ME10_DIM_30
100
AcDbAlignedDimension
 13
-2052.279608714939
 23
2308.986842203255
 33
0.0
 14
-1862.279608714938
 24
2308.986842203255
 34
0.0
100
AcDbRotatedDimension
  0
DIMENSION
  5
374
330
46
100
AcDbEntity
  8
1
100
AcDbDimension
  2
*D25
 10
-1977.279608714938
 20
1819.000583048553
 30
0.0
 11
-1957.279608714939
 21
1826.875583048553
 31
0.0
 70
    32
  1
ø K
 71
     5
 42
-1.0
 53
0.00013888888889
  3
ME10_DIM_31
100
AcDbAlignedDimension
 13
-1937.279608714938
 23
1840.000583048553
 33
0.0
 14
-1977.279608714938
 24
1840.000583048553
 34
0.0
100
AcDbRotatedDimension
  0
DIMENSION
  5
37F
330
46
100
AcDbEntity
  8
1
100
AcDbDimension
  2
*D26
 10
-1977.279608714938
 20
2177.500583048553
 30
0.0
 11
-1957.279608714939
 21
2185.375583048553
 31
0.0
 70
    32
  1
ø K
 71
     5
 42
-1.0
 53
0.00013888888889
  3
ME10_DIM_32
100
AcDbAlignedDimension
 13
-1937.279608714938
 23
2156.500583048553
 33
0.0
 14
-1977.279608714938
 24
2156.500583048553
 34
0.0
100
AcDbRotatedDimension
  0
DIMENSION
  5
38C
330
46
100
AcDbEntity
  8
1
100
AcDbDimension
  2
*D27
 10
-2178.279608714939
 20
1840.000583048553
 30
0.0
 11
-2185.029608714939
 21
1877.043533649131
 31
0.0
 70
    32
  1
M
 71
     5
 42
-1.0
 53
90.0
  3
ME10_DIM_33
100
AcDbAlignedDimension
 13
-1984.779608714938
 23
1910.000583048554
 33
0.0
 14
-1975.779608714938
 24
1840.000583048553
 34
0.0
 50
90.0
100
AcDbRotatedDimension
  0
DIMENSION
  5
399
330
46
100
AcDbEntity
  8
1
100
AcDbDimension
  2
*D28
 10
-2178.279608714939
 20
2156.500583048553
 30
0.0
 11
-2185.029608714939
 21
2124.611604126141
 31
0.0
 70
    32
  1
M
 71
     5
 42
-1.0
 53
90.0
  3
ME10_DIM_34
100
AcDbAlignedDimension
 13
-1984.779608714938
 23
2086.500583048553
 33
0.0
 14
-1975.779608714938
 24
2156.500583048553
 34
0.0
 50
90.0
100
AcDbRotatedDimension
  0
DIMENSION
  5
3A4
330
46
100
AcDbEntity
  8
1
100
AcDbDimension
  2
*D29
 10
-2199.279608714939
 20
2156.500583048553
 30
0.0
 11
-2206.029608714939
 21
1998.043060937481
 31
0.0
 70
    32
  1
P
 71
     5
 42
-1.0
 53
90.0
  3
ME10_DIM_35
100
AcDbAlignedDimension
 13
-1975.779608714938
 23
1840.000583048553
 33
0.0
 14
-1975.779608714938
 24
2156.500583048553
 34
0.0
 50
90.0
100
AcDbRotatedDimension
  0
DIMENSION
  5
3AF
330
46
100
AcDbEntity
  8
1
100
AcDbDimension
  2
*D30
 10
-1856.279608714938
 20
1883.000583048554
 30
0.0
 11
-1863.029608714938
 21
1863.69166624062
 31
0.0
 70
    32
  1
S
 71
     5
 42
-1.0
 53
90.0
  3
ME10_DIM_36
100
AcDbAlignedDimension
 13
-1957.279608714938
 23
1843.000583048554
 33
0.0
 14
-1957.279608714938
 24
1883.000583048554
 34
0.0
 50
90.0
100
AcDbRotatedDimension
  0
DIMENSION
  5
3BC
330
46
100
AcDbEntity
  8
1
100
AcDbDimension
  2
*D31
 10
-1856.279608714938
 20
1843.000583048554
 30
0.0
 11
-1863.029608714938
 21
1830.84056279233
 31
0.0
 70
    32
  1
R
 71
     5
 42
-1.0
 53
90.0
  3
ME10_DIM_37
100
AcDbAlignedDimension
 13
-1937.279608714938
 23
1840.000583048553
 33
0.0
 14
-1957.279608714938
 24
1843.000583048554
 34
0.0
 50
90.0
100
AcDbRotatedDimension
  0
DIMENSION
  5
3C7
330
46
100
AcDbEntity
  8
1
100
AcDbDimension
  2
*D32
 10
-1771.77960871494
 20
2495.986842203257
 30
0.0
 11
-1778.52960871494
 21
2472.054242529582
 31
0.0
 70
    32
  1
<>
 71
     5
 42
-1.0
 53
90.0
  3
ME10_DIM_38
100
AcDbAlignedDimension
 13
-1778.317617242049
 23
2443.986842203257
 33
0.0
 14
-1865.279608714938
 24
2495.986842203257
 34
0.0
 50
90.0
100
AcDbRotatedDimension
  0
DIMENSION
  5
3D2
330
46
100
AcDbEntity
  8
1
100
AcDbDimension
  2
*D33
 10
-1771.77960871494
 20
2380.986842203257
 30
0.0
 11
-1777.568742146317
 21
2340.308350316281
 31
0.0
 70
    32
  1
<>
 71
     5
 42
-1.0
 53
90.0
  3
ME10_DIM_39
100
AcDbAlignedDimension
 13
-1865.279608714938
 23
2305.986842203257
 33
0.0
 14
-1851.376964668989
 24
2380.986842203257
 34
0.0
 50
90.0
100
AcDbRotatedDimension
  0
DIMENSION
  5
3DD
330
46
100
AcDbEntity
  8
1
100
AcDbDimension
  2
*D34
 10
-1771.77960871494
 20
2443.986842203257
 30
0.0
 11
-1778.52960871494
 21
2412.486842203257
 31
0.0
 70
    32
  1
<>
 71
     5
 42
-1.0
 53
90.0
  3
ME10_DIM_40
100
AcDbAlignedDimension
 13
-1851.376964668989
 23
2380.986842203257
 33
0.0
 14
-1778.317617242049
 24
2443.986842203257
 34
0.0
 50
90.0
100
AcDbRotatedDimension
  0
DIMENSION
  5
3E8
330
46
100
AcDbEntity
  8
1
100
AcDbDimension
  2
*D35
 10
-2052.27960871494
 20
2545.986842203257
 30
0.0
 11
-2008.282399476147
 21
2552.736842203257
 31
0.0
 70
    32
  1
<>
 71
     5
 42
-1.0
 53
0.00013888888889
  3
ME10_DIM_41
100
AcDbAlignedDimension
 13
-1957.279608714938
 23
2502.218421775685
 33
0.0
 14
-2052.279608714939
 24
2492.986842203257
 34
0.0
100
AcDbRotatedDimension
  0
DIMENSION
  5
3F3
330
46
100
AcDbEntity
  8
1
100
AcDbDimension
  2
*D36
 10
-1957.279608714938
 20
2545.986842203257
 30
0.0
 11
-1910.539296443337
 21
2552.736842203257
 31
0.0
 70
    32
  1
<>
 71
     5
 42
-1.0
 53
0.00013888888889
  3
ME10_DIM_42
100
AcDbAlignedDimension
 13
-1862.279608714938
 23
2492.986842203257
 33
0.0
 14
-1957.279608714938
 24
2502.218421775685
 34
0.0
100
AcDbRotatedDimension
  0
DIMENSION
  5
3FE
330
46
100
AcDbEntity
  8
1
100
AcDbDimension
  2
*D37
 10
-1792.77960871494
 20
2566.986842203257
 30
0.0
 11
-1921.583714865127
 21
2573.736842203257
 31
0.0
 70
    32
  1
L
 71
     5
 42
-1.0
 53
0.00013888888889
  3
ME10_DIM_43
100
AcDbAlignedDimension
 13
-2052.279608714939
 23
2492.986842203257
 33
0.0
 14
-1792.77960871494
 24
2503.986842203257
 34
0.0
100
AcDbRotatedDimension
  0
DIMENSION
  5
409
330
46
100
AcDbEntity
  8
1
100
AcDbDimension
  2
*D38
 10
-2094.279608714939
 20
2495.986842203256
 30
0.0
 11
-2101.029608714939
 21
2483.448812205801
 31
0.0
 70
    32
  1
<>
 71
     5
 42
-1.0
 53
90.0
  3
ME10_DIM_44
100
AcDbAlignedDimension
 13
-2055.75100570738
 23
2469.986842203255
 33
0.0
 14
-2049.279608714939
 24
2495.986842203256
 34
0.0
 50
90.0
100
AcDbRotatedDimension
  0
DIMENSION
  5
414
330
46
100
AcDbEntity
  8
1
100
AcDbDimension
  2
*D39
 10
-2094.279608714939
 20
2331.986842203257
 30
0.0
 11
-2101.029608714939
 21
2319.237900233891
 31
0.0
 70
    32
  1
<>
 71
     5
 42
-1.0
 53
90.0
  3
ME10_DIM_45
100
AcDbAlignedDimension
 13
-2049.279608714939
 23
2305.986842203257
 33
0.0
 14
-2055.75100570738
 24
2331.986842203257
 34
0.0
 50
90.0
100
AcDbRotatedDimension
  0
DIMENSION
  5
41F
330
46
100
AcDbEntity
  8
1
100
AcDbDimension
  2
*D40
 10
-2094.279608714939
 20
2469.986842203255
 30
0.0
 11
-2101.029608714939
 21
2400.986842203257
 31
0.0
 70
    32
  1
<>
 71
     5
 42
-1.0
 53
90.0
  3
ME10_DIM_46
100
AcDbAlignedDimension
 13
-2055.75100570738
 23
2331.986842203257
 33
0.0
 14
-2055.75100570738
 24
2469.986842203255
 34
0.0
 50
90.0
100
AcDbRotatedDimension
  0
DIMENSION
  5
42B
330
46
100
AcDbEntity
  8
1
100
AcDbDimension
  2
*D41
 10
-2115.279608714939
 20
2305.986842203257
 30
0.0
 11
-2122.029608714939
 21
2332.898426706421
 31
0.0
 70
    32
  1
<>
 71
     5
 42
-1.0
 53
90.0
  3
ME10_DIM_47
100
AcDbAlignedDimension
 13
-2052.279608714939
 23
2355.986842203255
 33
0.0
 14
-2049.279608714939
 24
2305.986842203257
 34
0.0
 50
90.0
100
AcDbRotatedDimension
  0
DIMENSION
  5
437
330
46
100
AcDbEntity
  8
1
100
AcDbDimension
  2
*D42
 10
-2115.279608714939
 20
2445.986842203257
 30
0.0
 11
-2122.029608714939
 21
2473.488011652911
 31
0.0
 70
    32
  1
<>
 71
     5
 42
-1.0
 53
90.0
  3
ME10_DIM_48
100
AcDbAlignedDimension
 13
-2049.279608714939
 23
2495.986842203256
 33
0.0
 14
-2052.279608714939
 24
2445.986842203257
 34
0.0
 50
90.0
100
AcDbRotatedDimension
  0
DIMENSION
  5
444
330
46
100
AcDbEntity
  8
1
100
AcDbDimension
  2
*D43
 10
-2115.279608714939
 20
2355.986842203255
 30
0.0
 11
-2122.029608714939
 21
2400.986842203257
 31
0.0
 70
    32
  1
<>
 71
     5
 42
-1.0
 53
90.0
  3
ME10_DIM_49
100
AcDbAlignedDimension
 13
-2052.279608714939
 23
2445.986842203257
 33
0.0
 14
-2052.279608714939
 24
2355.986842203255
 34
0.0
 50
90.0
100
AcDbRotatedDimension
  0
DIMENSION
  5
44F
330
46
100
AcDbEntity
  8
1
100
AcDbDimension
  2
*D44
 10
-2052.279608714939
 20
2263.986842203257
 30
0.0
 11
-2039.733504858797
 21
2270.736842203257
 31
0.0
 70
    32
  1
<>
 71
     5
 42
-1.0
 53
0.00013888888889
  3
ME10_DIM_50
100
AcDbAlignedDimension
 13
-2026.279608714938
 23
2300.184964785505
 33
0.0
 14
-2052.279608714939
 24
2308.986842203255
 34
0.0
100
AcDbRotatedDimension
  0
DIMENSION
  5
45A
330
46
100
AcDbEntity
  8
1
100
AcDbDimension
  2
*D45
 10
-1888.279608714938
 20
2263.986842203257
 30
0.0
 11
-1874.686761589037
 21
2270.736842203257
 31
0.0
 70
    32
  1
<>
 71
     5
 42
-1.0
 53
0.00013888888889
  3
ME10_DIM_51
100
AcDbAlignedDimension
 13
-1862.279608714938
 23
2308.986842203255
 33
0.0
 14
-1888.279608714938
 24
2301.764911648945
 34
0.0
100
AcDbRotatedDimension
  0
DIMENSION
  5
465
330
46
100
AcDbEntity
  8
1
100
AcDbDimension
  2
*D46
 10
-2026.279608714938
 20
2263.986842203257
 30
0.0
 11
-1957.279608714939
 21
2270.736842203257
 31
0.0
 70
    32
  1
<>
 71
     5
 42
-1.0
 53
0.00013888888889
  3
ME10_DIM_52
100
AcDbAlignedDimension
 13
-1888.279608714938
 23
2301.764911648945
 33
0.0
 14
-2026.279608714938
 24
2300.184964785505
 34
0.0
100
AcDbRotatedDimension
  0
DIMENSION
  5
471
330
46
100
AcDbEntity
  8
1
100
AcDbDimension
  2
*D47
 10
-2052.279608714939
 20
2242.986842203257
 30
0.0
 11
-2028.534856688637
 21
2249.736842203257
 31
0.0
 70
    32
  1
<>
 71
     5
 42
-1.0
 53
0.00013888888889
  3
ME10_DIM_53
100
AcDbAlignedDimension
 13
-2002.279608714939
 23
2305.986842203257
 33
0.0
 14
-2052.279608714939
 24
2308.986842203255
 34
0.0
100
AcDbRotatedDimension
  0
DIMENSION
  5
47D
330
46
100
AcDbEntity
  8
1
100
AcDbDimension
  2
*D48
 10
-1912.279608714938
 20
2242.986842203257
 30
0.0
 11
-1886.418678719687
 21
2249.736842203257
 31
0.0
 70
    32
  1
<>
 71
     5
 42
-1.0
 53
0.00013888888889
  3
ME10_DIM_54
100
AcDbAlignedDimension
 13
-1862.279608714938
 23
2308.986842203255
 33
0.0
 14
-1912.279608714938
 24
2305.986842203255
 34
0.0
100
AcDbRotatedDimension
  0
DIMENSION
  5
48A
330
46
100
AcDbEntity
  8
1
100
AcDbDimension
  2
*D49
 10
-2002.279608714939
 20
2242.986842203257
 30
0.0
 11
-1957.279608714939
 21
2249.736842203257
 31
0.0
 70
    32
  1
<>
 71
     5
 42
-1.0
 53
0.00013888888889
  3
ME10_DIM_55
100
AcDbAlignedDimension
 13
-1912.279608714938
 23
2305.986842203255
 33
0.0
 14
-2002.279608714939
 24
2305.986842203257
 34
0.0
100
AcDbRotatedDimension
  0
DIMENSION
  5
498
330
46
100
AcDbEntity
  8
1
100
AcDbDimension
  2
*D50
 10
-2094.279608714939
 20
1952.500583048554
 30
0.0
 11
-2101.029608714939
 21
1944.207958395881
 31
0.0
 70
    32
  1
9
 71
     5
 42
-1.0
 53
90.0
  3
ME10_DIM_56
100
AcDbAlignedDimension
 13
-2035.008502077475
 23
1961.500583048554
 33
0.0
 14
-2051.279608714939
 24
1952.500583048554
 34
0.0
 50
90.0
100
AcDbRotatedDimension
  0
DIMENSION
  5
4A5
330
46
100
AcDbEntity
  8
1
100
AcDbDimension
  2
*D51
 10
-2094.279608714939
 20
2067.500583048554
 30
0.0
 11
-2101.029608714939
 21
2091.511313201161
 31
0.0
 70
    32
  1
9
 71
     5
 42
-1.0
 53
90.0
  3
ME10_DIM_57
100
AcDbAlignedDimension
 13
-2051.279608714939
 23
2076.500583048554
 33
0.0
 14
-2033.985612245844
 24
2067.500583048554
 34
0.0
 50
90.0
100
AcDbRotatedDimension
  0
DIMENSION
  5
4B0
330
46
100
AcDbEntity
  8
1
100
AcDbDimension
  2
*D52
 10
-2094.279608714939
 20
1961.500583048554
 30
0.0
 11
-2101.029608714939
 21
2014.889810096801
 31
0.0
 70
    32
  1
106
 71
     5
 42
-1.0
 53
90.0
  3
ME10_DIM_58
100
AcDbAlignedDimension
 13
-2033.985612245844
 23
2067.500583048554
 33
0.0
 14
-2035.008502077475
 24
1961.500583048554
 34
0.0
 50
90.0
100
AcDbRotatedDimension
  0
DIMENSION
  5
4BC
330
46
100
AcDbEntity
  8
1
100
AcDbDimension
  2
*D53
 10
-2157.279608714939
 20
2156.500583048553
 30
0.0
 11
-2164.029608714939
 21
2118.77968052897
 31
0.0
 70
    32
  1
O
 71
     5
 42
-1.0
 53
90.0
  3
ME10_DIM_59
100
AcDbAlignedDimension
 13
-2030.779608714938
 23
2081.500583048554
 33
0.0
 14
-1975.779608714938
 24
2156.500583048553
 34
0.0
 50
90.0
100
AcDbRotatedDimension
  0
DIMENSION
  5
4C7
330
46
100
AcDbEntity
  8
1
100
AcDbDimension
  2
*D54
 10
-2157.279608714939
 20
1920.500583048554
 30
0.0
 11
-2164.029608714939
 21
1880.250583048553
 31
0.0
 70
    32
  1
N
 71
     5
 42
-1.0
 53
90.0
  3
ME10_DIM_60
100
AcDbAlignedDimension
 13
-1975.779608714938
 23
1840.000583048553
 33
0.0
 14
-2037.279608714938
 24
1920.500583048554
 34
0.0
 50
90.0
100
AcDbRotatedDimension
  0
DIMENSION
  5
4D3
330
46
100
AcDbEntity
  8
1
100
AcDbDimension
  2
*D55
 10
-2157.279608714939
 20
2081.500583048554
 30
0.0
 11
-2164.029608714939
 21
2001.000583048554
 31
0.0
 70
    32
  1
159
 71
     5
 42
-1.0
 53
90.0
  3
ME10_DIM_61
100
AcDbAlignedDimension
 13
-2037.279608714938
 23
1920.500583048554
 33
0.0
 14
-2030.779608714938
 24
2081.500583048554
 34
0.0
 50
90.0
100
AcDbRotatedDimension
  0
INSERT
  5
4DC
330
46
100
AcDbEntity
  8
1
100
AcDbBlockReference
  2
*D56
 10
0.0
 20
0.0
 30
0.0
  0
INSERT
  5
4E4
330
46
100
AcDbEntity
  8
1
100
AcDbBlockReference
  2
*D57
 10
0.0
 20
0.0
 30
0.0
  0
INSERT
  5
4EB
330
46
100
AcDbEntity
  8
1
100
AcDbBlockReference
  2
*D58
 10
0.0
 20
0.0
 30
0.0
  0
INSERT
  5
4F3
330
46
100
AcDbEntity
  8
1
100
AcDbBlockReference
  2
*D59
 10
0.0
 20
0.0
 30
0.0
  0
INSERT
  5
4FB
330
46
100
AcDbEntity
  8
1
100
AcDbBlockReference
  2
*D60
 10
0.0
 20
0.0
 30
0.0
  0
ENDBLK
  5
6B
330
46
100
AcDbEntity
  8
0
100
AcDbBlockEnd
  0
BLOCK
  5
26C
330
263
100
AcDbEntity
  8
0
100
AcDbBlockBegin
  2
*D3
 70
     1
 10
0.0
 20
0.0
 30
0.0
  3
*D3
  1

  0
LINE
  5
264
330
263
100
AcDbEntity
  8
1
  6
Continuous
 62
     2
100
AcDbLine
 10
-1856.279608714938
 20
1920.500583048554
 30
0.0
 11
-1856.279608714938
 21
1940.38876163372
 31
0.0
  0
LINE
  5
265
330
263
100
AcDbEntity
  8
1
  6
Continuous
 62
     2
100
AcDbLine
 10
-1856.279608714938
 20
1915.000583048554
 30
0.0
 11
-1856.279608714938
 21
1920.500583048554
 31
0.0
  0
LINE
  5
266
330
263
100
AcDbEntity
  8
1
  6
Continuous
 62
     2
100
AcDbLine
 10
-1856.279608714938
 20
1904.500583048554
 30
0.0
 11
-1856.279608714938
 21
1915.000583048554
 31
0.0
  0
LINE
  5
267
330
263
100
AcDbEntity
  8
1
  6
Continuous
 62
     2
100
AcDbLine
 10
-1877.279608714938
 20
1920.500583048554
 30
0.0
 11
-1853.279608714938
 21
1920.500583048554
 31
0.0
  0
LINE
  5
268
330
263
100
AcDbEntity
  8
1
  6
Continuous
 62
     2
100
AcDbLine
 10
-1902.279608714938
 20
1915.000583048554
 30
0.0
 11
-1853.279608714938
 21
1915.000583048554
 31
0.0
  0
SOLID
  5
269
330
263
100
AcDbEntity
  8
1
 62
     2
100
AcDbTrace
 10
-1856.970784327272
 20
1925.750583048554
 30
0.0
 11
-1855.588433102604
 21
1925.750583048554
 31
0.0
 12
-1856.279608714938
 22
1920.500583048554
 32
0.0
 13
-1856.279608714938
 23
1920.500583048554
 33
0.0
  0
SOLID
  5
26A
330
263
100
AcDbEntity
  8
1
 62
     2
100
AcDbTrace
 10
-1855.588433102604
 20
1909.750583048554
 30
0.0
 11
-1856.970784327272
 21
1909.750583048554
 31
0.0
 12
-1856.279608714938
 22
1915.000583048554
 32
0.0
 13
-1856.279608714938
 23
1915.000583048554
 33
0.0
  0
MTEXT
  5
26B
330
263
100
AcDbEntity
  8
1
 62
     2
100
AcDbMText
 10
-1860.029608714938
 20
1926.51376163372
 30
0.0
 40
7.5
 41
0.0
 71
     7
 72
     1
  1
3,5
  7
CONVERTER_11
 11
0.0
 21
1.0
 31
0.0
 73
     1
 44
0.60024009603842
  0
ENDBLK
  5
26D
330
263
100
AcDbEntity
  8
0
100
AcDbBlockEnd
  0
BLOCK
  5
277
330
270
100
AcDbEntity
  8
0
100
AcDbBlockBegin
  2
*D4
 70
     1
 10
0.0
 20
0.0
 30
0.0
  3
*D4
  1

  0
LINE
  5
271
330
270
100
AcDbEntity
  8
1
  6
Continuous
 62
     2
100
AcDbLine
 10
-2030.779608714938
 20
2198.500583048553
 30
0.0
 11
-1883.779608714938
 21
2198.500583048553
 31
0.0
  0
LINE
  5
272
330
270
100
AcDbEntity
  8
1
  6
Continuous
 62
     2
100
AcDbLine
 10
-1883.779608714938
 20
2081.500583048554
 30
0.0
 11
-1883.779608714938
 21
2201.500583048553
 31
0.0
  0
LINE
  5
273
330
270
100
AcDbEntity
  8
1
  6
Continuous
 62
     2
100
AcDbLine
 10
-2030.779608714938
 20
2081.500583048554
 30
0.0
 11
-2030.779608714938
 21
2201.500583048553
 31
0.0
  0
SOLID
  5
274
330
270
100
AcDbEntity
  8
1
 62
     2
100
AcDbTrace
 10
-1889.029608714938
 20
2197.809407436219
 30
0.0
 11
-1889.029608714938
 21
2199.191758660887
 31
0.0
 12
-1883.779608714938
 22
2198.500583048553
 32
0.0
 13
-1883.779608714938
 23
2198.500583048553
 33
0.0
  0
SOLID
  5
275
330
270
100
AcDbEntity
  8
1
 62
     2
100
AcDbTrace
 10
-2025.529608714938
 20
2199.191758660887
 30
0.0
 11
-2025.529608714938
 21
2197.809407436219
 31
0.0
 12
-2030.779608714938
 22
2198.500583048553
 32
0.0
 13
-2030.779608714938
 23
2198.500583048553
 33
0.0
  0
MTEXT
  5
276
330
270
100
AcDbEntity
  8
1
 62
     2
100
AcDbMText
 10
-1975.404391316284
 20
2201.500553232512
 30
0.0
 40
7.5
 41
0.0
 71
     7
 72
     1
  1
\C2;\U+00f8\C2;147
  7
CONVERTER_11
 11
0.9999999999970619
 21
2.424068405545306E-6
 31
0.0
 73
     1
 44
0.60024009603842
  0
ENDBLK
  5
278
330
270
100
AcDbEntity
  8
0
100
AcDbBlockEnd
  0
BLOCK
  5
284
330
27B
100
AcDbEntity
  8
0
100
AcDbBlockBegin
  2
*D5
 70
     1
 10
0.0
 20
0.0
 30
0.0
  3
*D5
  1

  0
LINE
  5
27C
330
27B
100
AcDbEntity
  8
1
  6
Continuous
 62
     2
100
AcDbLine
 10
-1963.279608714938
 20
2418.22966387344
 30
0.0
 11
-1976.23295106563
 21
2418.22966387344
 31
0.0
  0
LINE
  5
27D
330
27B
100
AcDbEntity
  8
1
  6
Continuous
 62
     2
100
AcDbLine
 10
-1963.279608714938
 20
2418.22966387344
 30
0.0
 11
-1951.279608714939
 21
2418.22966387344
 31
0.0
  0
LINE
  5
27E
330
27B
100
AcDbEntity
  8
1
  6
Continuous
 62
     2
100
AcDbLine
 10
-1940.779608714939
 20
2418.22966387344
 30
0.0
 11
-1951.279608714939
 21
2418.22966387344
 31
0.0
  0
LINE
  5
27F
330
27B
100
AcDbEntity
  8
1
  6
Continuous
 62
     2
100
AcDbLine
 10
-1951.279608714939
 20
2404.286842203257
 30
0.0
 11
-1951.279608714939
 21
2421.22966387344
 31
0.0
  0
LINE
  5
280
330
27B
100
AcDbEntity
  8
1
  6
Continuous
 62
     2
100
AcDbLine
 10
-1963.279608714938
 20
2404.286842203257
 30
0.0
 11
-1963.279608714938
 21
2421.22966387344
 31
0.0
  0
SOLID
  5
281
330
27B
100
AcDbEntity
  8
1
 62
     2
100
AcDbTrace
 10
-1968.529608714938
 20
2417.538488261107
 30
0.0
 11
-1968.529608714938
 21
2418.920839485774
 31
0.0
 12
-1963.279608714938
 22
2418.22966387344
 32
0.0
 13
-1963.279608714938
 23
2418.22966387344
 33
0.0
  0
SOLID
  5
282
330
27B
100
AcDbEntity
  8
1
 62
     2
100
AcDbTrace
 10
-1946.029608714939
 20
2418.920839485774
 30
0.0
 11
-1946.029608714939
 21
2417.538488261107
 31
0.0
 12
-1951.279608714939
 22
2418.22966387344
 32
0.0
 13
-1951.279608714939
 23
2418.22966387344
 33
0.0
  0
MTEXT
  5
283
330
27B
100
AcDbEntity
  8
1
 62
     2
100
AcDbMText
 10
-1976.23295106563
 20
2421.22966387344
 30
0.0
 40
7.5
 41
0.0
 71
     7
 72
     1
  1
T
  7
CONVERTER_11
 11
0.9999999999970619
 21
2.424068405545306E-6
 31
0.0
 73
     1
 44
0.60024009603842
  0
ENDBLK
  5
285
330
27B
100
AcDbEntity
  8
0
100
AcDbBlockEnd
  0
BLOCK
  5
291
330
288
100
AcDbEntity
  8
0
100
AcDbBlockBegin
  2
*D6
 70
     1
 10
0.0
 20
0.0
 30
0.0
  3
*D6
  1

  0
LINE
  5
289
330
288
100
AcDbEntity
  8
1
  6
Continuous
 62
     2
100
AcDbLine
 10
-1981.279608714939
 20
2473.486842203257
 30
0.0
 11
-1981.279608714939
 21
2483.986842203257
 31
0.0
  0
LINE
  5
28A
330
288
100
AcDbEntity
  8
1
  6
Continuous
 62
     2
100
AcDbLine
 10
-1981.279608714939
 20
2483.986842203257
 30
0.0
 11
-1981.279608714939
 21
2495.986842203256
 31
0.0
  0
LINE
  5
28B
330
288
100
AcDbEntity
  8
1
  6
Continuous
 62
     2
100
AcDbLine
 10
-1981.279608714939
 20
2495.986842203256
 30
0.0
 11
-1981.279608714939
 21
2513.588100202699
 31
0.0
  0
LINE
  5
28C
330
288
100
AcDbEntity
  8
1
  6
Continuous
 62
     2
100
AcDbLine
 10
-2004.279608714939
 20
2483.986842203257
 30
0.0
 11
-1978.279608714939
 21
2483.986842203257
 31
0.0
  0
LINE
  5
28D
330
288
100
AcDbEntity
  8
1
  6
Continuous
 62
     2
100
AcDbLine
 10
-2002.279608714939
 20
2495.986842203256
 30
0.0
 11
-1978.279608714939
 21
2495.986842203256
 31
0.0
  0
SOLID
  5
28E
330
288
100
AcDbEntity
  8
1
 62
     2
100
AcDbTrace
 10
-1981.970784327273
 20
2501.236842203256
 30
0.0
 11
-1980.588433102605
 21
2501.236842203256
 31
0.0
 12
-1981.279608714939
 22
2495.986842203256
 32
0.0
 13
-1981.279608714939
 23
2495.986842203256
 33
0.0
  0
SOLID
  5
28F
330
288
100
AcDbEntity
  8
1
 62
     2
100
AcDbTrace
 10
-1980.588433102605
 20
2478.736842203257
 30
0.0
 11
-1981.970784327273
 21
2478.736842203257
 31
0.0
 12
-1981.279608714939
 22
2483.986842203257
 32
0.0
 13
-1981.279608714939
 23
2483.986842203257
 33
0.0
  0
MTEXT
  5
290
330
288
100
AcDbEntity
  8
1
 62
     2
100
AcDbMText
 10
-1984.279608714939
 20
2504.588100202699
 30
0.0
 40
7.5
 41
0.0
 71
     7
 72
     1
  1
12
  7
CONVERTER_11
 11
0.0
 21
1.0
 31
0.0
 73
     1
 44
0.60024009603842
  0
ENDBLK
  5
292
330
288
100
AcDbEntity
  8
0
100
AcDbBlockEnd
  0
BLOCK
  5
29E
330
295
100
AcDbEntity
  8
0
100
AcDbBlockBegin
  2
*D7
 70
     1
 10
0.0
 20
0.0
 30
0.0
  3
*D7
  1

  0
LINE
  5
296
330
295
100
AcDbEntity
  8
1
  6
Continuous
 62
     2
100
AcDbLine
 10
-2029.77960871494
 20
2424.986842203257
 30
0.0
 11
-2040.27960871494
 21
2424.986842203257
 31
0.0
  0
LINE
  5
297
330
295
100
AcDbEntity
  8
1
  6
Continuous
 62
     2
100
AcDbLine
 10
-2052.279608714939
 20
2424.986842203257
 30
0.0
 11
-2040.27960871494
 21
2424.986842203257
 31
0.0
  0
LINE
  5
298
330
295
100
AcDbEntity
  8
1
  6
Continuous
 62
     2
100
AcDbLine
 10
-2052.279608714939
 20
2424.986842203257
 30
0.0
 11
-2069.766193631798
 21
2424.986842203257
 31
0.0
  0
LINE
  5
299
330
295
100
AcDbEntity
  8
1
  6
Continuous
 62
     2
100
AcDbLine
 10
-2052.279608714939
 20
2445.986842203255
 30
0.0
 11
-2052.279608714939
 21
2421.986842203257
 31
0.0
  0
LINE
  5
29A
330
295
100
AcDbEntity
  8
1
  6
Continuous
 62
     2
100
AcDbLine
 10
-2040.27960871494
 20
2447.986842203257
 30
0.0
 11
-2040.27960871494
 21
2421.986842203257
 31
0.0
  0
SOLID
  5
29B
330
295
100
AcDbEntity
  8
1
 62
     2
100
AcDbTrace
 10
-2035.02960871494
 20
2425.67801781559
 30
0.0
 11
-2035.02960871494
 21
2424.295666590923
 31
0.0
 12
-2040.27960871494
 22
2424.986842203257
 32
0.0
 13
-2040.27960871494
 23
2424.986842203257
 33
0.0
  0
SOLID
  5
29C
330
295
100
AcDbEntity
  8
1
 62
     2
100
AcDbTrace
 10
-2057.529608714939
 20
2424.295666590923
 30
0.0
 11
-2057.529608714939
 21
2425.67801781559
 31
0.0
 12
-2052.279608714939
 22
2424.986842203257
 32
0.0
 13
-2052.279608714939
 23
2424.986842203257
 33
0.0
  0
MTEXT
  5
29D
330
295
100
AcDbEntity
  8
1
 62
     2
100
AcDbMText
 10
-2069.766193631798
 20
2427.986842203257
 30
0.0
 40
7.5
 41
0.0
 71
     7
 72
     1
  1
12
  7
CONVERTER_11
 11
0.9999999999970619
 21
2.424068405545306E-6
 31
0.0
 73
     1
 44
0.60024009603842
  0
ENDBLK
  5
29F
330
295
100
AcDbEntity
  8
0
100
AcDbBlockEnd
  0
BLOCK
  5
2AB
330
2A2
100
AcDbEntity
  8
0
100
AcDbBlockBegin
  2
*D8
 70
     1
 10
0.0
 20
0.0
 30
0.0
  3
*D8
  1

  0
LINE
  5
2A3
330
2A2
100
AcDbEntity
  8
1
  6
Continuous
 62
     2
100
AcDbLine
 10
-2062.779608714939
 20
2524.986842203257
 30
0.0
 11
-2052.279608714939
 21
2524.986842203257
 31
0.0
  0
LINE
  5
2A4
330
2A2
100
AcDbEntity
  8
1
  6
Continuous
 62
     2
100
AcDbLine
 10
-2052.279608714939
 20
2524.986842203257
 30
0.0
 11
-2049.279608714939
 21
2524.986842203257
 31
0.0
  0
LINE
  5
2A5
330
2A2
100
AcDbEntity
  8
1
  6
Continuous
 62
     2
100
AcDbLine
 10
-2049.279608714939
 20
2524.986842203257
 30
0.0
 11
-2010.942485428298
 21
2524.986842203257
 31
0.0
  0
LINE
  5
2A6
330
2A2
100
AcDbEntity
  8
1
  6
Continuous
 62
     2
100
AcDbLine
 10
-2052.279608714939
 20
2492.986842203257
 30
0.0
 11
-2052.279608714939
 21
2527.986842203257
 31
0.0
  0
LINE
  5
2A7
330
2A2
100
AcDbEntity
  8
1
  6
Continuous
 62
     2
100
AcDbLine
 10
-2049.279608714939
 20
2495.986842203256
 30
0.0
 11
-2049.279608714939
 21
2527.986842203257
 31
0.0
  0
SOLID
  5
2A8
330
2A2
100
AcDbEntity
  8
1
 62
     2
100
AcDbTrace
 10
-2057.529608714939
 20
2524.295666590923
 30
0.0
 11
-2057.529608714939
 21
2525.67801781559
 31
0.0
 12
-2052.279608714939
 22
2524.986842203257
 32
0.0
 13
-2052.279608714939
 23
2524.986842203257
 33
0.0
  0
SOLID
  5
2A9
330
2A2
100
AcDbEntity
  8
1
 62
     2
100
AcDbTrace
 10
-2044.029608714939
 20
2525.67801781559
 30
0.0
 11
-2044.029608714939
 21
2524.295666590923
 31
0.0
 12
-2049.279608714939
 22
2524.986842203257
 32
0.0
 13
-2049.279608714939
 23
2524.986842203257
 33
0.0
  0
MTEXT
  5
2AA
330
2A2
100
AcDbEntity
  8
1
 62
     2
100
AcDbMText
 10
-2042.442485428298
 20
2527.986842203257
 30
0.0
 40
7.5
 41
0.0
 71
     7
 72
     1
  1
\C2;3\C2;x45%%d
  7
CONVERTER_11
 11
0.9999999999970619
 21
2.424068405545306E-6
 31
0.0
 73
     1
 44
0.60024009603842
  0
ENDBLK
  5
2AC
330
2A2
100
AcDbEntity
  8
0
100
AcDbBlockEnd
  0
BLOCK
  5
2B7
330
2AF
100
AcDbEntity
  8
0
100
AcDbBlockBegin
  2
*D9
 70
     1
 10
0.0
 20
0.0
 30
0.0
  3
*D9
  1

  0
LINE
  5
2B0
330
2AF
100
AcDbEntity
  8
1
  6
Continuous
 62
     2
100
AcDbLine
 10
-2115.279608714939
 20
1952.500583048554
 30
0.0
 11
-2115.279608714939
 21
2076.500583048554
 31
0.0
  0
LINE
  5
2B1
330
2AF
100
AcDbEntity
  8
1
  6
Continuous
 62
     2
100
AcDbLine
 10
-2049.279608714939
 20
1952.500583048554
 30
0.0
 11
-2070.279608714939
 21
1952.500583048554
 31
0.0
  0
LINE
  5
2B2
330
2AF
100
AcDbEntity
  8
1
  6
Continuous
 62
     2
100
AcDbLine
 10
-2076.279608714939
 20
1952.500583048554
 30
0.0
 11
-2118.279608714939
 21
1952.500583048554
 31
0.0
  0
LINE
  5
2B3
330
2AF
100
AcDbEntity
  8
1
  6
Continuous
 62
     2
100
AcDbLine
 10
-2049.279608714939
 20
2076.500583048554
 30
0.0
 11
-2118.279608714939
 21
2076.500583048554
 31
0.0
  0
SOLID
  5
2B4
330
2AF
100
AcDbEntity
  8
1
 62
     2
100
AcDbTrace
 10
-2114.588433102605
 20
2071.250583048554
 30
0.0
 11
-2115.970784327273
 21
2071.250583048554
 31
0.0
 12
-2115.279608714939
 22
2076.500583048554
 32
0.0
 13
-2115.279608714939
 23
2076.500583048554
 33
0.0
  0
SOLID
  5
2B5
330
2AF
100
AcDbEntity
  8
1
 62
     2
100
AcDbTrace
 10
-2115.970784327273
 20
1957.750583048554
 30
0.0
 11
-2114.588433102605
 21
1957.750583048554
 31
0.0
 12
-2115.279608714939
 22
1952.500583048554
 32
0.0
 13
-2115.279608714939
 23
1952.500583048554
 33
0.0
  0
MTEXT
  5
2B6
330
2AF
100
AcDbEntity
  8
1
 62
     2
100
AcDbMText
 10
-2118.279608714939
 20
2006.875108638381
 30
0.0
 40
7.5
 41
0.0
 71
     7
 72
     1
  1
124
  7
CONVERTER_11
 11
0.0
 21
1.0
 31
0.0
 73
     1
 44
0.60024009603842
  0
ENDBLK
  5
2B8
330
2AF
100
AcDbEntity
  8
0
100
AcDbBlockEnd
  0
BLOCK
  5
2C4
330
2BB
100
AcDbEntity
  8
0
100
AcDbBlockBegin
  2
*D10
 70
     1
 10
0.0
 20
0.0
 30
0.0
  3
*D10
  1

  0
LINE
  5
2BC
330
2BB
100
AcDbEntity
  8
1
  6
Continuous
 62
     2
100
AcDbLine
 10
-2136.279608714939
 20
1920.500583048554
 30
0.0
 11
-2136.279608714939
 21
2014.500583048554
 31
0.0
  0
LINE
  5
2BD
330
2BB
100
AcDbEntity
  8
1
  6
Continuous
 62
     2
100
AcDbLine
 10
-2037.279608714939
 20
1920.500583048554
 30
0.0
 11
-2139.279608714939
 21
1920.500583048554
 31
0.0
  0
LINE
  5
2BE
330
2BB
100
AcDbEntity
  8
1
  6
Continuous
 62
     2
100
AcDbLine
 10
-2062.327277846773
 20
2014.500583048554
 30
0.0
 11
-2091.279608714939
 21
2014.500583048554
 31
0.0
  0
LINE
  5
2BF
330
2BB
100
AcDbEntity
  8
1
  6
Continuous
 62
     2
100
AcDbLine
 10
-2107.54601706726
 20
2014.500583048554
 30
0.0
 11
-2112.279608714939
 21
2014.500583048554
 31
0.0
  0
LINE
  5
2C0
330
2BB
100
AcDbEntity
  8
1
  6
Continuous
 62
     2
100
AcDbLine
 10
-2128.96989065821
 20
2014.500583048554
 30
0.0
 11
-2139.279608714939
 21
2014.500583048554
 31
0.0
  0
SOLID
  5
2C1
330
2BB
100
AcDbEntity
  8
1
 62
     2
100
AcDbTrace
 10
-2135.588433102605
 20
2009.250583048554
 30
0.0
 11
-2136.970784327273
 21
2009.250583048554
 31
0.0
 12
-2136.279608714939
 22
2014.500583048554
 32
0.0
 13
-2136.279608714939
 23
2014.500583048554
 33
0.0
  0
SOLID
  5
2C2
330
2BB
100
AcDbEntity
  8
1
 62
     2
100
AcDbTrace
 10
-2136.970784327273
 20
1925.750583048554
 30
0.0
 11
-2135.588433102605
 21
1925.750583048554
 31
0.0
 12
-2136.279608714939
 22
1920.500583048554
 32
0.0
 13
-2136.279608714939
 23
1920.500583048554
 33
0.0
  0
MTEXT
  5
2C3
330
2BB
100
AcDbEntity
  8
1
 62
     2
100
AcDbMText
 10
-2139.279608714939
 20
1965.585529781491
 30
0.0
 40
7.5
 41
0.0
 71
     7
 72
     1
  1
94
  7
CONVERTER_11
 11
0.0
 21
1.0
 31
0.0
 73
     1
 44
0.60024009603842
  0
ENDBLK
  5
2C5
330
2BB
100
AcDbEntity
  8
0
100
AcDbBlockEnd
  0
BLOCK
  5
2D2
330
2C8
100
AcDbEntity
  8
0
100
AcDbBlockBegin
  2
*D11
 70
     1
 10
0.0
 20
0.0
 30
0.0
  3
*D11
  1

  0
LINE
  5
2C9
330
2C8
100
AcDbEntity
  8
1
  6
Continuous
 62
     2
100
AcDbLine
 10
-2136.279608714938
 20
2014.500583048554
 30
0.0
 11
-2136.279608714938
 21
2081.500583048554
 31
0.0
  0
LINE
  5
2CA
330
2C8
100
AcDbEntity
  8
1
  6
Continuous
 62
     2
100
AcDbLine
 10
-2062.327277846773
 20
2014.500583048554
 30
0.0
 11
-2091.279608714939
 21
2014.500583048554
 31
0.0
  0
LINE
  5
2CB
330
2C8
100
AcDbEntity
  8
1
  6
Continuous
 62
     2
100
AcDbLine
 10
-2107.54601706726
 20
2014.500583048554
 30
0.0
 11
-2112.279608714939
 21
2014.500583048554
 31
0.0
  0
LINE
  5
2CC
330
2C8
100
AcDbEntity
  8
1
  6
Continuous
 62
     2
100
AcDbLine
 10
-2129.35245982948
 20
2014.500583048554
 30
0.0
 11
-2139.279608714938
 21
2014.500583048554
 31
0.0
  0
LINE
  5
2CD
330
2C8
100
AcDbEntity
  8
1
  6
Continuous
 62
     2
100
AcDbLine
 10
-2030.779608714938
 20
2081.500583048554
 30
0.0
 11
-2091.279608714939
 21
2081.500583048554
 31
0.0
  0
LINE
  5
2CE
330
2C8
100
AcDbEntity
  8
1
  6
Continuous
 62
     2
100
AcDbLine
 10
-2097.279608714939
 20
2081.500583048554
 30
0.0
 11
-2139.279608714938
 21
2081.500583048554
 31
0.0
  0
SOLID
  5
2CF
330
2C8
100
AcDbEntity
  8
1
 62
     2
100
AcDbTrace
 10
-2135.588433102605
 20
2076.250583048554
 30
0.0
 11
-2136.970784327272
 21
2076.250583048554
 31
0.0
 12
-2136.279608714938
 22
2081.500583048554
 32
0.0
 13
-2136.279608714938
 23
2081.500583048554
 33
0.0
  0
SOLID
  5
2D0
330
2C8
100
AcDbEntity
  8
1
 62
     2
100
AcDbTrace
 10
-2136.970784327272
 20
2019.750583048554
 30
0.0
 11
-2135.588433102605
 21
2019.750583048554
 31
0.0
 12
-2136.279608714938
 22
2014.500583048554
 32
0.0
 13
-2136.279608714938
 23
2014.500583048554
 33
0.0
  0
MTEXT
  5
2D1
330
2C8
100
AcDbEntity
  8
1
 62
     2
100
AcDbMText
 10
-2139.279608714938
 20
2049.120768286001
 30
0.0
 40
7.5
 41
0.0
 71
     7
 72
     1
  1
65
  7
CONVERTER_11
 11
0.0
 21
1.0
 31
0.0
 73
     1
 44
0.60024009603842
  0
ENDBLK
  5
2D3
330
2C8
100
AcDbEntity
  8
0
100
AcDbBlockEnd
  0
BLOCK
  5
2DF
330
2D6
100
AcDbEntity
  8
0
100
AcDbBlockBegin
  2
*D12
 70
     1
 10
0.0
 20
0.0
 30
0.0
  3
*D12
  1

  0
LINE
  5
2D7
330
2D6
100
AcDbEntity
  8
1
  6
Continuous
 62
     2
100
AcDbLine
 10
-2073.279608714939
 20
1920.500583048554
 30
0.0
 11
-2073.279608714939
 21
1903.2613904299
 31
0.0
  0
LINE
  5
2D8
330
2D6
100
AcDbEntity
  8
1
  6
Continuous
 62
     2
100
AcDbLine
 10
-2073.279608714939
 20
1920.500583048554
 30
0.0
 11
-2073.279608714939
 21
1929.500583048554
 31
0.0
  0
LINE
  5
2D9
330
2D6
100
AcDbEntity
  8
1
  6
Continuous
 62
     2
100
AcDbLine
 10
-2073.279608714939
 20
1940.000583048554
 30
0.0
 11
-2073.279608714939
 21
1929.500583048554
 31
0.0
  0
LINE
  5
2DA
330
2D6
100
AcDbEntity
  8
1
  6
Continuous
 62
     2
100
AcDbLine
 10
-2037.279608714939
 20
1929.500583048554
 30
0.0
 11
-2076.279608714939
 21
1929.500583048554
 31
0.0
  0
LINE
  5
2DB
330
2D6
100
AcDbEntity
  8
1
  6
Continuous
 62
     2
100
AcDbLine
 10
-2037.279608714938
 20
1920.500583048554
 30
0.0
 11
-2076.279608714939
 21
1920.500583048554
 31
0.0
  0
SOLID
  5
2DC
330
2D6
100
AcDbEntity
  8
1
 62
     2
100
AcDbTrace
 10
-2073.970784327273
 20
1934.750583048554
 30
0.0
 11
-2072.588433102605
 21
1934.750583048554
 31
0.0
 12
-2073.279608714939
 22
1929.500583048554
 32
0.0
 13
-2073.279608714939
 23
1929.500583048554
 33
0.0
  0
SOLID
  5
2DD
330
2D6
100
AcDbEntity
  8
1
 62
     2
100
AcDbTrace
 10
-2072.588433102605
 20
1915.250583048554
 30
0.0
 11
-2073.970784327273
 21
1915.250583048554
 31
0.0
 12
-2073.279608714939
 22
1920.500583048554
 32
0.0
 13
-2073.279608714939
 23
1920.500583048554
 33
0.0
  0
MTEXT
  5
2DE
330
2D6
100
AcDbEntity
  8
1
 62
     2
100
AcDbMText
 10
-2076.279608714939
 20
1903.2613904299
 30
0.0
 40
7.5
 41
0.0
 71
     7
 72
     1
  1
9
  7
CONVERTER_11
 11
0.0
 21
1.0
 31
0.0
 73
     1
 44
0.60024009603842
  0
ENDBLK
  5
2E0
330
2D6
100
AcDbEntity
  8
0
100
AcDbBlockEnd
  0
BLOCK
  5
2EA
330
2E3
100
AcDbEntity
  8
0
100
AcDbBlockBegin
  2
*D13
 70
     1
 10
0.0
 20
0.0
 30
0.0
  3
*D13
  1

  0
LINE
  5
2E4
330
2E3
100
AcDbEntity
  8
1
  6
Continuous
 62
     2
100
AcDbLine
 10
-2073.279608714939
 20
1929.500583048554
 30
0.0
 11
-2073.279608714939
 21
1957.500583048554
 31
0.0
  0
LINE
  5
2E5
330
2E3
100
AcDbEntity
  8
1
  6
Continuous
 62
     2
100
AcDbLine
 10
-2037.279608714939
 20
1929.500583048554
 30
0.0
 11
-2076.279608714939
 21
1929.500583048554
 31
0.0
  0
LINE
  5
2E6
330
2E3
100
AcDbEntity
  8
1
  6
Continuous
 62
     2
100
AcDbLine
 10
-2002.279608714939
 20
1957.500583048554
 30
0.0
 11
-2076.279608714939
 21
1957.500583048554
 31
0.0
  0
SOLID
  5
2E7
330
2E3
100
AcDbEntity
  8
1
 62
     2
100
AcDbTrace
 10
-2072.588433102605
 20
1952.250583048554
 30
0.0
 11
-2073.970784327273
 21
1952.250583048554
 31
0.0
 12
-2073.279608714939
 22
1957.500583048554
 32
0.0
 13
-2073.279608714939
 23
1957.500583048554
 33
0.0
  0
SOLID
  5
2E8
330
2E3
100
AcDbEntity
  8
1
 62
     2
100
AcDbTrace
 10
-2073.970784327273
 20
1934.750583048554
 30
0.0
 11
-2072.588433102605
 21
1934.750583048554
 31
0.0
 12
-2073.279608714939
 22
1929.500583048554
 32
0.0
 13
-2073.279608714939
 23
1929.500583048554
 33
0.0
  0
MTEXT
  5
2E9
330
2E3
100
AcDbEntity
  8
1
 62
     2
100
AcDbMText
 10
-2076.279608714939
 20
1937.988993255541
 30
0.0
 40
7.5
 41
0.0
 71
     7
 72
     1
  1
28
  7
CONVERTER_11
 11
0.0
 21
1.0
 31
0.0
 73
     1
 44
0.60024009603842
  0
ENDBLK
  5
2EB
330
2E3
100
AcDbEntity
  8
0
100
AcDbBlockEnd
  0
BLOCK
  5
2F9
330
2EE
100
AcDbEntity
  8
0
100
AcDbBlockBegin
  2
*D14
 70
     1
 10
0.0
 20
0.0
 30
0.0
  3
*D14
  1

  0
LINE
  5
2EF
330
2EE
100
AcDbEntity
  8
1
  6
Continuous
 62
     2
100
AcDbLine
 10
-2178.279608714939
 20
1910.000583048554
 30
0.0
 11
-2178.279608714939
 21
2086.500583048553
 31
0.0
  0
LINE
  5
2F0
330
2EE
100
AcDbEntity
  8
1
  6
Continuous
 62
     2
100
AcDbLine
 10
-1984.779608714938
 20
2086.500583048553
 30
0.0
 11
-2091.279608714939
 21
2086.500583048553
 31
0.0
  0
LINE
  5
2F1
330
2EE
100
AcDbEntity
  8
1
  6
Continuous
 62
     2
100
AcDbLine
 10
-2097.279608714939
 20
2086.500583048553
 30
0.0
 11
-2154.279608714939
 21
2086.500583048553
 31
0.0
  0
LINE
  5
2F2
330
2EE
100
AcDbEntity
  8
1
  6
Continuous
 62
     2
100
AcDbLine
 10
-2160.279608714939
 20
2086.500583048553
 30
0.0
 11
-2181.279608714939
 21
2086.500583048553
 31
0.0
  0
LINE
  5
2F3
330
2EE
100
AcDbEntity
  8
1
  6
Continuous
 62
     2
100
AcDbLine
 10
-1984.779608714938
 20
1910.000583048554
 30
0.0
 11
-2070.279608714939
 21
1910.000583048554
 31
0.0
  0
LINE
  5
2F4
330
2EE
100
AcDbEntity
  8
1
  6
Continuous
 62
     2
100
AcDbLine
 10
-2076.279608714939
 20
1910.000583048554
 30
0.0
 11
-2154.279608714939
 21
1910.000583048554
 31
0.0
  0
LINE
  5
2F5
330
2EE
100
AcDbEntity
  8
1
  6
Continuous
 62
     2
100
AcDbLine
 10
-2160.279608714939
 20
1910.000583048554
 30
0.0
 11
-2181.279608714939
 21
1910.000583048554
 31
0.0
  0
SOLID
  5
2F6
330
2EE
100
AcDbEntity
  8
1
 62
     2
100
AcDbTrace
 10
-2177.588433102605
 20
2081.250583048553
 30
0.0
 11
-2178.970784327273
 21
2081.250583048553
 31
0.0
 12
-2178.279608714939
 22
2086.500583048553
 32
0.0
 13
-2178.279608714939
 23
2086.500583048553
 33
0.0
  0
SOLID
  5
2F7
330
2EE
100
AcDbEntity
  8
1
 62
     2
100
AcDbTrace
 10
-2178.970784327273
 20
1915.250583048554
 30
0.0
 11
-2177.588433102605
 21
1915.250583048554
 31
0.0
 12
-2178.279608714939
 22
1910.000583048554
 32
0.0
 13
-2178.279608714939
 23
1910.000583048554
 33
0.0
  0
MTEXT
  5
2F8
330
2EE
100
AcDbEntity
  8
1
 62
     2
100
AcDbMText
 10
-2182.029608714939
 20
1996.112318565331
 30
0.0
 40
7.5
 41
0.0
 71
     7
 72
     1
  1
166,5
  7
CONVERTER_11
 11
0.0
 21
1.0
 31
0.0
 73
     1
 44
0.60024009603842
  0
ENDBLK
  5
2FA
330
2EE
100
AcDbEntity
  8
0
100
AcDbBlockEnd
  0
BLOCK
  5
304
330
2FD
100
AcDbEntity
  8
0
100
AcDbBlockBegin
  2
*D15
 70
     1
 10
0.0
 20
0.0
 30
0.0
  3
*D15
  1

  0
LINE
  5
2FE
330
2FD
100
AcDbEntity
  8
1
  6
Continuous
 62
     2
100
AcDbLine
 10
-1862.279608714938
 20
2545.986842203257
 30
0.0
 11
-1792.77960871494
 21
2545.986842203257
 31
0.0
  0
LINE
  5
2FF
330
2FD
100
AcDbEntity
  8
1
  6
Continuous
 62
     2
100
AcDbLine
 10
-1862.279608714938
 20
2492.986842203257
 30
0.0
 11
-1862.279608714938
 21
2548.986842203257
 31
0.0
  0
LINE
  5
300
330
2FD
100
AcDbEntity
  8
1
  6
Continuous
 62
     2
100
AcDbLine
 10
-1792.77960871494
 20
2503.986842203257
 30
0.0
 11
-1792.77960871494
 21
2548.986842203257
 31
0.0
  0
SOLID
  5
301
330
2FD
100
AcDbEntity
  8
1
 62
     2
100
AcDbTrace
 10
-1857.029608714938
 20
2546.67801781559
 30
0.0
 11
-1857.029608714938
 21
2545.295666590923
 31
0.0
 12
-1862.279608714938
 22
2545.986842203257
 32
0.0
 13
-1862.279608714938
 23
2545.986842203257
 33
0.0
  0
SOLID
  5
302
330
2FD
100
AcDbEntity
  8
1
 62
     2
100
AcDbTrace
 10
-1798.02960871494
 20
2545.295666590923
 30
0.0
 11
-1798.02960871494
 21
2546.67801781559
 31
0.0
 12
-1792.77960871494
 22
2545.986842203257
 32
0.0
 13
-1792.77960871494
 23
2545.986842203257
 33
0.0
  0
MTEXT
  5
303
330
2FD
100
AcDbEntity
  8
1
 62
     2
100
AcDbMText
 10
-1829.382788616977
 20
2548.986842203257
 30
0.0
 40
7.5
 41
0.0
 71
     7
 72
     1
  1
A
  7
CONVERTER_11
 11
0.9999999999970619
 21
2.424068405545306E-6
 31
0.0
 73
     1
 44
0.60024009603842
  0
ENDBLK
  5
305
330
2FD
100
AcDbEntity
  8
0
100
AcDbBlockEnd
  0
BLOCK
  5
310
330
308
100
AcDbEntity
  8
0
100
AcDbBlockBegin
  2
*D16
 70
     1
 10
0.0
 20
0.0
 30
0.0
  3
*D16
  1

  0
LINE
  5
309
330
308
100
AcDbEntity
  8
1
  6
Continuous
 62
     2
100
AcDbLine
 10
-1815.779608714939
 20
2524.986842203257
 30
0.0
 11
-1803.779608714939
 21
2524.986842203257
 31
0.0
  0
LINE
  5
30A
330
308
100
AcDbEntity
  8
1
  6
Continuous
 62
     2
100
AcDbLine
 10
-1815.779608714939
 20
2524.986842203257
 30
0.0
 11
-1827.799555866216
 21
2524.986842203257
 31
0.0
  0
LINE
  5
30B
330
308
100
AcDbEntity
  8
1
  6
Continuous
 62
     2
100
AcDbLine
 10
-1815.779608714939
 20
2501.986842203257
 30
0.0
 11
-1815.779608714939
 21
2527.986842203257
 31
0.0
  0
LINE
  5
30C
330
308
100
AcDbEntity
  8
1
  6
Continuous
 62
     2
100
AcDbLine
 10
-1803.779608714939
 20
2503.986842203257
 30
0.0
 11
-1803.779608714939
 21
2527.986842203257
 31
0.0
  0
LINE
  5
30D
330
308
100
AcDbEntity
  8
1
 62
     2
100
AcDbLine
 10
-1801.923453414324
 20
2526.842997503872
 30
0.0
 11
-1805.635764015554
 21
2523.130686902642
 31
0.0
  0
SOLID
  5
30E
330
308
100
AcDbEntity
  8
1
 62
     2
100
AcDbTrace
 10
-1821.029608714939
 20
2524.295666590923
 30
0.0
 11
-1821.029608714939
 21
2525.67801781559
 31
0.0
 12
-1815.779608714939
 22
2524.986842203257
 32
0.0
 13
-1815.779608714939
 23
2524.986842203257
 33
0.0
  0
MTEXT
  5
30F
330
308
100
AcDbEntity
  8
1
 62
     2
100
AcDbMText
 10
-1827.799555866216
 20
2527.986842203257
 30
0.0
 40
7.5
 41
0.0
 71
     7
 72
     1
  1
C
  7
CONVERTER_11
 11
0.9999999999970619
 21
2.424068405545306E-6
 31
0.0
 73
     1
 44
0.60024009603842
  0
ENDBLK
  5
311
330
308
100
AcDbEntity
  8
0
100
AcDbBlockEnd
  0
BLOCK
  5
313
330
312
100
AcDbEntity
  8
0
100
AcDbBlockBegin
  2
_OBLIQUE
 70
     0
 10
0.0
 20
0.0
 30
0.0
  3
_OBLIQUE
  1

  0
LINE
  5
315
330
312
100
AcDbEntity
  8
0
  6
ByBlock
 62
     0
370
    -2
100
AcDbLine
 10
-0.5
 20
-0.5
 30
0.0
 11
0.5
 21
0.5
 31
0.0
  0
ENDBLK
  5
314
330
312
100
AcDbEntity
  8
0
100
AcDbBlockEnd
  0
BLOCK
  5
320
330
318
100
AcDbEntity
  8
0
100
AcDbBlockBegin
  2
*D18
 70
     1
 10
0.0
 20
0.0
 30
0.0
  3
*D18
  1

  0
LINE
  5
319
330
318
100
AcDbEntity
  8
1
  6
Continuous
 62
     2
100
AcDbLine
 10
-1803.77960871494
 20
2524.986842203257
 30
0.0
 11
-1792.77960871494
 21
2524.986842203257
 31
0.0
  0
LINE
  5
31A
330
318
100
AcDbEntity
  8
1
  6
Continuous
 62
     2
100
AcDbLine
 10
-1792.77960871494
 20
2524.986842203257
 30
0.0
 11
-1778.950720076147
 21
2524.986842203257
 31
0.0
  0
LINE
  5
31B
330
318
100
AcDbEntity
  8
1
  6
Continuous
 62
     2
100
AcDbLine
 10
-1803.77960871494
 20
2503.986842203257
 30
0.0
 11
-1803.77960871494
 21
2527.986842203257
 31
0.0
  0
LINE
  5
31C
330
318
100
AcDbEntity
  8
1
  6
Continuous
 62
     2
100
AcDbLine
 10
-1792.77960871494
 20
2503.986842203257
 30
0.0
 11
-1792.77960871494
 21
2527.986842203257
 31
0.0
  0
SOLID
  5
31D
330
318
100
AcDbEntity
  8
1
 62
     2
100
AcDbTrace
 10
-1787.52960871494
 20
2525.67801781559
 30
0.0
 11
-1787.52960871494
 21
2524.295666590923
 31
0.0
 12
-1792.77960871494
 22
2524.986842203257
 32
0.0
 13
-1792.77960871494
 23
2524.986842203257
 33
0.0
  0
LINE
  5
31E
330
318
100
AcDbEntity
  8
1
 62
     2
100
AcDbLine
 10
-1805.635764015555
 20
2523.130686902642
 30
0.0
 11
-1801.923453414325
 21
2526.842997503872
 31
0.0
  0
MTEXT
  5
31F
330
318
100
AcDbEntity
  8
1
 62
     2
100
AcDbMText
 10
-1783.825720076147
 20
2527.986842203257
 30
0.0
 40
7.5
 41
0.0
 71
     7
 72
     1
  1
B
  7
CONVERTER_11
 11
0.9999999999970619
 21
2.424068405545306E-6
 31
0.0
 73
     1
 44
0.60024009603842
  0
ENDBLK
  5
321
330
318
100
AcDbEntity
  8
0
100
AcDbBlockEnd
  0
BLOCK
  5
32B
330
324
100
AcDbEntity
  8
0
100
AcDbBlockBegin
  2
*D19
 70
     1
 10
0.0
 20
0.0
 30
0.0
  3
*D19
  1

  0
LINE
  5
325
330
324
100
AcDbEntity
  8
1
  6
Continuous
 62
     2
100
AcDbLine
 10
-2037.279608714938
 20
1777.000583048553
 30
0.0
 11
-1877.279608714938
 21
1777.000583048553
 31
0.0
  0
LINE
  5
326
330
324
100
AcDbEntity
  8
1
  6
Continuous
 62
     2
100
AcDbLine
 10
-2037.279608714938
 20
1920.500583048554
 30
0.0
 11
-2037.279608714938
 21
1774.000583048553
 31
0.0
  0
LINE
  5
327
330
324
100
AcDbEntity
  8
1
  6
Continuous
 62
     2
100
AcDbLine
 10
-1877.279608714938
 20
1920.500583048554
 30
0.0
 11
-1877.279608714938
 21
1774.000583048553
 31
0.0
  0
SOLID
  5
328
330
324
100
AcDbEntity
  8
1
 62
     2
100
AcDbTrace
 10
-1882.529608714938
 20
1776.309407436219
 30
0.0
 11
-1882.529608714938
 21
1777.691758660887
 31
0.0
 12
-1877.279608714938
 22
1777.000583048553
 32
0.0
 13
-1877.279608714938
 23
1777.000583048553
 33
0.0
  0
SOLID
  5
329
330
324
100
AcDbEntity
  8
1
 62
     2
100
AcDbTrace
 10
-2032.029608714938
 20
1777.691758660887
 30
0.0
 11
-2032.029608714938
 21
1776.309407436219
 31
0.0
 12
-2037.279608714938
 22
1777.000583048553
 32
0.0
 13
-2037.279608714938
 23
1777.000583048553
 33
0.0
  0
MTEXT
  5
32A
330
324
100
AcDbEntity
  8
1
 62
     2
100
AcDbMText
 10
-1973.329608714902
 20
1780.000553232511
 30
0.0
 40
7.5
 41
0.0
 71
     7
 72
     1
  1
\C2;\U+00f8\C2;160
  7
CONVERTER_11
 11
0.9999999999970619
 21
2.424068405545306E-6
 31
0.0
 73
     1
 44
0.60024009603842
  0
ENDBLK
  5
32C
330
324
100
AcDbEntity
  8
0
100
AcDbBlockEnd
  0
BLOCK
  5
336
330
32F
100
AcDbEntity
  8
0
100
AcDbBlockBegin
  2
*D20
 70
     1
 10
0.0
 20
0.0
 30
0.0
  3
*D20
  1

  0
LINE
  5
330
330
32F
100
AcDbEntity
  8
1
  6
Continuous
 62
     2
100
AcDbLine
 10
-2012.279608714938
 20
1798.000583048553
 30
0.0
 11
-1902.279608714938
 21
1798.000583048553
 31
0.0
  0
LINE
  5
331
330
32F
100
AcDbEntity
  8
1
  6
Continuous
 62
     2
100
AcDbLine
 10
-2012.279608714938
 20
1915.000583048554
 30
0.0
 11
-2012.279608714938
 21
1795.000583048553
 31
0.0
  0
LINE
  5
332
330
32F
100
AcDbEntity
  8
1
  6
Continuous
 62
     2
100
AcDbLine
 10
-1902.279608714938
 20
1915.000583048554
 30
0.0
 11
-1902.279608714938
 21
1795.000583048553
 31
0.0
  0
SOLID
  5
333
330
32F
100
AcDbEntity
  8
1
 62
     2
100
AcDbTrace
 10
-1907.529608714938
 20
1797.309407436219
 30
0.0
 11
-1907.529608714938
 21
1798.691758660887
 31
0.0
 12
-1902.279608714938
 22
1798.000583048553
 32
0.0
 13
-1902.279608714938
 23
1798.000583048553
 33
0.0
  0
SOLID
  5
334
330
32F
100
AcDbEntity
  8
1
 62
     2
100
AcDbTrace
 10
-2007.029608714938
 20
1798.691758660887
 30
0.0
 11
-2007.029608714938
 21
1797.309407436219
 31
0.0
 12
-2012.279608714938
 22
1798.000583048553
 32
0.0
 13
-2012.279608714938
 23
1798.000583048553
 33
0.0
  0
MTEXT
  5
335
330
32F
100
AcDbEntity
  8
1
 62
     2
100
AcDbMText
 10
-1981.204608714902
 20
1803.250553232511
 30
0.0
 40
7.5
 41
0.0
 71
     7
 72
     1
  1
\C2;\U+00f8\C2;110\C2;-j7
  7
CONVERTER_11
 11
0.9999999999970619
 21
2.424068405545306E-6
 31
0.0
 73
     1
 44
0.60024009603842
  0
ENDBLK
  5
337
330
32F
100
AcDbEntity
  8
0
100
AcDbBlockEnd
  0
BLOCK
  5
343
330
33A
100
AcDbEntity
  8
0
100
AcDbBlockBegin
  2
*D21
 70
     1
 10
0.0
 20
0.0
 30
0.0
  3
*D21
  1

  0
LINE
  5
33B
330
33A
100
AcDbEntity
  8
1
  6
Continuous
 62
     2
100
AcDbLine
 10
-2073.279608714939
 20
2454.986842203257
 30
0.0
 11
-2073.279608714939
 21
2465.486842203257
 31
0.0
  0
LINE
  5
33C
330
33A
100
AcDbEntity
  8
1
  6
Continuous
 62
     2
100
AcDbLine
 10
-2073.279608714939
 20
2465.486842203257
 30
0.0
 11
-2073.279608714939
 21
2474.486842203257
 31
0.0
  0
LINE
  5
33D
330
33A
100
AcDbEntity
  8
1
  6
Continuous
 62
     2
100
AcDbLine
 10
-2073.279608714939
 20
2474.486842203257
 30
0.0
 11
-2073.279608714939
 21
2484.986842203257
 31
0.0
  0
LINE
  5
33E
330
33A
100
AcDbEntity
  8
1
  6
Continuous
 62
     2
100
AcDbLine
 10
-2052.279608714938
 20
2465.486842203257
 30
0.0
 11
-2076.279608714939
 21
2465.486842203257
 31
0.0
  0
LINE
  5
33F
330
33A
100
AcDbEntity
  8
1
  6
Continuous
 62
     2
100
AcDbLine
 10
-2052.279608714938
 20
2474.486842203257
 30
0.0
 11
-2076.279608714939
 21
2474.486842203257
 31
0.0
  0
SOLID
  5
340
330
33A
100
AcDbEntity
  8
1
 62
     2
100
AcDbTrace
 10
-2073.970784327273
 20
2479.736842203257
 30
0.0
 11
-2072.588433102605
 21
2479.736842203257
 31
0.0
 12
-2073.279608714939
 22
2474.486842203257
 32
0.0
 13
-2073.279608714939
 23
2474.486842203257
 33
0.0
  0
SOLID
  5
341
330
33A
100
AcDbEntity
  8
1
 62
     2
100
AcDbTrace
 10
-2072.588433102605
 20
2460.236842203257
 30
0.0
 11
-2073.970784327273
 21
2460.236842203257
 31
0.0
 12
-2073.279608714939
 22
2465.486842203257
 32
0.0
 13
-2073.279608714939
 23
2465.486842203257
 33
0.0
  0
MTEXT
  5
342
330
33A
100
AcDbEntity
  8
1
 62
     2
100
AcDbMText
 10
-2076.279608714939
 20
2479.775840698241
 30
0.0
 40
7.5
 41
0.0
 71
     7
 72
     1
  1
9
  7
CONVERTER_11
 11
0.0
 21
1.0
 31
0.0
 73
     1
 44
0.60024009603842
  0
ENDBLK
  5
344
330
33A
100
AcDbEntity
  8
0
100
AcDbBlockEnd
  0
BLOCK
  5
34E
330
347
100
AcDbEntity
  8
0
100
AcDbBlockBegin
  2
*D22
 70
     1
 10
0.0
 20
0.0
 30
0.0
  3
*D22
  1

  0
LINE
  5
348
330
347
100
AcDbEntity
  8
1
  6
Continuous
 62
     2
100
AcDbLine
 10
-2136.279608714939
 20
2305.986842203256
 30
0.0
 11
-2136.279608714939
 21
2495.986842203255
 31
0.0
  0
LINE
  5
349
330
347
100
AcDbEntity
  8
1
  6
Continuous
 62
     2
100
AcDbLine
 10
-2049.279608714939
 20
2305.986842203256
 30
0.0
 11
-2139.279608714939
 21
2305.986842203256
 31
0.0
  0
LINE
  5
34A
330
347
100
AcDbEntity
  8
1
  6
Continuous
 62
     2
100
AcDbLine
 10
-2049.279608714939
 20
2495.986842203255
 30
0.0
 11
-2139.279608714939
 21
2495.986842203255
 31
0.0
  0
SOLID
  5
34B
330
347
100
AcDbEntity
  8
1
 62
     2
100
AcDbTrace
 10
-2135.588433102605
 20
2490.736842203255
 30
0.0
 11
-2136.970784327273
 21
2490.736842203255
 31
0.0
 12
-2136.279608714939
 22
2495.986842203255
 32
0.0
 13
-2136.279608714939
 23
2495.986842203255
 33
0.0
  0
SOLID
  5
34C
330
347
100
AcDbEntity
  8
1
 62
     2
100
AcDbTrace
 10
-2136.970784327273
 20
2311.236842203256
 30
0.0
 11
-2135.588433102605
 21
2311.236842203256
 31
0.0
 12
-2136.279608714939
 22
2305.986842203256
 32
0.0
 13
-2136.279608714939
 23
2305.986842203256
 33
0.0
  0
MTEXT
  5
34D
330
347
100
AcDbEntity
  8
1
 62
     2
100
AcDbMText
 10
-2139.279608714939
 20
2393.111842203256
 30
0.0
 40
7.5
 41
0.0
 71
     7
 72
     1
  1
190
  7
CONVERTER_11
 11
0.0
 21
1.0
 31
0.0
 73
     1
 44
0.60024009603842
  0
ENDBLK
  5
34F
330
347
100
AcDbEntity
  8
0
100
AcDbBlockEnd
  0
BLOCK
  5
35B
330
352
100
AcDbEntity
  8
0
100
AcDbBlockBegin
  2
*D23
 70
     1
 10
0.0
 20
0.0
 30
0.0
  3
*D23
  1

  0
LINE
  5
353
330
352
100
AcDbEntity
  8
1
  6
Continuous
 62
     2
100
AcDbLine
 10
-2011.279608714938
 20
2284.986842203257
 30
0.0
 11
-2021.779608714938
 21
2284.986842203257
 31
0.0
  0
LINE
  5
354
330
352
100
AcDbEntity
  8
1
  6
Continuous
 62
     2
100
AcDbLine
 10
-2030.779608714938
 20
2284.986842203257
 30
0.0
 11
-2021.779608714938
 21
2284.986842203257
 31
0.0
  0
LINE
  5
355
330
352
100
AcDbEntity
  8
1
  6
Continuous
 62
     2
100
AcDbLine
 10
-2030.779608714938
 20
2284.986842203257
 30
0.0
 11
-2043.316677260007
 21
2284.986842203257
 31
0.0
  0
LINE
  5
356
330
352
100
AcDbEntity
  8
1
  6
Continuous
 62
     2
100
AcDbLine
 10
-2030.779608714938
 20
2305.986842203255
 30
0.0
 11
-2030.779608714938
 21
2281.986842203257
 31
0.0
  0
LINE
  5
357
330
352
100
AcDbEntity
  8
1
  6
Continuous
 62
     2
100
AcDbLine
 10
-2021.779608714938
 20
2305.986842203255
 30
0.0
 11
-2021.779608714938
 21
2281.986842203257
 31
0.0
  0
SOLID
  5
358
330
352
100
AcDbEntity
  8
1
 62
     2
100
AcDbTrace
 10
-2036.029608714938
 20
2284.295666590923
 30
0.0
 11
-2036.029608714938
 21
2285.67801781559
 31
0.0
 12
-2030.779608714938
 22
2284.986842203257
 32
0.0
 13
-2030.779608714938
 23
2284.986842203257
 33
0.0
  0
SOLID
  5
359
330
352
100
AcDbEntity
  8
1
 62
     2
100
AcDbTrace
 10
-2016.529608714938
 20
2285.67801781559
 30
0.0
 11
-2016.529608714938
 21
2284.295666590923
 31
0.0
 12
-2021.779608714938
 22
2284.986842203257
 32
0.0
 13
-2021.779608714938
 23
2284.986842203257
 33
0.0
  0
MTEXT
  5
35A
330
352
100
AcDbEntity
  8
1
 62
     2
100
AcDbMText
 10
-2043.316677260007
 20
2287.986842203257
 30
0.0
 40
7.5
 41
0.0
 71
     7
 72
     1
  1
9
  7
CONVERTER_11
 11
0.9999999999970619
 21
2.424068405545306E-6
 31
0.0
 73
     1
 44
0.60024009603842
  0
ENDBLK
  5
35C
330
352
100
AcDbEntity
  8
0
100
AcDbBlockEnd
  0
BLOCK
  5
366
330
35F
100
AcDbEntity
  8
0
100
AcDbBlockBegin
  2
*D24
 70
     1
 10
0.0
 20
0.0
 30
0.0
  3
*D24
  1

  0
LINE
  5
360
330
35F
100
AcDbEntity
  8
1
  6
Continuous
 62
     2
100
AcDbLine
 10
-2052.279608714939
 20
2221.986842203257
 30
0.0
 11
-1862.279608714938
 21
2221.986842203257
 31
0.0
  0
LINE
  5
361
330
35F
100
AcDbEntity
  8
1
  6
Continuous
 62
     2
100
AcDbLine
 10
-2052.279608714939
 20
2308.986842203255
 30
0.0
 11
-2052.279608714939
 21
2218.986842203257
 31
0.0
  0
LINE
  5
362
330
35F
100
AcDbEntity
  8
1
  6
Continuous
 62
     2
100
AcDbLine
 10
-1862.279608714938
 20
2308.986842203255
 30
0.0
 11
-1862.279608714938
 21
2218.986842203257
 31
0.0
  0
SOLID
  5
363
330
35F
100
AcDbEntity
  8
1
 62
     2
100
AcDbTrace
 10
-1867.529608714938
 20
2221.295666590923
 30
0.0
 11
-1867.529608714938
 21
2222.67801781559
 31
0.0
 12
-1862.279608714938
 22
2221.986842203257
 32
0.0
 13
-1862.279608714938
 23
2221.986842203257
 33
0.0
  0
SOLID
  5
364
330
35F
100
AcDbEntity
  8
1
 62
     2
100
AcDbTrace
 10
-2047.029608714939
 20
2222.67801781559
 30
0.0
 11
-2047.029608714939
 21
2221.295666590923
 31
0.0
 12
-2052.279608714939
 22
2221.986842203257
 32
0.0
 13
-2052.279608714939
 23
2221.986842203257
 33
0.0
  0
MTEXT
  5
365
330
35F
100
AcDbEntity
  8
1
 62
     2
100
AcDbMText
 10
-1965.154608714939
 20
2224.986842203257
 30
0.0
 40
7.5
 41
0.0
 71
     7
 72
     1
  1
190
  7
CONVERTER_11
 11
0.9999999999970619
 21
2.424068405545306E-6
 31
0.0
 73
     1
 44
0.60024009603842
  0
ENDBLK
  5
367
330
35F
100
AcDbEntity
  8
0
100
AcDbBlockEnd
  0
BLOCK
  5
371
330
36A
100
AcDbEntity
  8
0
100
AcDbBlockBegin
  2
*D25
 70
     1
 10
0.0
 20
0.0
 30
0.0
  3
*D25
  1

  0
LINE
  5
36B
330
36A
100
AcDbEntity
  8
1
  6
Continuous
 62
     2
100
AcDbLine
 10
-1977.279608714938
 20
1819.000583048553
 30
0.0
 11
-1937.279608714938
 21
1819.000583048553
 31
0.0
  0
LINE
  5
36C
330
36A
100
AcDbEntity
  8
1
  6
Continuous
 62
     2
100
AcDbLine
 10
-1977.279608714938
 20
1840.000583048553
 30
0.0
 11
-1977.279608714938
 21
1816.000583048553
 31
0.0
  0
LINE
  5
36D
330
36A
100
AcDbEntity
  8
1
  6
Continuous
 62
     2
100
AcDbLine
 10
-1937.279608714938
 20
1840.000583048553
 30
0.0
 11
-1937.279608714938
 21
1816.000583048553
 31
0.0
  0
SOLID
  5
36E
330
36A
100
AcDbEntity
  8
1
 62
     2
100
AcDbTrace
 10
-1972.029608714938
 20
1819.691758660887
 30
0.0
 11
-1972.029608714938
 21
1818.309407436219
 31
0.0
 12
-1977.279608714938
 22
1819.000583048553
 32
0.0
 13
-1977.279608714938
 23
1819.000583048553
 33
0.0
  0
SOLID
  5
36F
330
36A
100
AcDbEntity
  8
1
 62
     2
100
AcDbTrace
 10
-1942.529608714938
 20
1818.309407436219
 30
0.0
 11
-1942.529608714938
 21
1819.691758660887
 31
0.0
 12
-1937.279608714938
 22
1819.000583048553
 32
0.0
 13
-1937.279608714938
 23
1819.000583048553
 33
0.0
  0
MTEXT
  5
370
330
36A
100
AcDbEntity
  8
1
 62
     2
100
AcDbMText
 10
-1980.079608714903
 20
1824.250553232511
 30
0.0
 40
7.5
 41
0.0
 71
     7
 72
     1
  1
\C2;\U+00f8\C2; K\C2;-j5
  7
CONVERTER_11
 11
0.9999999999970619
 21
2.424068405545306E-6
 31
0.0
 73
     1
 44
0.60024009603842
  0
ENDBLK
  5
372
330
36A
100
AcDbEntity
  8
0
100
AcDbBlockEnd
  0
BLOCK
  5
37C
330
375
100
AcDbEntity
  8
0
100
AcDbBlockBegin
  2
*D26
 70
     1
 10
0.0
 20
0.0
 30
0.0
  3
*D26
  1

  0
LINE
  5
376
330
375
100
AcDbEntity
  8
1
  6
Continuous
 62
     2
100
AcDbLine
 10
-1977.279608714938
 20
2177.500583048553
 30
0.0
 11
-1937.279608714938
 21
2177.500583048553
 31
0.0
  0
LINE
  5
377
330
375
100
AcDbEntity
  8
1
  6
Continuous
 62
     2
100
AcDbLine
 10
-1977.279608714938
 20
2156.500583048553
 30
0.0
 11
-1977.279608714938
 21
2180.500583048553
 31
0.0
  0
LINE
  5
378
330
375
100
AcDbEntity
  8
1
  6
Continuous
 62
     2
100
AcDbLine
 10
-1937.279608714938
 20
2156.500583048553
 30
0.0
 11
-1937.279608714938
 21
2180.500583048553
 31
0.0
  0
SOLID
  5
379
330
375
100
AcDbEntity
  8
1
 62
     2
100
AcDbTrace
 10
-1972.029608714938
 20
2178.191758660887
 30
0.0
 11
-1972.029608714938
 21
2176.809407436219
 31
0.0
 12
-1977.279608714938
 22
2177.500583048553
 32
0.0
 13
-1977.279608714938
 23
2177.500583048553
 33
0.0
  0
SOLID
  5
37A
330
375
100
AcDbEntity
  8
1
 62
     2
100
AcDbTrace
 10
-1942.529608714938
 20
2176.809407436219
 30
0.0
 11
-1942.529608714938
 21
2178.191758660887
 31
0.0
 12
-1937.279608714938
 22
2177.500583048553
 32
0.0
 13
-1937.279608714938
 23
2177.500583048553
 33
0.0
  0
MTEXT
  5
37B
330
375
100
AcDbEntity
  8
1
 62
     2
100
AcDbMText
 10
-1980.079608714903
 20
2182.750553232512
 30
0.0
 40
7.5
 41
0.0
 71
     7
 72
     1
  1
\C2;\U+00f8\C2; K\C2;-j5
  7
CONVERTER_11
 11
0.9999999999970619
 21
2.424068405545306E-6
 31
0.0
 73
     1
 44
0.60024009603842
  0
ENDBLK
  5
37D
330
375
100
AcDbEntity
  8
0
100
AcDbBlockEnd
  0
BLOCK
  5
389
330
380
100
AcDbEntity
  8
0
100
AcDbBlockBegin
  2
*D27
 70
     1
 10
0.0
 20
0.0
 30
0.0
  3
*D27
  1

  0
LINE
  5
381
330
380
100
AcDbEntity
  8
1
  6
Continuous
 62
     2
100
AcDbLine
 10
-2178.279608714939
 20
1840.000583048553
 30
0.0
 11
-2178.279608714939
 21
1910.000583048554
 31
0.0
  0
LINE
  5
382
330
380
100
AcDbEntity
  8
1
  6
Continuous
 62
     2
100
AcDbLine
 10
-1975.779608714938
 20
1840.000583048553
 30
0.0
 11
-2181.279608714939
 21
1840.000583048553
 31
0.0
  0
LINE
  5
383
330
380
100
AcDbEntity
  8
1
  6
Continuous
 62
     2
100
AcDbLine
 10
-2160.279608714939
 20
1910.000583048554
 30
0.0
 11
-2181.279608714939
 21
1910.000583048554
 31
0.0
  0
LINE
  5
384
330
380
100
AcDbEntity
  8
1
  6
Continuous
 62
     2
100
AcDbLine
 10
-2076.279608714939
 20
1910.000583048554
 30
0.0
 11
-2154.279608714939
 21
1910.000583048554
 31
0.0
  0
LINE
  5
385
330
380
100
AcDbEntity
  8
1
  6
Continuous
 62
     2
100
AcDbLine
 10
-1984.779608714938
 20
1910.000583048554
 30
0.0
 11
-2070.279608714939
 21
1910.000583048554
 31
0.0
  0
SOLID
  5
386
330
380
100
AcDbEntity
  8
1
 62
     2
100
AcDbTrace
 10
-2178.970784327273
 20
1845.250583048553
 30
0.0
 11
-2177.588433102605
 21
1845.250583048553
 31
0.0
 12
-2178.279608714939
 22
1840.000583048553
 32
0.0
 13
-2178.279608714939
 23
1840.000583048553
 33
0.0
  0
SOLID
  5
387
330
380
100
AcDbEntity
  8
1
 62
     2
100
AcDbTrace
 10
-2177.588433102605
 20
1904.750583048554
 30
0.0
 11
-2178.970784327273
 21
1904.750583048554
 31
0.0
 12
-2178.279608714939
 22
1910.000583048554
 32
0.0
 13
-2178.279608714939
 23
1910.000583048554
 33
0.0
  0
MTEXT
  5
388
330
380
100
AcDbEntity
  8
1
 62
     2
100
AcDbMText
 10
-2181.279608714939
 20
1874.418533649131
 30
0.0
 40
7.5
 41
0.0
 71
     7
 72
     1
  1
M
  7
CONVERTER_11
 11
0.0
 21
1.0
 31
0.0
 73
     1
 44
0.60024009603842
  0
ENDBLK
  5
38A
330
380
100
AcDbEntity
  8
0
100
AcDbBlockEnd
  0
BLOCK
  5
396
330
38D
100
AcDbEntity
  8
0
100
AcDbBlockBegin
  2
*D28
 70
     1
 10
0.0
 20
0.0
 30
0.0
  3
*D28
  1

  0
LINE
  5
38E
330
38D
100
AcDbEntity
  8
1
  6
Continuous
 62
     2
100
AcDbLine
 10
-2178.279608714939
 20
2086.500583048553
 30
0.0
 11
-2178.279608714939
 21
2156.500583048553
 31
0.0
  0
LINE
  5
38F
330
38D
100
AcDbEntity
  8
1
  6
Continuous
 62
     2
100
AcDbLine
 10
-2160.279608714939
 20
2086.500583048553
 30
0.0
 11
-2181.279608714939
 21
2086.500583048553
 31
0.0
  0
LINE
  5
390
330
38D
100
AcDbEntity
  8
1
  6
Continuous
 62
     2
100
AcDbLine
 10
-2097.279608714939
 20
2086.500583048553
 30
0.0
 11
-2154.279608714939
 21
2086.500583048553
 31
0.0
  0
LINE
  5
391
330
38D
100
AcDbEntity
  8
1
  6
Continuous
 62
     2
100
AcDbLine
 10
-1984.779608714938
 20
2086.500583048553
 30
0.0
 11
-2091.279608714939
 21
2086.500583048553
 31
0.0
  0
LINE
  5
392
330
38D
100
AcDbEntity
  8
1
  6
Continuous
 62
     2
100
AcDbLine
 10
-1975.779608714938
 20
2156.500583048553
 30
0.0
 11
-2181.279608714939
 21
2156.500583048553
 31
0.0
  0
SOLID
  5
393
330
38D
100
AcDbEntity
  8
1
 62
     2
100
AcDbTrace
 10
-2177.588433102605
 20
2151.250583048553
 30
0.0
 11
-2178.970784327273
 21
2151.250583048553
 31
0.0
 12
-2178.279608714939
 22
2156.500583048553
 32
0.0
 13
-2178.279608714939
 23
2156.500583048553
 33
0.0
  0
SOLID
  5
394
330
38D
100
AcDbEntity
  8
1
 62
     2
100
AcDbTrace
 10
-2178.970784327273
 20
2091.750583048553
 30
0.0
 11
-2177.588433102605
 21
2091.750583048553
 31
0.0
 12
-2178.279608714939
 22
2086.500583048553
 32
0.0
 13
-2178.279608714939
 23
2086.500583048553
 33
0.0
  0
MTEXT
  5
395
330
38D
100
AcDbEntity
  8
1
 62
     2
100
AcDbMText
 10
-2181.279608714939
 20
2121.986604126141
 30
0.0
 40
7.5
 41
0.0
 71
     7
 72
     1
  1
M
  7
CONVERTER_11
 11
0.0
 21
1.0
 31
0.0
 73
     1
 44
0.60024009603842
  0
ENDBLK
  5
397
330
38D
100
AcDbEntity
  8
0
100
AcDbBlockEnd
  0
BLOCK
  5
3A1
330
39A
100
AcDbEntity
  8
0
100
AcDbBlockBegin
  2
*D29
 70
     1
 10
0.0
 20
0.0
 30
0.0
  3
*D29
  1

  0
LINE
  5
39B
330
39A
100
AcDbEntity
  8
1
  6
Continuous
 62
     2
100
AcDbLine
 10
-2199.279608714939
 20
1840.000583048553
 30
0.0
 11
-2199.279608714939
 21
2156.500583048553
 31
0.0
  0
LINE
  5
39C
330
39A
100
AcDbEntity
  8
1
  6
Continuous
 62
     2
100
AcDbLine
 10
-1975.779608714938
 20
1840.000583048553
 30
0.0
 11
-2202.279608714939
 21
1840.000583048553
 31
0.0
  0
LINE
  5
39D
330
39A
100
AcDbEntity
  8
1
  6
Continuous
 62
     2
100
AcDbLine
 10
-1975.779608714938
 20
2156.500583048553
 30
0.0
 11
-2202.279608714939
 21
2156.500583048553
 31
0.0
  0
SOLID
  5
39E
330
39A
100
AcDbEntity
  8
1
 62
     2
100
AcDbTrace
 10
-2198.588433102605
 20
2151.250583048553
 30
0.0
 11
-2199.970784327273
 21
2151.250583048553
 31
0.0
 12
-2199.279608714939
 22
2156.500583048553
 32
0.0
 13
-2199.279608714939
 23
2156.500583048553
 33
0.0
  0
SOLID
  5
39F
330
39A
100
AcDbEntity
  8
1
 62
     2
100
AcDbTrace
 10
-2199.970784327273
 20
1845.250583048553
 30
0.0
 11
-2198.588433102605
 21
1845.250583048553
 31
0.0
 12
-2199.279608714939
 22
1840.000583048553
 32
0.0
 13
-2199.279608714939
 23
1840.000583048553
 33
0.0
  0
MTEXT
  5
3A0
330
39A
100
AcDbEntity
  8
1
 62
     2
100
AcDbMText
 10
-2202.279608714939
 20
1995.418060937481
 30
0.0
 40
7.5
 41
0.0
 71
     7
 72
     1
  1
P
  7
CONVERTER_11
 11
0.0
 21
1.0
 31
0.0
 73
     1
 44
0.60024009603842
  0
ENDBLK
  5
3A2
330
39A
100
AcDbEntity
  8
0
100
AcDbBlockEnd
  0
BLOCK
  5
3AC
330
3A5
100
AcDbEntity
  8
0
100
AcDbBlockBegin
  2
*D30
 70
     1
 10
0.0
 20
0.0
 30
0.0
  3
*D30
  1

  0
LINE
  5
3A6
330
3A5
100
AcDbEntity
  8
1
  6
Continuous
 62
     2
100
AcDbLine
 10
-1856.279608714938
 20
1843.000583048554
 30
0.0
 11
-1856.279608714938
 21
1883.000583048554
 31
0.0
  0
LINE
  5
3A7
330
3A5
100
AcDbEntity
  8
1
  6
Continuous
 62
     2
100
AcDbLine
 10
-1957.279608714938
 20
1883.000583048554
 30
0.0
 11
-1853.279608714938
 21
1883.000583048554
 31
0.0
  0
LINE
  5
3A8
330
3A5
100
AcDbEntity
  8
1
  6
Continuous
 62
     2
100
AcDbLine
 10
-1957.279608714938
 20
1843.000583048554
 30
0.0
 11
-1853.279608714938
 21
1843.000583048554
 31
0.0
  0
SOLID
  5
3A9
330
3A5
100
AcDbEntity
  8
1
 62
     2
100
AcDbTrace
 10
-1855.588433102604
 20
1877.750583048554
 30
0.0
 11
-1856.970784327272
 21
1877.750583048554
 31
0.0
 12
-1856.279608714938
 22
1883.000583048554
 32
0.0
 13
-1856.279608714938
 23
1883.000583048554
 33
0.0
  0
SOLID
  5
3AA
330
3A5
100
AcDbEntity
  8
1
 62
     2
100
AcDbTrace
 10
-1856.970784327272
 20
1848.250583048554
 30
0.0
 11
-1855.588433102604
 21
1848.250583048554
 31
0.0
 12
-1856.279608714938
 22
1843.000583048554
 32
0.0
 13
-1856.279608714938
 23
1843.000583048554
 33
0.0
  0
MTEXT
  5
3AB
330
3A5
100
AcDbEntity
  8
1
 62
     2
100
AcDbMText
 10
-1859.279608714938
 20
1861.06666624062
 30
0.0
 40
7.5
 41
0.0
 71
     7
 72
     1
  1
S
  7
CONVERTER_11
 11
0.0
 21
1.0
 31
0.0
 73
     1
 44
0.60024009603842
  0
ENDBLK
  5
3AD
330
3A5
100
AcDbEntity
  8
0
100
AcDbBlockEnd
  0
BLOCK
  5
3B9
330
3B0
100
AcDbEntity
  8
0
100
AcDbBlockBegin
  2
*D31
 70
     1
 10
0.0
 20
0.0
 30
0.0
  3
*D31
  1

  0
LINE
  5
3B1
330
3B0
100
AcDbEntity
  8
1
  6
Continuous
 62
     2
100
AcDbLine
 10
-1856.279608714938
 20
1840.000583048553
 30
0.0
 11
-1856.279608714938
 21
1828.21556279233
 31
0.0
  0
LINE
  5
3B2
330
3B0
100
AcDbEntity
  8
1
  6
Continuous
 62
     2
100
AcDbLine
 10
-1856.279608714938
 20
1840.000583048553
 30
0.0
 11
-1856.279608714938
 21
1843.000583048554
 31
0.0
  0
LINE
  5
3B3
330
3B0
100
AcDbEntity
  8
1
  6
Continuous
 62
     2
100
AcDbLine
 10
-1856.279608714938
 20
1853.500583048554
 30
0.0
 11
-1856.279608714938
 21
1843.000583048554
 31
0.0
  0
LINE
  5
3B4
330
3B0
100
AcDbEntity
  8
1
  6
Continuous
 62
     2
100
AcDbLine
 10
-1957.279608714938
 20
1843.000583048554
 30
0.0
 11
-1853.279608714938
 21
1843.000583048554
 31
0.0
  0
LINE
  5
3B5
330
3B0
100
AcDbEntity
  8
1
  6
Continuous
 62
     2
100
AcDbLine
 10
-1937.279608714938
 20
1840.000583048553
 30
0.0
 11
-1853.279608714938
 21
1840.000583048553
 31
0.0
  0
SOLID
  5
3B6
330
3B0
100
AcDbEntity
  8
1
 62
     2
100
AcDbTrace
 10
-1856.970784327272
 20
1848.250583048554
 30
0.0
 11
-1855.588433102604
 21
1848.250583048554
 31
0.0
 12
-1856.279608714938
 22
1843.000583048554
 32
0.0
 13
-1856.279608714938
 23
1843.000583048554
 33
0.0
  0
SOLID
  5
3B7
330
3B0
100
AcDbEntity
  8
1
 62
     2
100
AcDbTrace
 10
-1855.588433102604
 20
1834.750583048553
 30
0.0
 11
-1856.970784327272
 21
1834.750583048553
 31
0.0
 12
-1856.279608714938
 22
1840.000583048553
 32
0.0
 13
-1856.279608714938
 23
1840.000583048553
 33
0.0
  0
MTEXT
  5
3B8
330
3B0
100
AcDbEntity
  8
1
 62
     2
100
AcDbMText
 10
-1859.279608714938
 20
1828.21556279233
 30
0.0
 40
7.5
 41
0.0
 71
     7
 72
     1
  1
R
  7
CONVERTER_11
 11
0.0
 21
1.0
 31
0.0
 73
     1
 44
0.60024009603842
  0
ENDBLK
  5
3BA
330
3B0
100
AcDbEntity
  8
0
100
AcDbBlockEnd
  0
BLOCK
  5
3C4
330
3BD
100
AcDbEntity
  8
0
100
AcDbBlockBegin
  2
*D32
 70
     1
 10
0.0
 20
0.0
 30
0.0
  3
*D32
  1

  0
LINE
  5
3BE
330
3BD
100
AcDbEntity
  8
1
  6
Continuous
 62
     2
100
AcDbLine
 10
-1771.77960871494
 20
2443.986842203257
 30
0.0
 11
-1771.77960871494
 21
2495.986842203257
 31
0.0
  0
LINE
  5
3BF
330
3BD
100
AcDbEntity
  8
1
  6
Continuous
 62
     2
100
AcDbLine
 10
-1778.317617242049
 20
2443.986842203257
 30
0.0
 11
-1768.77960871494
 21
2443.986842203257
 31
0.0
  0
LINE
  5
3C0
330
3BD
100
AcDbEntity
  8
1
  6
Continuous
 62
     2
100
AcDbLine
 10
-1865.279608714938
 20
2495.986842203257
 30
0.0
 11
-1768.77960871494
 21
2495.986842203257
 31
0.0
  0
SOLID
  5
3C1
330
3BD
100
AcDbEntity
  8
1
 62
     2
100
AcDbTrace
 10
-1771.088433102606
 20
2490.736842203257
 30
0.0
 11
-1772.470784327274
 21
2490.736842203257
 31
0.0
 12
-1771.77960871494
 22
2495.986842203257
 32
0.0
 13
-1771.77960871494
 23
2495.986842203257
 33
0.0
  0
SOLID
  5
3C2
330
3BD
100
AcDbEntity
  8
1
 62
     2
100
AcDbTrace
 10
-1772.470784327274
 20
2449.236842203257
 30
0.0
 11
-1771.088433102606
 21
2449.236842203257
 31
0.0
 12
-1771.77960871494
 22
2443.986842203257
 32
0.0
 13
-1771.77960871494
 23
2443.986842203257
 33
0.0
  0
MTEXT
  5
3C3
330
3BD
100
AcDbEntity
  8
1
 62
     2
100
AcDbMText
 10
-1774.77960871494
 20
2466.429242529582
 30
0.0
 40
7.5
 41
0.0
 71
     7
 72
     1
  1
52
  7
CONVERTER_11
 11
0.0
 21
1.0
 31
0.0
 73
     1
 44
0.60024009603842
  0
ENDBLK
  5
3C5
330
3BD
100
AcDbEntity
  8
0
100
AcDbBlockEnd
  0
BLOCK
  5
3CF
330
3C8
100
AcDbEntity
  8
0
100
AcDbBlockBegin
  2
*D33
 70
     1
 10
0.0
 20
0.0
 30
0.0
  3
*D33
  1

  0
LINE
  5
3C9
330
3C8
100
AcDbEntity
  8
1
  6
Continuous
 62
     2
100
AcDbLine
 10
-1771.77960871494
 20
2305.986842203257
 30
0.0
 11
-1771.77960871494
 21
2380.986842203257
 31
0.0
  0
LINE
  5
3CA
330
3C8
100
AcDbEntity
  8
1
  6
Continuous
 62
     2
100
AcDbLine
 10
-1865.279608714938
 20
2305.986842203257
 30
0.0
 11
-1768.77960871494
 21
2305.986842203257
 31
0.0
  0
LINE
  5
3CB
330
3C8
100
AcDbEntity
  8
1
  6
Continuous
 62
     2
100
AcDbLine
 10
-1851.376964668989
 20
2380.986842203257
 30
0.0
 11
-1768.77960871494
 21
2380.986842203257
 31
0.0
  0
SOLID
  5
3CC
330
3C8
100
AcDbEntity
  8
1
 62
     2
100
AcDbTrace
 10
-1771.088433102606
 20
2375.736842203257
 30
0.0
 11
-1772.470784327274
 21
2375.736842203257
 31
0.0
 12
-1771.77960871494
 22
2380.986842203257
 32
0.0
 13
-1771.77960871494
 23
2380.986842203257
 33
0.0
  0
SOLID
  5
3CD
330
3C8
100
AcDbEntity
  8
1
 62
     2
100
AcDbTrace
 10
-1772.470784327274
 20
2311.236842203257
 30
0.0
 11
-1771.088433102606
 21
2311.236842203257
 31
0.0
 12
-1771.77960871494
 22
2305.986842203257
 32
0.0
 13
-1771.77960871494
 23
2305.986842203257
 33
0.0
  0
MTEXT
  5
3CE
330
3C8
100
AcDbEntity
  8
1
 62
     2
100
AcDbMText
 10
-1773.818742146317
 20
2334.683350316281
 30
0.0
 40
7.5
 41
0.0
 71
     7
 72
     1
  1
75
  7
CONVERTER_11
 11
0.0
 21
1.0
 31
0.0
 73
     1
 44
0.60024009603842
  0
ENDBLK
  5
3D0
330
3C8
100
AcDbEntity
  8
0
100
AcDbBlockEnd
  0
BLOCK
  5
3DA
330
3D3
100
AcDbEntity
  8
0
100
AcDbBlockBegin
  2
*D34
 70
     1
 10
0.0
 20
0.0
 30
0.0
  3
*D34
  1

  0
LINE
  5
3D4
330
3D3
100
AcDbEntity
  8
1
  6
Continuous
 62
     2
100
AcDbLine
 10
-1771.77960871494
 20
2380.986842203257
 30
0.0
 11
-1771.77960871494
 21
2443.986842203257
 31
0.0
  0
LINE
  5
3D5
330
3D3
100
AcDbEntity
  8
1
  6
Continuous
 62
     2
100
AcDbLine
 10
-1851.376964668989
 20
2380.986842203257
 30
0.0
 11
-1768.77960871494
 21
2380.986842203257
 31
0.0
  0
LINE
  5
3D6
330
3D3
100
AcDbEntity
  8
1
  6
Continuous
 62
     2
100
AcDbLine
 10
-1778.317617242049
 20
2443.986842203257
 30
0.0
 11
-1768.77960871494
 21
2443.986842203257
 31
0.0
  0
SOLID
  5
3D7
330
3D3
100
AcDbEntity
  8
1
 62
     2
100
AcDbTrace
 10
-1771.088433102606
 20
2438.736842203257
 30
0.0
 11
-1772.470784327274
 21
2438.736842203257
 31
0.0
 12
-1771.77960871494
 22
2443.986842203257
 32
0.0
 13
-1771.77960871494
 23
2443.986842203257
 33
0.0
  0
SOLID
  5
3D8
330
3D3
100
AcDbEntity
  8
1
 62
     2
100
AcDbTrace
 10
-1772.470784327274
 20
2386.236842203257
 30
0.0
 11
-1771.088433102606
 21
2386.236842203257
 31
0.0
 12
-1771.77960871494
 22
2380.986842203257
 32
0.0
 13
-1771.77960871494
 23
2380.986842203257
 33
0.0
  0
MTEXT
  5
3D9
330
3D3
100
AcDbEntity
  8
1
 62
     2
100
AcDbMText
 10
-1774.77960871494
 20
2406.861842203257
 30
0.0
 40
7.5
 41
0.0
 71
     7
 72
     1
  1
63
  7
CONVERTER_11
 11
0.0
 21
1.0
 31
0.0
 73
     1
 44
0.60024009603842
  0
ENDBLK
  5
3DB
330
3D3
100
AcDbEntity
  8
0
100
AcDbBlockEnd
  0
BLOCK
  5
3E5
330
3DE
100
AcDbEntity
  8
0
100
AcDbBlockBegin
  2
*D35
 70
     1
 10
0.0
 20
0.0
 30
0.0
  3
*D35
  1

  0
LINE
  5
3DF
330
3DE
100
AcDbEntity
  8
1
  6
Continuous
 62
     2
100
AcDbLine
 10
-2052.27960871494
 20
2545.986842203257
 30
0.0
 11
-1957.279608714939
 21
2545.986842203257
 31
0.0
  0
LINE
  5
3E0
330
3DE
100
AcDbEntity
  8
1
  6
Continuous
 62
     2
100
AcDbLine
 10
-2052.27960871494
 20
2492.986842203257
 30
0.0
 11
-2052.27960871494
 21
2548.986842203257
 31
0.0
  0
LINE
  5
3E1
330
3DE
100
AcDbEntity
  8
1
  6
Continuous
 62
     2
100
AcDbLine
 10
-1957.279608714939
 20
2502.218421775685
 30
0.0
 11
-1957.279608714939
 21
2548.986842203257
 31
0.0
  0
SOLID
  5
3E2
330
3DE
100
AcDbEntity
  8
1
 62
     2
100
AcDbTrace
 10
-2047.02960871494
 20
2546.67801781559
 30
0.0
 11
-2047.02960871494
 21
2545.295666590923
 31
0.0
 12
-2052.27960871494
 22
2545.986842203257
 32
0.0
 13
-2052.27960871494
 23
2545.986842203257
 33
0.0
  0
SOLID
  5
3E3
330
3DE
100
AcDbEntity
  8
1
 62
     2
100
AcDbTrace
 10
-1962.529608714939
 20
2545.295666590923
 30
0.0
 11
-1962.529608714939
 21
2546.67801781559
 31
0.0
 12
-1957.279608714939
 22
2545.986842203257
 32
0.0
 13
-1957.279608714939
 23
2545.986842203257
 33
0.0
  0
MTEXT
  5
3E4
330
3DE
100
AcDbEntity
  8
1
 62
     2
100
AcDbMText
 10
-2013.907399476147
 20
2548.986842203257
 30
0.0
 40
7.5
 41
0.0
 71
     7
 72
     1
  1
95
  7
CONVERTER_11
 11
0.9999999999970619
 21
2.424068405545306E-6
 31
0.0
 73
     1
 44
0.60024009603842
  0
ENDBLK
  5
3E6
330
3DE
100
AcDbEntity
  8
0
100
AcDbBlockEnd
  0
BLOCK
  5
3F0
330
3E9
100
AcDbEntity
  8
0
100
AcDbBlockBegin
  2
*D36
 70
     1
 10
0.0
 20
0.0
 30
0.0
  3
*D36
  1

  0
LINE
  5
3EA
330
3E9
100
AcDbEntity
  8
1
  6
Continuous
 62
     2
100
AcDbLine
 10
-1957.279608714938
 20
2545.986842203257
 30
0.0
 11
-1862.279608714938
 21
2545.986842203257
 31
0.0
  0
LINE
  5
3EB
330
3E9
100
AcDbEntity
  8
1
  6
Continuous
 62
     2
100
AcDbLine
 10
-1957.279608714938
 20
2502.218421775685
 30
0.0
 11
-1957.279608714938
 21
2548.986842203257
 31
0.0
  0
LINE
  5
3EC
330
3E9
100
AcDbEntity
  8
1
  6
Continuous
 62
     2
100
AcDbLine
 10
-1862.279608714938
 20
2492.986842203257
 30
0.0
 11
-1862.279608714938
 21
2548.986842203257
 31
0.0
  0
SOLID
  5
3ED
330
3E9
100
AcDbEntity
  8
1
 62
     2
100
AcDbTrace
 10
-1952.029608714938
 20
2546.67801781559
 30
0.0
 11
-1952.029608714938
 21
2545.295666590923
 31
0.0
 12
-1957.279608714938
 22
2545.986842203257
 32
0.0
 13
-1957.279608714938
 23
2545.986842203257
 33
0.0
  0
SOLID
  5
3EE
330
3E9
100
AcDbEntity
  8
1
 62
     2
100
AcDbTrace
 10
-1867.529608714938
 20
2545.295666590923
 30
0.0
 11
-1867.529608714938
 21
2546.67801781559
 31
0.0
 12
-1862.279608714938
 22
2545.986842203257
 32
0.0
 13
-1862.279608714938
 23
2545.986842203257
 33
0.0
  0
MTEXT
  5
3EF
330
3E9
100
AcDbEntity
  8
1
 62
     2
100
AcDbMText
 10
-1916.164296443337
 20
2548.986842203257
 30
0.0
 40
7.5
 41
0.0
 71
     7
 72
     1
  1
95
  7
CONVERTER_11
 11
0.9999999999970619
 21
2.424068405545306E-6
 31
0.0
 73
     1
 44
0.60024009603842
  0
ENDBLK
  5
3F1
330
3E9
100
AcDbEntity
  8
0
100
AcDbBlockEnd
  0
BLOCK
  5
3FB
330
3F4
100
AcDbEntity
  8
0
100
AcDbBlockBegin
  2
*D37
 70
     1
 10
0.0
 20
0.0
 30
0.0
  3
*D37
  1

  0
LINE
  5
3F5
330
3F4
100
AcDbEntity
  8
1
  6
Continuous
 62
     2
100
AcDbLine
 10
-2052.279608714939
 20
2566.986842203257
 30
0.0
 11
-1792.77960871494
 21
2566.986842203257
 31
0.0
  0
LINE
  5
3F6
330
3F4
100
AcDbEntity
  8
1
  6
Continuous
 62
     2
100
AcDbLine
 10
-2052.279608714939
 20
2492.986842203257
 30
0.0
 11
-2052.279608714939
 21
2569.986842203257
 31
0.0
  0
LINE
  5
3F7
330
3F4
100
AcDbEntity
  8
1
  6
Continuous
 62
     2
100
AcDbLine
 10
-1792.77960871494
 20
2503.986842203257
 30
0.0
 11
-1792.77960871494
 21
2569.986842203257
 31
0.0
  0
SOLID
  5
3F8
330
3F4
100
AcDbEntity
  8
1
 62
     2
100
AcDbTrace
 10
-1798.02960871494
 20
2566.295666590923
 30
0.0
 11
-1798.02960871494
 21
2567.67801781559
 31
0.0
 12
-1792.77960871494
 22
2566.986842203257
 32
0.0
 13
-1792.77960871494
 23
2566.986842203257
 33
0.0
  0
SOLID
  5
3F9
330
3F4
100
AcDbEntity
  8
1
 62
     2
100
AcDbTrace
 10
-2047.029608714939
 20
2567.67801781559
 30
0.0
 11
-2047.029608714939
 21
2566.295666590923
 31
0.0
 12
-2052.279608714939
 22
2566.986842203257
 32
0.0
 13
-2052.279608714939
 23
2566.986842203257
 33
0.0
  0
MTEXT
  5
3FA
330
3F4
100
AcDbEntity
  8
1
 62
     2
100
AcDbMText
 10
-1923.833714865127
 20
2569.986842203257
 30
0.0
 40
7.5
 41
0.0
 71
     7
 72
     1
  1
L
  7
CONVERTER_11
 11
0.9999999999970619
 21
2.424068405545306E-6
 31
0.0
 73
     1
 44
0.60024009603842
  0
ENDBLK
  5
3FC
330
3F4
100
AcDbEntity
  8
0
100
AcDbBlockEnd
  0
BLOCK
  5
406
330
3FF
100
AcDbEntity
  8
0
100
AcDbBlockBegin
  2
*D38
 70
     1
 10
0.0
 20
0.0
 30
0.0
  3
*D38
  1

  0
LINE
  5
400
330
3FF
100
AcDbEntity
  8
1
  6
Continuous
 62
     2
100
AcDbLine
 10
-2094.279608714939
 20
2469.986842203255
 30
0.0
 11
-2094.279608714939
 21
2495.986842203256
 31
0.0
  0
LINE
  5
401
330
3FF
100
AcDbEntity
  8
1
  6
Continuous
 62
     2
100
AcDbLine
 10
-2055.75100570738
 20
2469.986842203255
 30
0.0
 11
-2097.279608714939
 21
2469.986842203255
 31
0.0
  0
LINE
  5
402
330
3FF
100
AcDbEntity
  8
1
  6
Continuous
 62
     2
100
AcDbLine
 10
-2049.279608714939
 20
2495.986842203256
 30
0.0
 11
-2097.279608714939
 21
2495.986842203256
 31
0.0
  0
SOLID
  5
403
330
3FF
100
AcDbEntity
  8
1
 62
     2
100
AcDbTrace
 10
-2093.588433102605
 20
2490.736842203256
 30
0.0
 11
-2094.970784327273
 21
2490.736842203256
 31
0.0
 12
-2094.279608714939
 22
2495.986842203256
 32
0.0
 13
-2094.279608714939
 23
2495.986842203256
 33
0.0
  0
SOLID
  5
404
330
3FF
100
AcDbEntity
  8
1
 62
     2
100
AcDbTrace
 10
-2094.970784327273
 20
2475.236842203255
 30
0.0
 11
-2093.588433102605
 21
2475.236842203255
 31
0.0
 12
-2094.279608714939
 22
2469.986842203255
 32
0.0
 13
-2094.279608714939
 23
2469.986842203255
 33
0.0
  0
MTEXT
  5
405
330
3FF
100
AcDbEntity
  8
1
 62
     2
100
AcDbMText
 10
-2097.279608714939
 20
2477.823812205801
 30
0.0
 40
7.5
 41
0.0
 71
     7
 72
     1
  1
26
  7
CONVERTER_11
 11
0.0
 21
1.0
 31
0.0
 73
     1
 44
0.60024009603842
  0
ENDBLK
  5
407
330
3FF
100
AcDbEntity
  8
0
100
AcDbBlockEnd
  0
BLOCK
  5
411
330
40A
100
AcDbEntity
  8
0
100
AcDbBlockBegin
  2
*D39
 70
     1
 10
0.0
 20
0.0
 30
0.0
  3
*D39
  1

  0
LINE
  5
40B
330
40A
100
AcDbEntity
  8
1
  6
Continuous
 62
     2
100
AcDbLine
 10
-2094.279608714939
 20
2305.986842203257
 30
0.0
 11
-2094.279608714939
 21
2331.986842203257
 31
0.0
  0
LINE
  5
40C
330
40A
100
AcDbEntity
  8
1
  6
Continuous
 62
     2
100
AcDbLine
 10
-2049.279608714939
 20
2305.986842203257
 30
0.0
 11
-2097.279608714939
 21
2305.986842203257
 31
0.0
  0
LINE
  5
40D
330
40A
100
AcDbEntity
  8
1
  6
Continuous
 62
     2
100
AcDbLine
 10
-2055.75100570738
 20
2331.986842203257
 30
0.0
 11
-2097.279608714939
 21
2331.986842203257
 31
0.0
  0
SOLID
  5
40E
330
40A
100
AcDbEntity
  8
1
 62
     2
100
AcDbTrace
 10
-2093.588433102605
 20
2326.736842203257
 30
0.0
 11
-2094.970784327273
 21
2326.736842203257
 31
0.0
 12
-2094.279608714939
 22
2331.986842203257
 32
0.0
 13
-2094.279608714939
 23
2331.986842203257
 33
0.0
  0
SOLID
  5
40F
330
40A
100
AcDbEntity
  8
1
 62
     2
100
AcDbTrace
 10
-2094.970784327273
 20
2311.236842203257
 30
0.0
 11
-2093.588433102605
 21
2311.236842203257
 31
0.0
 12
-2094.279608714939
 22
2305.986842203257
 32
0.0
 13
-2094.279608714939
 23
2305.986842203257
 33
0.0
  0
MTEXT
  5
410
330
40A
100
AcDbEntity
  8
1
 62
     2
100
AcDbMText
 10
-2097.279608714939
 20
2313.612900233891
 30
0.0
 40
7.5
 41
0.0
 71
     7
 72
     1
  1
26
  7
CONVERTER_11
 11
0.0
 21
1.0
 31
0.0
 73
     1
 44
0.60024009603842
  0
ENDBLK
  5
412
330
40A
100
AcDbEntity
  8
0
100
AcDbBlockEnd
  0
BLOCK
  5
41C
330
415
100
AcDbEntity
  8
0
100
AcDbBlockBegin
  2
*D40
 70
     1
 10
0.0
 20
0.0
 30
0.0
  3
*D40
  1

  0
LINE
  5
416
330
415
100
AcDbEntity
  8
1
  6
Continuous
 62
     2
100
AcDbLine
 10
-2094.279608714939
 20
2331.986842203257
 30
0.0
 11
-2094.279608714939
 21
2469.986842203255
 31
0.0
  0
LINE
  5
417
330
415
100
AcDbEntity
  8
1
  6
Continuous
 62
     2
100
AcDbLine
 10
-2055.75100570738
 20
2331.986842203257
 30
0.0
 11
-2097.279608714939
 21
2331.986842203257
 31
0.0
  0
LINE
  5
418
330
415
100
AcDbEntity
  8
1
  6
Continuous
 62
     2
100
AcDbLine
 10
-2055.75100570738
 20
2469.986842203255
 30
0.0
 11
-2097.279608714939
 21
2469.986842203255
 31
0.0
  0
SOLID
  5
419
330
415
100
AcDbEntity
  8
1
 62
     2
100
AcDbTrace
 10
-2093.588433102605
 20
2464.736842203255
 30
0.0
 11
-2094.970784327273
 21
2464.736842203255
 31
0.0
 12
-2094.279608714939
 22
2469.986842203255
 32
0.0
 13
-2094.279608714939
 23
2469.986842203255
 33
0.0
  0
SOLID
  5
41A
330
415
100
AcDbEntity
  8
1
 62
     2
100
AcDbTrace
 10
-2094.970784327273
 20
2337.236842203257
 30
0.0
 11
-2093.588433102605
 21
2337.236842203257
 31
0.0
 12
-2094.279608714939
 22
2331.986842203257
 32
0.0
 13
-2094.279608714939
 23
2331.986842203257
 33
0.0
  0
MTEXT
  5
41B
330
415
100
AcDbEntity
  8
1
 62
     2
100
AcDbMText
 10
-2097.279608714939
 20
2393.111842203257
 30
0.0
 40
7.5
 41
0.0
 71
     7
 72
     1
  1
138
  7
CONVERTER_11
 11
0.0
 21
1.0
 31
0.0
 73
     1
 44
0.60024009603842
  0
ENDBLK
  5
41D
330
415
100
AcDbEntity
  8
0
100
AcDbBlockEnd
  0
BLOCK
  5
428
330
420
100
AcDbEntity
  8
0
100
AcDbBlockBegin
  2
*D41
 70
     1
 10
0.0
 20
0.0
 30
0.0
  3
*D41
  1

  0
LINE
  5
421
330
420
100
AcDbEntity
  8
1
  6
Continuous
 62
     2
100
AcDbLine
 10
-2115.279608714939
 20
2305.986842203257
 30
0.0
 11
-2115.279608714939
 21
2355.986842203255
 31
0.0
  0
LINE
  5
422
330
420
100
AcDbEntity
  8
1
  6
Continuous
 62
     2
100
AcDbLine
 10
-2049.279608714939
 20
2305.986842203257
 30
0.0
 11
-2118.279608714939
 21
2305.986842203257
 31
0.0
  0
LINE
  5
423
330
420
100
AcDbEntity
  8
1
  6
Continuous
 62
     2
100
AcDbLine
 10
-2052.279608714939
 20
2355.986842203255
 30
0.0
 11
-2091.279608714939
 21
2355.986842203255
 31
0.0
  0
LINE
  5
424
330
420
100
AcDbEntity
  8
1
  6
Continuous
 62
     2
100
AcDbLine
 10
-2097.279608714939
 20
2355.986842203255
 30
0.0
 11
-2118.279608714939
 21
2355.986842203255
 31
0.0
  0
SOLID
  5
425
330
420
100
AcDbEntity
  8
1
 62
     2
100
AcDbTrace
 10
-2115.970784327273
 20
2311.236842203257
 30
0.0
 11
-2114.588433102605
 21
2311.236842203257
 31
0.0
 12
-2115.279608714939
 22
2305.986842203257
 32
0.0
 13
-2115.279608714939
 23
2305.986842203257
 33
0.0
  0
SOLID
  5
426
330
420
100
AcDbEntity
  8
1
 62
     2
100
AcDbTrace
 10
-2114.588433102605
 20
2350.736842203255
 30
0.0
 11
-2115.970784327273
 21
2350.736842203255
 31
0.0
 12
-2115.279608714939
 22
2355.986842203255
 32
0.0
 13
-2115.279608714939
 23
2355.986842203255
 33
0.0
  0
MTEXT
  5
427
330
420
100
AcDbEntity
  8
1
 62
     2
100
AcDbMText
 10
-2118.279608714939
 20
2327.273426706421
 30
0.0
 40
7.5
 41
0.0
 71
     7
 72
     1
  1
50
  7
CONVERTER_11
 11
0.0
 21
1.0
 31
0.0
 73
     1
 44
0.60024009603842
  0
ENDBLK
  5
429
330
420
100
AcDbEntity
  8
0
100
AcDbBlockEnd
  0
BLOCK
  5
434
330
42C
100
AcDbEntity
  8
0
100
AcDbBlockBegin
  2
*D42
 70
     1
 10
0.0
 20
0.0
 30
0.0
  3
*D42
  1

  0
LINE
  5
42D
330
42C
100
AcDbEntity
  8
1
  6
Continuous
 62
     2
100
AcDbLine
 10
-2115.279608714939
 20
2445.986842203257
 30
0.0
 11
-2115.279608714939
 21
2495.986842203256
 31
0.0
  0
LINE
  5
42E
330
42C
100
AcDbEntity
  8
1
  6
Continuous
 62
     2
100
AcDbLine
 10
-2052.279608714939
 20
2445.986842203257
 30
0.0
 11
-2091.279608714939
 21
2445.986842203257
 31
0.0
  0
LINE
  5
42F
330
42C
100
AcDbEntity
  8
1
  6
Continuous
 62
     2
100
AcDbLine
 10
-2097.279608714939
 20
2445.986842203257
 30
0.0
 11
-2118.279608714939
 21
2445.986842203257
 31
0.0
  0
LINE
  5
430
330
42C
100
AcDbEntity
  8
1
  6
Continuous
 62
     2
100
AcDbLine
 10
-2049.279608714939
 20
2495.986842203256
 30
0.0
 11
-2118.279608714939
 21
2495.986842203256
 31
0.0
  0
SOLID
  5
431
330
42C
100
AcDbEntity
  8
1
 62
     2
100
AcDbTrace
 10
-2115.970784327273
 20
2451.236842203257
 30
0.0
 11
-2114.588433102605
 21
2451.236842203257
 31
0.0
 12
-2115.279608714939
 22
2445.986842203257
 32
0.0
 13
-2115.279608714939
 23
2445.986842203257
 33
0.0
  0
SOLID
  5
432
330
42C
100
AcDbEntity
  8
1
 62
     2
100
AcDbTrace
 10
-2114.588433102605
 20
2490.736842203256
 30
0.0
 11
-2115.970784327273
 21
2490.736842203256
 31
0.0
 12
-2115.279608714939
 22
2495.986842203256
 32
0.0
 13
-2115.279608714939
 23
2495.986842203256
 33
0.0
  0
MTEXT
  5
433
330
42C
100
AcDbEntity
  8
1
 62
     2
100
AcDbMText
 10
-2118.279608714939
 20
2467.863011652911
 30
0.0
 40
7.5
 41
0.0
 71
     7
 72
     1
  1
50
  7
CONVERTER_11
 11
0.0
 21
1.0
 31
0.0
 73
     1
 44
0.60024009603842
  0
ENDBLK
  5
435
330
42C
100
AcDbEntity
  8
0
100
AcDbBlockEnd
  0
BLOCK
  5
441
330
438
100
AcDbEntity
  8
0
100
AcDbBlockBegin
  2
*D43
 70
     1
 10
0.0
 20
0.0
 30
0.0
  3
*D43
  1

  0
LINE
  5
439
330
438
100
AcDbEntity
  8
1
  6
Continuous
 62
     2
100
AcDbLine
 10
-2115.279608714939
 20
2355.986842203255
 30
0.0
 11
-2115.279608714939
 21
2445.986842203257
 31
0.0
  0
LINE
  5
43A
330
438
100
AcDbEntity
  8
1
  6
Continuous
 62
     2
100
AcDbLine
 10
-2052.279608714939
 20
2355.986842203255
 30
0.0
 11
-2091.279608714939
 21
2355.986842203255
 31
0.0
  0
LINE
  5
43B
330
438
100
AcDbEntity
  8
1
  6
Continuous
 62
     2
100
AcDbLine
 10
-2097.279608714939
 20
2355.986842203255
 30
0.0
 11
-2118.279608714939
 21
2355.986842203255
 31
0.0
  0
LINE
  5
43C
330
438
100
AcDbEntity
  8
1
  6
Continuous
 62
     2
100
AcDbLine
 10
-2052.279608714939
 20
2445.986842203257
 30
0.0
 11
-2091.279608714939
 21
2445.986842203257
 31
0.0
  0
LINE
  5
43D
330
438
100
AcDbEntity
  8
1
  6
Continuous
 62
     2
100
AcDbLine
 10
-2097.279608714939
 20
2445.986842203257
 30
0.0
 11
-2118.279608714939
 21
2445.986842203257
 31
0.0
  0
SOLID
  5
43E
330
438
100
AcDbEntity
  8
1
 62
     2
100
AcDbTrace
 10
-2115.970784327273
 20
2361.236842203255
 30
0.0
 11
-2114.588433102605
 21
2361.236842203255
 31
0.0
 12
-2115.279608714939
 22
2355.986842203255
 32
0.0
 13
-2115.279608714939
 23
2355.986842203255
 33
0.0
  0
SOLID
  5
43F
330
438
100
AcDbEntity
  8
1
 62
     2
100
AcDbTrace
 10
-2114.588433102605
 20
2440.736842203257
 30
0.0
 11
-2115.970784327273
 21
2440.736842203257
 31
0.0
 12
-2115.279608714939
 22
2445.986842203257
 32
0.0
 13
-2115.279608714939
 23
2445.986842203257
 33
0.0
  0
MTEXT
  5
440
330
438
100
AcDbEntity
  8
1
 62
     2
100
AcDbMText
 10
-2118.279608714939
 20
2395.361842203257
 30
0.0
 40
7.5
 41
0.0
 71
     7
 72
     1
  1
90
  7
CONVERTER_11
 11
0.0
 21
1.0
 31
0.0
 73
     1
 44
0.60024009603842
  0
ENDBLK
  5
442
330
438
100
AcDbEntity
  8
0
100
AcDbBlockEnd
  0
BLOCK
  5
44C
330
445
100
AcDbEntity
  8
0
100
AcDbBlockBegin
  2
*D44
 70
     1
 10
0.0
 20
0.0
 30
0.0
  3
*D44
  1

  0
LINE
  5
446
330
445
100
AcDbEntity
  8
1
  6
Continuous
 62
     2
100
AcDbLine
 10
-2052.279608714939
 20
2263.986842203257
 30
0.0
 11
-2026.279608714938
 21
2263.986842203257
 31
0.0
  0
LINE
  5
447
330
445
100
AcDbEntity
  8
1
  6
Continuous
 62
     2
100
AcDbLine
 10
-2052.279608714939
 20
2308.986842203255
 30
0.0
 11
-2052.279608714939
 21
2260.986842203257
 31
0.0
  0
LINE
  5
448
330
445
100
AcDbEntity
  8
1
  6
Continuous
 62
     2
100
AcDbLine
 10
-2026.279608714938
 20
2300.184964785505
 30
0.0
 11
-2026.279608714938
 21
2260.986842203257
 31
0.0
  0
SOLID
  5
449
330
445
100
AcDbEntity
  8
1
 62
     2
100
AcDbTrace
 10
-2047.029608714939
 20
2264.67801781559
 30
0.0
 11
-2047.029608714939
 21
2263.295666590923
 31
0.0
 12
-2052.279608714939
 22
2263.986842203257
 32
0.0
 13
-2052.279608714939
 23
2263.986842203257
 33
0.0
  0
SOLID
  5
44A
330
445
100
AcDbEntity
  8
1
 62
     2
100
AcDbTrace
 10
-2031.529608714938
 20
2263.295666590923
 30
0.0
 11
-2031.529608714938
 21
2264.67801781559
 31
0.0
 12
-2026.279608714938
 22
2263.986842203257
 32
0.0
 13
-2026.279608714938
 23
2263.986842203257
 33
0.0
  0
MTEXT
  5
44B
330
445
100
AcDbEntity
  8
1
 62
     2
100
AcDbMText
 10
-2045.358504858797
 20
2266.986842203257
 30
0.0
 40
7.5
 41
0.0
 71
     7
 72
     1
  1
26
  7
CONVERTER_11
 11
0.9999999999970619
 21
2.424068405545306E-6
 31
0.0
 73
     1
 44
0.60024009603842
  0
ENDBLK
  5
44D
330
445
100
AcDbEntity
  8
0
100
AcDbBlockEnd
  0
BLOCK
  5
457
330
450
100
AcDbEntity
  8
0
100
AcDbBlockBegin
  2
*D45
 70
     1
 10
0.0
 20
0.0
 30
0.0
  3
*D45
  1

  0
LINE
  5
451
330
450
100
AcDbEntity
  8
1
  6
Continuous
 62
     2
100
AcDbLine
 10
-1888.279608714938
 20
2263.986842203257
 30
0.0
 11
-1862.279608714938
 21
2263.986842203257
 31
0.0
  0
LINE
  5
452
330
450
100
AcDbEntity
  8
1
  6
Continuous
 62
     2
100
AcDbLine
 10
-1888.279608714938
 20
2301.764911648945
 30
0.0
 11
-1888.279608714938
 21
2260.986842203257
 31
0.0
  0
LINE
  5
453
330
450
100
AcDbEntity
  8
1
  6
Continuous
 62
     2
100
AcDbLine
 10
-1862.279608714938
 20
2308.986842203255
 30
0.0
 11
-1862.279608714938
 21
2260.986842203257
 31
0.0
  0
SOLID
  5
454
330
450
100
AcDbEntity
  8
1
 62
     2
100
AcDbTrace
 10
-1883.029608714938
 20
2264.67801781559
 30
0.0
 11
-1883.029608714938
 21
2263.295666590923
 31
0.0
 12
-1888.279608714938
 22
2263.986842203257
 32
0.0
 13
-1888.279608714938
 23
2263.986842203257
 33
0.0
  0
SOLID
  5
455
330
450
100
AcDbEntity
  8
1
 62
     2
100
AcDbTrace
 10
-1867.529608714938
 20
2263.295666590923
 30
0.0
 11
-1867.529608714938
 21
2264.67801781559
 31
0.0
 12
-1862.279608714938
 22
2263.986842203257
 32
0.0
 13
-1862.279608714938
 23
2263.986842203257
 33
0.0
  0
MTEXT
  5
456
330
450
100
AcDbEntity
  8
1
 62
     2
100
AcDbMText
 10
-1880.311761589037
 20
2266.986842203257
 30
0.0
 40
7.5
 41
0.0
 71
     7
 72
     1
  1
26
  7
CONVERTER_11
 11
0.9999999999970619
 21
2.424068405545306E-6
 31
0.0
 73
     1
 44
0.60024009603842
  0
ENDBLK
  5
458
330
450
100
AcDbEntity
  8
0
100
AcDbBlockEnd
  0
BLOCK
  5
462
330
45B
100
AcDbEntity
  8
0
100
AcDbBlockBegin
  2
*D46
 70
     1
 10
0.0
 20
0.0
 30
0.0
  3
*D46
  1

  0
LINE
  5
45C
330
45B
100
AcDbEntity
  8
1
  6
Continuous
 62
     2
100
AcDbLine
 10
-2026.279608714938
 20
2263.986842203257
 30
0.0
 11
-1888.279608714938
 21
2263.986842203257
 31
0.0
  0
LINE
  5
45D
330
45B
100
AcDbEntity
  8
1
  6
Continuous
 62
     2
100
AcDbLine
 10
-2026.279608714938
 20
2300.184964785505
 30
0.0
 11
-2026.279608714938
 21
2260.986842203257
 31
0.0
  0
LINE
  5
45E
330
45B
100
AcDbEntity
  8
1
  6
Continuous
 62
     2
100
AcDbLine
 10
-1888.279608714938
 20
2301.764911648945
 30
0.0
 11
-1888.279608714938
 21
2260.986842203257
 31
0.0
  0
SOLID
  5
45F
330
45B
100
AcDbEntity
  8
1
 62
     2
100
AcDbTrace
 10
-2021.029608714938
 20
2264.67801781559
 30
0.0
 11
-2021.029608714938
 21
2263.295666590923
 31
0.0
 12
-2026.279608714938
 22
2263.986842203257
 32
0.0
 13
-2026.279608714938
 23
2263.986842203257
 33
0.0
  0
SOLID
  5
460
330
45B
100
AcDbEntity
  8
1
 62
     2
100
AcDbTrace
 10
-1893.529608714938
 20
2263.295666590923
 30
0.0
 11
-1893.529608714938
 21
2264.67801781559
 31
0.0
 12
-1888.279608714938
 22
2263.986842203257
 32
0.0
 13
-1888.279608714938
 23
2263.986842203257
 33
0.0
  0
MTEXT
  5
461
330
45B
100
AcDbEntity
  8
1
 62
     2
100
AcDbMText
 10
-1965.154608714939
 20
2266.986842203257
 30
0.0
 40
7.5
 41
0.0
 71
     7
 72
     1
  1
138
  7
CONVERTER_11
 11
0.9999999999970619
 21
2.424068405545306E-6
 31
0.0
 73
     1
 44
0.60024009603842
  0
ENDBLK
  5
463
330
45B
100
AcDbEntity
  8
0
100
AcDbBlockEnd
  0
BLOCK
  5
46E
330
466
100
AcDbEntity
  8
0
100
AcDbBlockBegin
  2
*D47
 70
     1
 10
0.0
 20
0.0
 30
0.0
  3
*D47
  1

  0
LINE
  5
467
330
466
100
AcDbEntity
  8
1
  6
Continuous
 62
     2
100
AcDbLine
 10
-2052.279608714939
 20
2242.986842203257
 30
0.0
 11
-2002.279608714939
 21
2242.986842203257
 31
0.0
  0
LINE
  5
468
330
466
100
AcDbEntity
  8
1
  6
Continuous
 62
     2
100
AcDbLine
 10
-2052.279608714939
 20
2308.986842203255
 30
0.0
 11
-2052.279608714939
 21
2239.986842203257
 31
0.0
  0
LINE
  5
469
330
466
100
AcDbEntity
  8
1
  6
Continuous
 62
     2
100
AcDbLine
 10
-2002.279608714939
 20
2305.986842203257
 30
0.0
 11
-2002.279608714939
 21
2266.986842203257
 31
0.0
  0
LINE
  5
46A
330
466
100
AcDbEntity
  8
1
  6
Continuous
 62
     2
100
AcDbLine
 10
-2002.279608714939
 20
2260.986842203257
 30
0.0
 11
-2002.279608714939
 21
2239.986842203257
 31
0.0
  0
SOLID
  5
46B
330
466
100
AcDbEntity
  8
1
 62
     2
100
AcDbTrace
 10
-2047.029608714939
 20
2243.67801781559
 30
0.0
 11
-2047.029608714939
 21
2242.295666590923
 31
0.0
 12
-2052.279608714939
 22
2242.986842203257
 32
0.0
 13
-2052.279608714939
 23
2242.986842203257
 33
0.0
  0
SOLID
  5
46C
330
466
100
AcDbEntity
  8
1
 62
     2
100
AcDbTrace
 10
-2007.529608714939
 20
2242.295666590923
 30
0.0
 11
-2007.529608714939
 21
2243.67801781559
 31
0.0
 12
-2002.279608714939
 22
2242.986842203257
 32
0.0
 13
-2002.279608714939
 23
2242.986842203257
 33
0.0
  0
MTEXT
  5
46D
330
466
100
AcDbEntity
  8
1
 62
     2
100
AcDbMText
 10
-2034.159856688637
 20
2245.986842203257
 30
0.0
 40
7.5
 41
0.0
 71
     7
 72
     1
  1
50
  7
CONVERTER_11
 11
0.9999999999970619
 21
2.424068405545306E-6
 31
0.0
 73
     1
 44
0.60024009603842
  0
ENDBLK
  5
46F
330
466
100
AcDbEntity
  8
0
100
AcDbBlockEnd
  0
BLOCK
  5
47A
330
472
100
AcDbEntity
  8
0
100
AcDbBlockBegin
  2
*D48
 70
     1
 10
0.0
 20
0.0
 30
0.0
  3
*D48
  1

  0
LINE
  5
473
330
472
100
AcDbEntity
  8
1
  6
Continuous
 62
     2
100
AcDbLine
 10
-1912.279608714938
 20
2242.986842203257
 30
0.0
 11
-1862.279608714938
 21
2242.986842203257
 31
0.0
  0
LINE
  5
474
330
472
100
AcDbEntity
  8
1
  6
Continuous
 62
     2
100
AcDbLine
 10
-1912.279608714938
 20
2305.986842203255
 30
0.0
 11
-1912.279608714938
 21
2266.986842203257
 31
0.0
  0
LINE
  5
475
330
472
100
AcDbEntity
  8
1
  6
Continuous
 62
     2
100
AcDbLine
 10
-1912.279608714938
 20
2260.986842203257
 30
0.0
 11
-1912.279608714938
 21
2239.986842203257
 31
0.0
  0
LINE
  5
476
330
472
100
AcDbEntity
  8
1
  6
Continuous
 62
     2
100
AcDbLine
 10
-1862.279608714938
 20
2308.986842203255
 30
0.0
 11
-1862.279608714938
 21
2239.986842203257
 31
0.0
  0
SOLID
  5
477
330
472
100
AcDbEntity
  8
1
 62
     2
100
AcDbTrace
 10
-1907.029608714938
 20
2243.67801781559
 30
0.0
 11
-1907.029608714938
 21
2242.295666590923
 31
0.0
 12
-1912.279608714938
 22
2242.986842203257
 32
0.0
 13
-1912.279608714938
 23
2242.986842203257
 33
0.0
  0
SOLID
  5
478
330
472
100
AcDbEntity
  8
1
 62
     2
100
AcDbTrace
 10
-1867.529608714938
 20
2242.295666590923
 30
0.0
 11
-1867.529608714938
 21
2243.67801781559
 31
0.0
 12
-1862.279608714938
 22
2242.986842203257
 32
0.0
 13
-1862.279608714938
 23
2242.986842203257
 33
0.0
  0
MTEXT
  5
479
330
472
100
AcDbEntity
  8
1
 62
     2
100
AcDbMText
 10
-1892.043678719687
 20
2245.986842203257
 30
0.0
 40
7.5
 41
0.0
 71
     7
 72
     1
  1
50
  7
CONVERTER_11
 11
0.9999999999970619
 21
2.424068405545306E-6
 31
0.0
 73
     1
 44
0.60024009603842
  0
ENDBLK
  5
47B
330
472
100
AcDbEntity
  8
0
100
AcDbBlockEnd
  0
BLOCK
  5
487
330
47E
100
AcDbEntity
  8
0
100
AcDbBlockBegin
  2
*D49
 70
     1
 10
0.0
 20
0.0
 30
0.0
  3
*D49
  1

  0
LINE
  5
47F
330
47E
100
AcDbEntity
  8
1
  6
Continuous
 62
     2
100
AcDbLine
 10
-2002.279608714939
 20
2242.986842203257
 30
0.0
 11
-1912.279608714938
 21
2242.986842203257
 31
0.0
  0
LINE
  5
480
330
47E
100
AcDbEntity
  8
1
  6
Continuous
 62
     2
100
AcDbLine
 10
-2002.279608714939
 20
2305.986842203257
 30
0.0
 11
-2002.279608714939
 21
2266.986842203257
 31
0.0
  0
LINE
  5
481
330
47E
100
AcDbEntity
  8
1
  6
Continuous
 62
     2
100
AcDbLine
 10
-2002.279608714939
 20
2260.986842203257
 30
0.0
 11
-2002.279608714939
 21
2239.986842203257
 31
0.0
  0
LINE
  5
482
330
47E
100
AcDbEntity
  8
1
  6
Continuous
 62
     2
100
AcDbLine
 10
-1912.279608714938
 20
2305.986842203255
 30
0.0
 11
-1912.279608714938
 21
2266.986842203257
 31
0.0
  0
LINE
  5
483
330
47E
100
AcDbEntity
  8
1
  6
Continuous
 62
     2
100
AcDbLine
 10
-1912.279608714938
 20
2260.986842203257
 30
0.0
 11
-1912.279608714938
 21
2239.986842203257
 31
0.0
  0
SOLID
  5
484
330
47E
100
AcDbEntity
  8
1
 62
     2
100
AcDbTrace
 10
-1997.029608714939
 20
2243.67801781559
 30
0.0
 11
-1997.029608714939
 21
2242.295666590923
 31
0.0
 12
-2002.279608714939
 22
2242.986842203257
 32
0.0
 13
-2002.279608714939
 23
2242.986842203257
 33
0.0
  0
SOLID
  5
485
330
47E
100
AcDbEntity
  8
1
 62
     2
100
AcDbTrace
 10
-1917.529608714938
 20
2242.295666590923
 30
0.0
 11
-1917.529608714938
 21
2243.67801781559
 31
0.0
 12
-1912.279608714938
 22
2242.986842203257
 32
0.0
 13
-1912.279608714938
 23
2242.986842203257
 33
0.0
  0
MTEXT
  5
486
330
47E
100
AcDbEntity
  8
1
 62
     2
100
AcDbMText
 10
-1962.904608714939
 20
2245.986842203257
 30
0.0
 40
7.5
 41
0.0
 71
     7
 72
     1
  1
90
  7
CONVERTER_11
 11
0.9999999999970619
 21
2.424068405545306E-6
 31
0.0
 73
     1
 44
0.60024009603842
  0
ENDBLK
  5
488
330
47E
100
AcDbEntity
  8
0
100
AcDbBlockEnd
  0
BLOCK
  5
495
330
48B
100
AcDbEntity
  8
0
100
AcDbBlockBegin
  2
*D50
 70
     1
 10
0.0
 20
0.0
 30
0.0
  3
*D50
  1

  0
LINE
  5
48C
330
48B
100
AcDbEntity
  8
1
  6
Continuous
 62
     2
100
AcDbLine
 10
-2094.279608714939
 20
1972.000583048554
 30
0.0
 11
-2094.279608714939
 21
1961.500583048554
 31
0.0
  0
LINE
  5
48D
330
48B
100
AcDbEntity
  8
1
  6
Continuous
 62
     2
100
AcDbLine
 10
-2094.279608714939
 20
1952.500583048554
 30
0.0
 11
-2094.279608714939
 21
1961.500583048554
 31
0.0
  0
LINE
  5
48E
330
48B
100
AcDbEntity
  8
1
  6
Continuous
 62
     2
100
AcDbLine
 10
-2094.279608714939
 20
1952.500583048554
 30
0.0
 11
-2094.279608714939
 21
1941.957958395881
 31
0.0
  0
LINE
  5
48F
330
48B
100
AcDbEntity
  8
1
  6
Continuous
 62
     2
100
AcDbLine
 10
-2051.279608714939
 20
1952.500583048554
 30
0.0
 11
-2070.279608714939
 21
1952.500583048554
 31
0.0
  0
LINE
  5
490
330
48B
100
AcDbEntity
  8
1
  6
Continuous
 62
     2
100
AcDbLine
 10
-2076.279608714939
 20
1952.500583048554
 30
0.0
 11
-2097.279608714939
 21
1952.500583048554
 31
0.0
  0
LINE
  5
491
330
48B
100
AcDbEntity
  8
1
  6
Continuous
 62
     2
100
AcDbLine
 10
-2035.008502077475
 20
1961.500583048554
 30
0.0
 11
-2097.279608714939
 21
1961.500583048554
 31
0.0
  0
SOLID
  5
492
330
48B
100
AcDbEntity
  8
1
 62
     2
100
AcDbTrace
 10
-2093.588433102605
 20
1947.250583048554
 30
0.0
 11
-2094.970784327273
 21
1947.250583048554
 31
0.0
 12
-2094.279608714939
 22
1952.500583048554
 32
0.0
 13
-2094.279608714939
 23
1952.500583048554
 33
0.0
  0
SOLID
  5
493
330
48B
100
AcDbEntity
  8
1
 62
     2
100
AcDbTrace
 10
-2094.970784327273
 20
1966.750583048554
 30
0.0
 11
-2093.588433102605
 21
1966.750583048554
 31
0.0
 12
-2094.279608714939
 22
1961.500583048554
 32
0.0
 13
-2094.279608714939
 23
1961.500583048554
 33
0.0
  0
MTEXT
  5
494
330
48B
100
AcDbEntity
  8
1
 62
     2
100
AcDbMText
 10
-2097.279608714939
 20
1941.957958395881
 30
0.0
 40
7.5
 41
0.0
 71
     7
 72
     1
  1
9
  7
CONVERTER_11
 11
0.0
 21
1.0
 31
0.0
 73
     1
 44
0.60024009603842
  0
ENDBLK
  5
496
330
48B
100
AcDbEntity
  8
0
100
AcDbBlockEnd
  0
BLOCK
  5
4A2
330
499
100
AcDbEntity
  8
0
100
AcDbBlockBegin
  2
*D51
 70
     1
 10
0.0
 20
0.0
 30
0.0
  3
*D51
  1

  0
LINE
  5
49A
330
499
100
AcDbEntity
  8
1
  6
Continuous
 62
     2
100
AcDbLine
 10
-2094.279608714939
 20
2057.000583048554
 30
0.0
 11
-2094.279608714939
 21
2067.500583048554
 31
0.0
  0
LINE
  5
49B
330
499
100
AcDbEntity
  8
1
  6
Continuous
 62
     2
100
AcDbLine
 10
-2094.279608714939
 20
2067.500583048554
 30
0.0
 11
-2094.279608714939
 21
2076.500583048554
 31
0.0
  0
LINE
  5
49C
330
499
100
AcDbEntity
  8
1
  6
Continuous
 62
     2
100
AcDbLine
 10
-2094.279608714939
 20
2076.500583048554
 30
0.0
 11
-2094.279608714939
 21
2093.761313201161
 31
0.0
  0
LINE
  5
49D
330
499
100
AcDbEntity
  8
1
  6
Continuous
 62
     2
100
AcDbLine
 10
-2033.985612245844
 20
2067.500583048554
 30
0.0
 11
-2097.279608714939
 21
2067.500583048554
 31
0.0
  0
LINE
  5
49E
330
499
100
AcDbEntity
  8
1
  6
Continuous
 62
     2
100
AcDbLine
 10
-2051.279608714939
 20
2076.500583048554
 30
0.0
 11
-2097.279608714939
 21
2076.500583048554
 31
0.0
  0
SOLID
  5
49F
330
499
100
AcDbEntity
  8
1
 62
     2
100
AcDbTrace
 10
-2093.588433102605
 20
2062.250583048554
 30
0.0
 11
-2094.970784327273
 21
2062.250583048554
 31
0.0
 12
-2094.279608714939
 22
2067.500583048554
 32
0.0
 13
-2094.279608714939
 23
2067.500583048554
 33
0.0
  0
SOLID
  5
4A0
330
499
100
AcDbEntity
  8
1
 62
     2
100
AcDbTrace
 10
-2094.970784327273
 20
2081.750583048554
 30
0.0
 11
-2093.588433102605
 21
2081.750583048554
 31
0.0
 12
-2094.279608714939
 22
2076.500583048554
 32
0.0
 13
-2094.279608714939
 23
2076.500583048554
 33
0.0
  0
MTEXT
  5
4A1
330
499
100
AcDbEntity
  8
1
 62
     2
100
AcDbMText
 10
-2097.279608714939
 20
2089.261313201161
 30
0.0
 40
7.5
 41
0.0
 71
     7
 72
     1
  1
9
  7
CONVERTER_11
 11
0.0
 21
1.0
 31
0.0
 73
     1
 44
0.60024009603842
  0
ENDBLK
  5
4A3
330
499
100
AcDbEntity
  8
0
100
AcDbBlockEnd
  0
BLOCK
  5
4AD
330
4A6
100
AcDbEntity
  8
0
100
AcDbBlockBegin
  2
*D52
 70
     1
 10
0.0
 20
0.0
 30
0.0
  3
*D52
  1

  0
LINE
  5
4A7
330
4A6
100
AcDbEntity
  8
1
  6
Continuous
 62
     2
100
AcDbLine
 10
-2094.279608714939
 20
1961.500583048554
 30
0.0
 11
-2094.279608714939
 21
2067.500583048554
 31
0.0
  0
LINE
  5
4A8
330
4A6
100
AcDbEntity
  8
1
  6
Continuous
 62
     2
100
AcDbLine
 10
-2035.008502077475
 20
1961.500583048554
 30
0.0
 11
-2097.279608714939
 21
1961.500583048554
 31
0.0
  0
LINE
  5
4A9
330
4A6
100
AcDbEntity
  8
1
  6
Continuous
 62
     2
100
AcDbLine
 10
-2033.985612245844
 20
2067.500583048554
 30
0.0
 11
-2097.279608714939
 21
2067.500583048554
 31
0.0
  0
SOLID
  5
4AA
330
4A6
100
AcDbEntity
  8
1
 62
     2
100
AcDbTrace
 10
-2094.970784327273
 20
1966.750583048554
 30
0.0
 11
-2093.588433102605
 21
1966.750583048554
 31
0.0
 12
-2094.279608714939
 22
1961.500583048554
 32
0.0
 13
-2094.279608714939
 23
1961.500583048554
 33
0.0
  0
SOLID
  5
4AB
330
4A6
100
AcDbEntity
  8
1
 62
     2
100
AcDbTrace
 10
-2093.588433102605
 20
2062.250583048554
 30
0.0
 11
-2094.970784327273
 21
2062.250583048554
 31
0.0
 12
-2094.279608714939
 22
2067.500583048554
 32
0.0
 13
-2094.279608714939
 23
2067.500583048554
 33
0.0
  0
MTEXT
  5
4AC
330
4A6
100
AcDbEntity
  8
1
 62
     2
100
AcDbMText
 10
-2097.279608714939
 20
2007.014810096801
 30
0.0
 40
7.5
 41
0.0
 71
     7
 72
     1
  1
106
  7
CONVERTER_11
 11
0.0
 21
1.0
 31
0.0
 73
     1
 44
0.60024009603842
  0
ENDBLK
  5
4AE
330
4A6
100
AcDbEntity
  8
0
100
AcDbBlockEnd
  0
BLOCK
  5
4B9
330
4B1
100
AcDbEntity
  8
0
100
AcDbBlockBegin
  2
*D53
 70
     1
 10
0.0
 20
0.0
 30
0.0
  3
*D53
  1

  0
LINE
  5
4B2
330
4B1
100
AcDbEntity
  8
1
  6
Continuous
 62
     2
100
AcDbLine
 10
-2157.279608714939
 20
2081.500583048554
 30
0.0
 11
-2157.279608714939
 21
2156.500583048553
 31
0.0
  0
LINE
  5
4B3
330
4B1
100
AcDbEntity
  8
1
  6
Continuous
 62
     2
100
AcDbLine
 10
-2097.279608714939
 20
2081.500583048554
 30
0.0
 11
-2160.279608714939
 21
2081.500583048554
 31
0.0
  0
LINE
  5
4B4
330
4B1
100
AcDbEntity
  8
1
  6
Continuous
 62
     2
100
AcDbLine
 10
-2030.779608714938
 20
2081.500583048554
 30
0.0
 11
-2091.279608714939
 21
2081.500583048554
 31
0.0
  0
LINE
  5
4B5
330
4B1
100
AcDbEntity
  8
1
  6
Continuous
 62
     2
100
AcDbLine
 10
-1975.779608714938
 20
2156.500583048553
 30
0.0
 11
-2160.279608714939
 21
2156.500583048553
 31
0.0
  0
SOLID
  5
4B6
330
4B1
100
AcDbEntity
  8
1
 62
     2
100
AcDbTrace
 10
-2156.588433102605
 20
2151.250583048553
 30
0.0
 11
-2157.970784327273
 21
2151.250583048553
 31
0.0
 12
-2157.279608714939
 22
2156.500583048553
 32
0.0
 13
-2157.279608714939
 23
2156.500583048553
 33
0.0
  0
SOLID
  5
4B7
330
4B1
100
AcDbEntity
  8
1
 62
     2
100
AcDbTrace
 10
-2157.970784327273
 20
2086.750583048554
 30
0.0
 11
-2156.588433102605
 21
2086.750583048554
 31
0.0
 12
-2157.279608714939
 22
2081.500583048554
 32
0.0
 13
-2157.279608714939
 23
2081.500583048554
 33
0.0
  0
MTEXT
  5
4B8
330
4B1
100
AcDbEntity
  8
1
 62
     2
100
AcDbMText
 10
-2160.279608714939
 20
2116.15468052897
 30
0.0
 40
7.5
 41
0.0
 71
     7
 72
     1
  1
O
  7
CONVERTER_11
 11
0.0
 21
1.0
 31
0.0
 73
     1
 44
0.60024009603842
  0
ENDBLK
  5
4BA
330
4B1
100
AcDbEntity
  8
0
100
AcDbBlockEnd
  0
BLOCK
  5
4C4
330
4BD
100
AcDbEntity
  8
0
100
AcDbBlockBegin
  2
*D54
 70
     1
 10
0.0
 20
0.0
 30
0.0
  3
*D54
  1

  0
LINE
  5
4BE
330
4BD
100
AcDbEntity
  8
1
  6
Continuous
 62
     2
100
AcDbLine
 10
-2157.279608714939
 20
1840.000583048552
 30
0.0
 11
-2157.279608714939
 21
1920.500583048554
 31
0.0
  0
LINE
  5
4BF
330
4BD
100
AcDbEntity
  8
1
  6
Continuous
 62
     2
100
AcDbLine
 10
-1975.779608714938
 20
1840.000583048552
 30
0.0
 11
-2160.279608714939
 21
1840.000583048552
 31
0.0
  0
LINE
  5
4C0
330
4BD
100
AcDbEntity
  8
1
  6
Continuous
 62
     2
100
AcDbLine
 10
-2037.279608714938
 20
1920.500583048554
 30
0.0
 11
-2160.279608714939
 21
1920.500583048554
 31
0.0
  0
SOLID
  5
4C1
330
4BD
100
AcDbEntity
  8
1
 62
     2
100
AcDbTrace
 10
-2156.588433102605
 20
1915.250583048554
 30
0.0
 11
-2157.970784327273
 21
1915.250583048554
 31
0.0
 12
-2157.279608714939
 22
1920.500583048554
 32
0.0
 13
-2157.279608714939
 23
1920.500583048554
 33
0.0
  0
SOLID
  5
4C2
330
4BD
100
AcDbEntity
  8
1
 62
     2
100
AcDbTrace
 10
-2157.970784327273
 20
1845.250583048552
 30
0.0
 11
-2156.588433102605
 21
1845.250583048552
 31
0.0
 12
-2157.279608714939
 22
1840.000583048552
 32
0.0
 13
-2157.279608714939
 23
1840.000583048552
 33
0.0
  0
MTEXT
  5
4C3
330
4BD
100
AcDbEntity
  8
1
 62
     2
100
AcDbMText
 10
-2160.279608714939
 20
1877.625583048553
 30
0.0
 40
7.5
 41
0.0
 71
     7
 72
     1
  1
N
  7
CONVERTER_11
 11
0.0
 21
1.0
 31
0.0
 73
     1
 44
0.60024009603842
  0
ENDBLK
  5
4C5
330
4BD
100
AcDbEntity
  8
0
100
AcDbBlockEnd
  0
BLOCK
  5
4D0
330
4C8
100
AcDbEntity
  8
0
100
AcDbBlockBegin
  2
*D55
 70
     1
 10
0.0
 20
0.0
 30
0.0
  3
*D55
  1

  0
LINE
  5
4C9
330
4C8
100
AcDbEntity
  8
1
  6
Continuous
 62
     2
100
AcDbLine
 10
-2157.279608714939
 20
1920.500583048554
 30
0.0
 11
-2157.279608714939
 21
2081.500583048554
 31
0.0
  0
LINE
  5
4CA
330
4C8
100
AcDbEntity
  8
1
  6
Continuous
 62
     2
100
AcDbLine
 10
-2037.279608714938
 20
1920.500583048554
 30
0.0
 11
-2160.279608714939
 21
1920.500583048554
 31
0.0
  0
LINE
  5
4CB
330
4C8
100
AcDbEntity
  8
1
  6
Continuous
 62
     2
100
AcDbLine
 10
-2097.279608714939
 20
2081.500583048554
 30
0.0
 11
-2160.279608714939
 21
2081.500583048554
 31
0.0
  0
LINE
  5
4CC
330
4C8
100
AcDbEntity
  8
1
  6
Continuous
 62
     2
100
AcDbLine
 10
-2030.779608714938
 20
2081.500583048554
 30
0.0
 11
-2091.279608714939
 21
2081.500583048554
 31
0.0
  0
SOLID
  5
4CD
330
4C8
100
AcDbEntity
  8
1
 62
     2
100
AcDbTrace
 10
-2156.588433102605
 20
2076.250583048554
 30
0.0
 11
-2157.970784327273
 21
2076.250583048554
 31
0.0
 12
-2157.279608714939
 22
2081.500583048554
 32
0.0
 13
-2157.279608714939
 23
2081.500583048554
 33
0.0
  0
SOLID
  5
4CE
330
4C8
100
AcDbEntity
  8
1
 62
     2
100
AcDbTrace
 10
-2157.970784327273
 20
1925.750583048554
 30
0.0
 11
-2156.588433102605
 21
1925.750583048554
 31
0.0
 12
-2157.279608714939
 22
1920.500583048554
 32
0.0
 13
-2157.279608714939
 23
1920.500583048554
 33
0.0
  0
MTEXT
  5
4CF
330
4C8
100
AcDbEntity
  8
1
 62
     2
100
AcDbMText
 10
-2160.279608714939
 20
1993.125583048554
 30
0.0
 40
7.5
 41
0.0
 71
     7
 72
     1
  1
159
  7
CONVERTER_11
 11
0.0
 21
1.0
 31
0.0
 73
     1
 44
0.60024009603842
  0
ENDBLK
  5
4D1
330
4C8
100
AcDbEntity
  8
0
100
AcDbBlockEnd
  0
BLOCK
  5
4DA
330
4D4
100
AcDbEntity
  8
0
100
AcDbBlockBegin
  2
*D56
 70
     1
 10
0.0
 20
0.0
 30
0.0
  3
*D56
  1

  0
LINE
  5
4D5
330
4D4
100
AcDbEntity
  8
1
  6
Continuous
 62
     2
100
AcDbLine
 10
-1750.77960871494
 20
2348.986842203257
 30
0.0
 11
-1750.77960871494
 21
2438.923825252031
 31
0.0
  0
LINE
  5
4D6
330
4D4
100
AcDbEntity
  8
1
  6
Continuous
 62
     2
100
AcDbLine
 10
-1792.77960871494
 20
2348.986842203257
 30
0.0
 11
-1774.77960871494
 21
2348.986842203257
 31
0.0
  0
LINE
  5
4D7
330
4D4
100
AcDbEntity
  8
1
  6
Continuous
 62
     2
100
AcDbLine
 10
-1768.77960871494
 20
2348.986842203257
 30
0.0
 11
-1747.77960871494
 21
2348.986842203257
 31
0.0
  0
SOLID
  5
4D8
330
4D4
100
AcDbEntity
  8
1
 62
     2
100
AcDbTrace
 10
-1751.470784327274
 20
2354.236842203257
 30
0.0
 11
-1750.088433102606
 21
2354.236842203257
 31
0.0
 12
-1750.77960871494
 22
2348.986842203257
 32
0.0
 13
-1750.77960871494
 23
2348.986842203257
 33
0.0
  0
MTEXT
  5
4D9
330
4D4
100
AcDbEntity
  8
1
 62
     2
100
AcDbMText
 10
-1753.77960871494
 20
2415.373825252031
 30
0.0
 40
7.5
 41
0.0
 71
     7
 72
     1
  1
\C2;\U+00f8\C2; D
  7
CONVERTER_11
 11
0.0
 21
1.0
 31
0.0
 73
     1
 44
0.60024009603842
  0
ENDBLK
  5
4DB
330
4D4
100
AcDbEntity
  8
0
100
AcDbBlockEnd
  0
BLOCK
  5
4E2
330
4DD
100
AcDbEntity
  8
0
100
AcDbBlockBegin
  2
*D57
 70
     1
 10
0.0
 20
0.0
 30
0.0
  3
*D57
  1

  0
LINE
  5
4DE
330
4DD
100
AcDbEntity
  8
1
  6
Continuous
 62
     2
100
AcDbLine
 10
-1750.77960871494
 20
2503.986842203257
 30
0.0
 11
-1750.77960871494
 21
2450.014242002261
 31
0.0
  0
LINE
  5
4DF
330
4DD
100
AcDbEntity
  8
1
  6
Continuous
 62
     2
100
AcDbLine
 10
-1792.77960871494
 20
2503.986842203257
 30
0.0
 11
-1747.77960871494
 21
2503.986842203257
 31
0.0
  0
SOLID
  5
4E0
330
4DD
100
AcDbEntity
  8
1
 62
     2
100
AcDbTrace
 10
-1750.088433102606
 20
2498.736842203257
 30
0.0
 11
-1751.470784327274
 21
2498.736842203257
 31
0.0
 12
-1750.77960871494
 22
2503.986842203257
 32
0.0
 13
-1750.77960871494
 23
2503.986842203257
 33
0.0
  0
MTEXT
  5
4E1
330
4DD
100
AcDbEntity
  8
1
 62
     2
100
AcDbMText
 10
-1753.77960871494
 20
2445.964242002261
 30
0.0
 40
7.5
 41
0.0
 71
     7
 72
     1
  1
\C2;\U+00f8\C2; D
  7
CONVERTER_11
 11
0.0
 21
1.0
 31
0.0
 73
     1
 44
0.60024009603842
  0
ENDBLK
  5
4E3
330
4DD
100
AcDbEntity
  8
0
100
AcDbBlockEnd
  0
BLOCK
  5
4E9
330
4E5
100
AcDbEntity
  8
0
100
AcDbBlockBegin
  2
*D58
 70
     1
 10
0.0
 20
0.0
 30
0.0
  3
*D58
  1

  0
LINE
  5
4E6
330
4E5
100
AcDbEntity
  8
1
  6
Continuous
 62
     2
100
AcDbLine
 10
-1957.279608714938
 20
2081.500583048554
 30
0.0
 11
-2015.791696315559
 21
2109.808454826865
 31
0.0
  0
SOLID
  5
4E7
330
4E5
100
AcDbEntity
  8
1
 62
     2
100
AcDbTrace
 10
-2010.76470907689
 20
2108.144236382867
 30
0.0
 11
-2011.36673094182
 21
2106.899863214366
 31
0.0
 12
-2015.791696315559
 22
2109.808454826865
 32
0.0
 13
-2015.791696315559
 23
2109.808454826865
 33
0.0
  0
MTEXT
  5
4E8
330
4E5
100
AcDbEntity
  8
1
 62
     2
100
AcDbMText
 10
-2009.166235973225
 20
2109.935733111785
 30
0.0
 40
7.5
 41
0.0
 71
     7
 72
     1
  1
\C2;\U+00f8\C2;130
  7
CONVERTER_11
 11
0.9001859630864735
 21
-0.4355057196663191
 31
0.0
 73
     1
 44
0.60024009603842
  0
ENDBLK
  5
4EA
330
4E5
100
AcDbEntity
  8
0
100
AcDbBlockEnd
  0
BLOCK
  5
4F1
330
4EC
100
AcDbEntity
  8
0
100
AcDbBlockBegin
  2
*D59
 70
     1
 10
0.0
 20
0.0
 30
0.0
  3
*D59
  1

  0
LINE
  5
4ED
330
4EC
100
AcDbEntity
  8
1
  6
Continuous
 62
     2
100
AcDbLine
 10
-1898.971438658526
 20
2332.386483797459
 30
0.0
 11
-1948.378700756384
 21
2342.944929485981
 31
0.0
  0
SOLID
  5
4EE
330
4EC
100
AcDbEntity
  8
1
 62
     2
100
AcDbTrace
 10
-1921.241303796265
 20
2336.438823303722
 30
0.0
 11
-1920.952415096053
 21
2337.790651039504
 31
0.0
 12
-1915.962783904277
 22
2336.017573405235
 32
0.0
 13
-1915.962783904277
 23
2336.017573405235
 33
0.0
  0
SOLID
  5
4EF
330
4EC
100
AcDbEntity
  8
1
 62
     2
100
AcDbTrace
 10
-1901.394032079361
 20
2333.610979548539
 30
0.0
 11
-1901.682920779573
 21
2332.259151812757
 31
0.0
 12
-1906.672551971349
 22
2334.032229447027
 32
0.0
 13
-1906.672551971349
 23
2334.032229447027
 33
0.0
  0
MTEXT
  5
4F0
330
4EC
100
AcDbEntity
  8
1
 62
     2
100
AcDbMText
 10
-1951.555584912708
 20
2347.45850977853
 30
0.0
 40
7.5
 41
0.0
 71
     7
 72
     1
  1
\C2;\U+00f8\C2;9,5
  7
CONVERTER_11
 11
0.9779191508345881
 21
-0.2089835745482349
 31
0.0
 73
     1
 44
0.60024009603842
  0
ENDBLK
  5
4F2
330
4EC
100
AcDbEntity
  8
0
100
AcDbBlockEnd
  0
BLOCK
  5
4F9
330
4F4
100
AcDbEntity
  8
0
100
AcDbBlockBegin
  2
*D60
 70
     1
 10
0.0
 20
0.0
 30
0.0
  3
*D60
  1

  0
LINE
  5
4F5
330
4F4
100
AcDbEntity
  8
1
  6
Continuous
 62
     2
100
AcDbLine
 10
-1896.98390267369
 20
2356.708707328694
 30
0.0
 11
-2017.575314756187
 21
2405.264977077819
 31
0.0
  0
SOLID
  5
4F6
330
4F4
100
AcDbEntity
  8
1
 62
     2
100
AcDbTrace
 10
-2012.447116118421
 20
2403.94520343863
 30
0.0
 11
-2012.963437802675
 21
2402.662898160348
 31
0.0
 12
-2017.575314756187
 22
2405.264977077819
 32
0.0
 13
-2017.575314756187
 23
2405.264977077819
 33
0.0
  0
SOLID
  5
4F7
330
4F4
100
AcDbEntity
  8
1
 62
     2
100
AcDbTrace
 10
-1902.112101311456
 20
2358.028480967884
 30
0.0
 11
-1901.595779627202
 21
2359.310786246166
 31
0.0
 12
-1896.98390267369
 22
2356.708707328694
 32
0.0
 13
-1896.98390267369
 23
2356.708707328694
 33
0.0
  0
MTEXT
  5
4F8
330
4F4
100
AcDbEntity
  8
1
 62
     2
100
AcDbMText
 10
-2008.915501597468
 20
2405.012154565957
 30
0.0
 40
7.5
 41
0.0
 71
     7
 72
     1
  1
\C2;\U+00f8\C2;130
  7
CONVERTER_11
 11
0.9276262467884269
 21
-0.373509767300959
 31
0.0
 73
     1
 44
0.60024009603842
  0
ENDBLK
  5
4FA
330
4F4
100
AcDbEntity
  8
0
100
AcDbBlockEnd
  0
ENDSEC
  0
SECTION
  2
ENTITIES
  0
INSERT
  5
6C
330
1F
100
AcDbEntity
  8
0
100
AcDbBlockReference
  2
Top
 10
-564.3547972221506
 20
724.5483798406863
 30
0.0
 41
0.33333333333333
 42
0.33333333333333
 43
0.33333333333333
  0
ENDSEC
  0
SECTION
  2
OBJECTS
  0
DICTIONARY
  5
C
330
0
100
AcDbDictionary
281
     1
  3
ACAD_GROUP
350
D
  3
ACAD_LAYOUT
350
1A
  3
ACAD_MLEADERSTYLE
350
4FE
  3
ACAD_MLINESTYLE
350
17
  3
ACAD_PLOTSETTINGS
350
19
  3
ACAD_PLOTSTYLENAME
350
E
  3
ACAD_SCALELIST
350
47
  3
ACAD_VISUALSTYLE
350
2A
  3
AcDbVariableDictionary
350
4FC
  0
DICTIONARY
  5
D
102
{ACAD_REACTORS
330
C
102
}
330
C
100
AcDbDictionary
281
     1
  0
DICTIONARY
  5
1A
102
{ACAD_REACTORS
330
C
102
}
330
C
100
AcDbDictionary
281
     1
  3
Layout1
350
1E
  3
Layout2
350
26
  3
Model
350
22
  0
DICTIONARY
  5
4FE
102
{ACAD_REACTORS
330
C
102
}
330
C
100
AcDbDictionary
281
     1
  0
DICTIONARY
  5
17
102
{ACAD_REACTORS
330
C
102
}
330
C
100
AcDbDictionary
281
     1
  3
Standard
350
18
  0
DICTIONARY
  5
19
102
{ACAD_REACTORS
330
C
102
}
330
C
100
AcDbDictionary
281
     1
  0
ACDBDICTIONARYWDFLT
  5
E
102
{ACAD_REACTORS
330
C
102
}
330
C
100
AcDbDictionary
281
     1
  3
Normal
350
F
100
AcDbDictionaryWithDefault
340
F
  0
DICTIONARY
  5
47
102
{ACAD_REACTORS
330
C
102
}
330
C
100
AcDbDictionary
281
     1
  3
A0
350
48
  3
A1
350
49
  3
A2
350
4A
  3
A3
350
4B
  3
A4
350
4C
  3
A5
350
4D
  3
A6
350
4E
  3
A7
350
4F
  3
A8
350
50
  3
A9
350
51
  3
B0
350
52
  3
B1
350
53
  3
B2
350
54
  3
B3
350
55
  3
B4
350
56
  3
B5
350
57
  3
B6
350
58
  3
B7
350
59
  3
B8
350
5A
  3
B9
350
5B
  3
C0
350
5C
  3
C1
350
5D
  3
C2
350
5E
  3
C3
350
5F
  3
C4
350
60
  3
C5
350
61
  3
C6
350
62
  3
C7
350
63
  3
C8
350
64
  3
C9
350
65
  3
D0
350
66
  3
D1
350
67
  3
D2
350
68
  0
DICTIONARY
  5
2A
102
{ACAD_REACTORS
330
C
102
}
330
C
100
AcDbDictionary
281
     1
  3
2dWireframe
350
2F
  3
3D Hidden
350
31
  3
3dWireframe
350
30
  3
Basic
350
32
  3
Brighten
350
36
  3
ColorChange
350
3A
  3
Conceptual
350
34
  3
Dim
350
35
  3
Facepattern
350
39
  3
Flat
350
2B
  3
FlatWithEdges
350
2C
  3
Gouraud
350
2D
  3
GouraudWithEdges
350
2E
  3
Linepattern
350
38
  3
Realistic
350
33
  3
Thicken
350
37
  0
DICTIONARY
  5
4FC
102
{ACAD_REACTORS
330
C
102
}
330
C
100
AcDbDictionary
281
     1
  3
CANNOSCALE
350
4FF
  0
LAYOUT
  5
1E
102
{ACAD_REACTORS
330
1A
102
}
330
1A
100
AcDbPlotSettings
  1

  2
none_device
  4

  6

 40
0.0
 41
0.0
 42
0.0
 43
0.0
 44
0.0
 45
0.0
 46
0.0
 47
0.0
 48
0.0
 49
0.0
140
0.0
141
0.0
142
1.0
143
1.0
 70
   688
 72
     0
 73
     0
 74
     5
  7

 75
    16
147
1.0
148
0.0
149
0.0
100
AcDbLayout
  1
Layout1
 70
     1
 71
     1
 10
0.0
 20
0.0
 11
12.0
 21
9.0
 12
0.0
 22
0.0
 32
0.0
 14
1.00000000000000E+20
 24
1.00000000000000E+20
 34
1.00000000000000E+20
 15
-1.00000000000000E+20
 25
-1.00000000000000E+20
 35
-1.00000000000000E+20
146
0.0
 13
0.0
 23
0.0
 33
0.0
 16
1.0
 26
0.0
 36
0.0
 17
0.0
 27
1.0
 37
0.0
 76
     0
330
1B
  0
LAYOUT
  5
26
102
{ACAD_REACTORS
330
1A
102
}
330
1A
100
AcDbPlotSettings
  1

  2
none_device
  4

  6

 40
0.0
 41
0.0
 42
0.0
 43
0.0
 44
0.0
 45
0.0
 46
0.0
 47
0.0
 48
0.0
 49
0.0
140
0.0
141
0.0
142
1.0
143
1.0
 70
   688
 72
     0
 73
     0
 74
     5
  7

 75
    16
147
1.0
148
0.0
149
0.0
100
AcDbLayout
  1
Layout2
 70
     1
 71
     2
 10
0.0
 20
0.0
 11
0.0
 21
0.0
 12
0.0
 22
0.0
 32
0.0
 14
0.0
 24
0.0
 34
0.0
 15
0.0
 25
0.0
 35
0.0
146
0.0
 13
0.0
 23
0.0
 33
0.0
 16
1.0
 26
0.0
 36
0.0
 17
0.0
 27
1.0
 37
0.0
 76
     0
330
23
  0
LAYOUT
  5
22
102
{ACAD_REACTORS
330
1A
102
}
330
1A
100
AcDbPlotSettings
  1

  2
none_device
  4

  6

 40
0.0
 41
0.0
 42
0.0
 43
0.0
 44
0.0
 45
0.0
 46
0.0
 47
0.0
 48
0.0
 49
0.0
140
0.0
141
0.0
142
1.0
143
1.0
 70
  1712
 72
     0
 73
     0
 74
     0
  7

 75
     0
147
1.0
148
0.0
149
0.0
100
AcDbLayout
  1
Model
 70
     1
 71
     0
 10
0.0
 20
0.0
 11
12.0
 21
9.0
 12
0.0
 22
0.0
 32
0.0
 14
-774.3547972221513
 24
576.0483798406858
 34
0.0
 15
-354.3547972221513
 25
873.0483798406858
 35
0.0
146
0.0
 13
0.0
 23
0.0
 33
0.0
 16
1.0
 26
0.0
 36
0.0
 17
0.0
 27
1.0
 37
0.0
 76
     0
330
1F
331
29
  0
MLINESTYLE
  5
18
102
{ACAD_REACTORS
330
17
102
}
330
17
100
AcDbMlineStyle
  2
Standard
 70
     0
  3

 62
   256
 51
90.0
 52
90.0
 71
     2
 49
0.5
 62
   256
  6
BYLAYER
 49
-0.5
 62
   256
  6
BYLAYER
  0
ACDBPLACEHOLDER
  5
F
102
{ACAD_REACTORS
330
E
102
}
330
E
  0
SCALE
  5
48
102
{ACAD_REACTORS
330
47
102
}
330
47
100
AcDbScale
 70
     0
300
1:1
140
1.0
141
1.0
290
     1
  0
SCALE
  5
49
102
{ACAD_REACTORS
330
47
102
}
330
47
100
AcDbScale
 70
     0
300
1:2
140
1.0
141
2.0
290
     0
  0
SCALE
  5
4A
102
{ACAD_REACTORS
330
47
102
}
330
47
100
AcDbScale
 70
     0
300
1:4
140
1.0
141
4.0
290
     0
  0
SCALE
  5
4B
102
{ACAD_REACTORS
330
47
102
}
330
47
100
AcDbScale
 70
     0
300
1:5
140
1.0
141
5.0
290
     0
  0
SCALE
  5
4C
102
{ACAD_REACTORS
330
47
102
}
330
47
100
AcDbScale
 70
     0
300
1:8
140
1.0
141
8.0
290
     0
  0
SCALE
  5
4D
102
{ACAD_REACTORS
330
47
102
}
330
47
100
AcDbScale
 70
     0
300
1:10
140
1.0
141
10.0
290
     0
  0
SCALE
  5
4E
102
{ACAD_REACTORS
330
47
102
}
330
47
100
AcDbScale
 70
     0
300
1:16
140
1.0
141
16.0
290
     0
  0
SCALE
  5
4F
102
{ACAD_REACTORS
330
47
102
}
330
47
100
AcDbScale
 70
     0
300
1:20
140
1.0
141
20.0
290
     0
  0
SCALE
  5
50
102
{ACAD_REACTORS
330
47
102
}
330
47
100
AcDbScale
 70
     0
300
1:30
140
1.0
141
30.0
290
     0
  0
SCALE
  5
51
102
{ACAD_REACTORS
330
47
102
}
330
47
100
AcDbScale
 70
     0
300
1:40
140
1.0
141
40.0
290
     0
  0
SCALE
  5
52
102
{ACAD_REACTORS
330
47
102
}
330
47
100
AcDbScale
 70
     0
300
1:50
140
1.0
141
50.0
290
     0
  0
SCALE
  5
53
102
{ACAD_REACTORS
330
47
102
}
330
47
100
AcDbScale
 70
     0
300
1:100
140
1.0
141
100.0
290
     0
  0
SCALE
  5
54
102
{ACAD_REACTORS
330
47
102
}
330
47
100
AcDbScale
 70
     0
300
2:1
140
2.0
141
1.0
290
     0
  0
SCALE
  5
55
102
{ACAD_REACTORS
330
47
102
}
330
47
100
AcDbScale
 70
     0
300
4:1
140
4.0
141
1.0
290
     0
  0
SCALE
  5
56
102
{ACAD_REACTORS
330
47
102
}
330
47
100
AcDbScale
 70
     0
300
8:1
140
8.0
141
1.0
290
     0
  0
SCALE
  5
57
102
{ACAD_REACTORS
330
47
102
}
330
47
100
AcDbScale
 70
     0
300
10:1
140
10.0
141
1.0
290
     0
  0
SCALE
  5
58
102
{ACAD_REACTORS
330
47
102
}
330
47
100
AcDbScale
 70
     0
300
100:1
140
100.0
141
1.0
290
     0
  0
SCALE
  5
59
102
{ACAD_REACTORS
330
47
102
}
330
47
100
AcDbScale
 70
     0
300
1/128" = 1'-0"
140
0.0078125
141
12.0
290
     0
  0
SCALE
  5
5A
102
{ACAD_REACTORS
330
47
102
}
330
47
100
AcDbScale
 70
     0
300
1/64" = 1'-0"
140
0.015625
141
12.0
290
     0
  0
SCALE
  5
5B
102
{ACAD_REACTORS
330
47
102
}
330
47
100
AcDbScale
 70
     0
300
1/32" = 1'-0"
140
0.03125
141
12.0
290
     0
  0
SCALE
  5
5C
102
{ACAD_REACTORS
330
47
102
}
330
47
100
AcDbScale
 70
     0
300
1/16" = 1'-0"
140
0.0625
141
12.0
290
     0
  0
SCALE
  5
5D
102
{ACAD_REACTORS
330
47
102
}
330
47
100
AcDbScale
 70
     0
300
3/32" = 1'-0"
140
0.09375
141
12.0
290
     0
  0
SCALE
  5
5E
102
{ACAD_REACTORS
330
47
102
}
330
47
100
AcDbScale
 70
     0
300
1/8" = 1'-0"
140
0.125
141
12.0
290
     0
  0
SCALE
  5
5F
102
{ACAD_REACTORS
330
47
102
}
330
47
100
AcDbScale
 70
     0
300
3/16" = 1'-0"
140
0.1875
141
12.0
290
     0
  0
SCALE
  5
60
102
{ACAD_REACTORS
330
47
102
}
330
47
100
AcDbScale
 70
     0
300
1/4" = 1'-0"
140
0.25
141
12.0
290
     0
  0
SCALE
  5
61
102
{ACAD_REACTORS
330
47
102
}
330
47
100
AcDbScale
 70
     0
300
3/8" = 1'-0"
140
0.375
141
12.0
290
     0
  0
SCALE
  5
62
102
{ACAD_REACTORS
330
47
102
}
330
47
100
AcDbScale
 70
     0
300
1/2" = 1'-0"
140
0.5
141
12.0
290
     0
  0
SCALE
  5
63
102
{ACAD_REACTORS
330
47
102
}
330
47
100
AcDbScale
 70
     0
300
3/4" = 1'-0"
140
0.75
141
12.0
290
     0
  0
SCALE
  5
64
102
{ACAD_REACTORS
330
47
102
}
330
47
100
AcDbScale
 70
     0
300
1" = 1'-0"
140
1.0
141
12.0
290
     0
  0
SCALE
  5
65
102
{ACAD_REACTORS
330
47
102
}
330
47
100
AcDbScale
 70
     0
300
1-1/2" = 1'-0"
140
1.5
141
12.0
290
     0
  0
SCALE
  5
66
102
{ACAD_REACTORS
330
47
102
}
330
47
100
AcDbScale
 70
     0
300
3" = 1'-0"
140
3.0
141
12.0
290
     0
  0
SCALE
  5
67
102
{ACAD_REACTORS
330
47
102
}
330
47
100
AcDbScale
 70
     0
300
6" = 1'-0"
140
6.0
141
12.0
290
     0
  0
SCALE
  5
68
102
{ACAD_REACTORS
330
47
102
}
330
47
100
AcDbScale
 70
     0
300
1'-0" = 1'-0"
140
12.0
141
12.0
290
     0
  0
VISUALSTYLE
  5
2F
102
{ACAD_REACTORS
330
2A
102
}
330
2A
100
AcDbVisualStyle
  2
2dWireframe
 70
     4
 71
     0
 72
     2
 73
     0
 90
        0
 40
-0.6
 41
-30.0
 62
     5
 63
     7
 74
     1
 91
        4
 64
     7
 65
   257
 75
     1
175
     1
 42
1.0
 92
        0
 66
   257
 43
1.0
 76
     1
 77
     6
 78
     2
 67
     7
 79
     5
170
     0
171
     0
290
     0
174
     0
 93
        1
 44
0.0
173
     0
291
     0
 45
0.0
1001
ACAD
1000
AcDbSavedByObjectVersion
1070
     0
  0
VISUALSTYLE
  5
31
102
{ACAD_REACTORS
330
2A
102
}
330
2A
100
AcDbVisualStyle
  2
3D Hidden
 70
     6
 71
     1
 72
     2
 73
     2
 90
        0
 40
-0.6
 41
-30.0
 62
     5
 63
     7
 74
     2
 91
        2
 64
     7
 65
   257
 75
     2
175
     1
 42
40.0
 92
        0
 66
   257
 43
1.0
 76
     1
 77
     6
 78
     2
 67
     7
 79
     3
170
     0
171
     0
290
     0
174
     0
 93
        1
 44
0.0
173
     0
291
     0
 45
0.0
1001
ACAD
1000
AcDbSavedByObjectVersion
1070
     0
  0
VISUALSTYLE
  5
30
102
{ACAD_REACTORS
330
2A
102
}
330
2A
100
AcDbVisualStyle
  2
3dWireframe
 70
     5
 71
     0
 72
     2
 73
     0
 90
        0
 40
-0.6
 41
-30.0
 62
     5
 63
     7
 74
     1
 91
        4
 64
     7
 65
   257
 75
     1
175
     1
 42
1.0
 92
        0
 66
   257
 43
1.0
 76
     1
 77
     6
 78
     2
 67
     7
 79
     5
170
     0
171
     0
290
     0
174
     0
 93
        1
 44
0.0
173
     0
291
     0
 45
0.0
1001
ACAD
1000
AcDbSavedByObjectVersion
1070
     0
  0
VISUALSTYLE
  5
32
102
{ACAD_REACTORS
330
2A
102
}
330
2A
100
AcDbVisualStyle
  2
Basic
 70
     7
 71
     1
 72
     0
 73
     1
 90
        0
 40
-0.6
 41
-30.0
 62
     5
 63
     7
 74
     0
 91
        4
 64
     7
 65
   257
 75
     1
175
     1
 42
1.0
 92
        8
 66
     7
 43
1.0
 76
     1
 77
     6
 78
     2
 67
     7
 79
     5
170
     0
171
     0
290
     0
174
     0
 93
        1
 44
0.0
173
     0
291
     1
 45
0.0
1001
ACAD
1000
AcDbSavedByObjectVersion
1070
     0
  0
VISUALSTYLE
  5
36
102
{ACAD_REACTORS
330
2A
102
}
330
2A
100
AcDbVisualStyle
  2
Brighten
 70
    12
 71
     2
 72
     2
 73
     0
 90
        0
 40
-0.6
 41
-30.0
 62
     5
 63
     7
 74
     1
 91
        4
 64
     7
 65
   257
 75
     1
175
     1
 42
1.0
 92
        8
 66
     7
 43
1.0
 76
     1
 77
     6
 78
     2
 67
     7
 79
     5
170
     0
171
     0
290
     0
174
     0
 93
        1
 44
50.0
173
     0
291
     1
 45
0.0
1001
ACAD
1000
AcDbSavedByObjectVersion
1070
     0
  0
VISUALSTYLE
  5
3A
102
{ACAD_REACTORS
330
2A
102
}
330
2A
100
AcDbVisualStyle
  2
ColorChange
 70
    16
 71
     2
 72
     2
 73
     3
 90
        0
 40
-0.6
 41
-30.0
 62
     5
 63
     8
 74
     1
 91
        4
 64
     7
 65
   257
 75
     1
175
     1
 42
1.0
 92
        8
 66
     8
 43
1.0
 76
     1
 77
     6
 78
     2
 67
     7
 79
     5
170
     0
171
     0
290
     0
174
     0
 93
        1
 44
0.0
173
     0
291
     1
 45
0.0
1001
ACAD
1000
AcDbSavedByObjectVersion
1070
     0
  0
VISUALSTYLE
  5
34
102
{ACAD_REACTORS
330
2A
102
}
330
2A
100
AcDbVisualStyle
  2
Conceptual
 70
     9
 71
     3
 72
     2
 73
     0
 90
        0
 40
-0.6
 41
-30.0
 62
     5
 63
     7
 74
     2
 91
        2
 64
     7
 65
   257
 75
     1
175
     1
 42
40.0
 92
        8
 66
     7
 43
1.0
 76
     1
 77
     6
 78
     2
 67
     7
 79
     3
170
     0
171
     0
290
     0
174
     0
 93
        1
 44
0.0
173
     0
291
     0
 45
0.0
1001
ACAD
1000
AcDbSavedByObjectVersion
1070
     0
  0
VISUALSTYLE
  5
35
102
{ACAD_REACTORS
330
2A
102
}
330
2A
100
AcDbVisualStyle
  2
Dim
 70
    11
 71
     2
 72
     2
 73
     0
 90
        0
 40
-0.6
 41
-30.0
 62
     5
 63
     7
 74
     1
 91
        4
 64
     7
 65
   257
 75
     1
175
     1
 42
1.0
 92
        8
 66
     7
 43
1.0
 76
     1
 77
     6
 78
     2
 67
     7
 79
     5
170
     0
171
     0
290
     0
174
     0
 93
        1
 44
-50.0
173
     0
291
     1
 45
0.0
1001
ACAD
1000
AcDbSavedByObjectVersion
1070
     0
  0
VISUALSTYLE
  5
39
102
{ACAD_REACTORS
330
2A
102
}
330
2A
100
AcDbVisualStyle
  2
Facepattern
 70
    15
 71
     2
 72
     2
 73
     0
 90
        0
 40
-0.6
 41
-30.0
 62
     5
 63
     7
 74
     1
 91
        4
 64
     7
 65
   257
 75
     1
175
     1
 42
1.0
 92
        8
 66
     7
 43
1.0
 76
     1
 77
     6
 78
     2
 67
     7
 79
     5
170
     0
171
     0
290
     0
174
     0
 93
        1
 44
0.0
173
     0
291
     1
 45
0.0
1001
ACAD
1000
AcDbSavedByObjectVersion
1070
     0
  0
VISUALSTYLE
  5
2B
102
{ACAD_REACTORS
330
2A
102
}
330
2A
100
AcDbVisualStyle
  2
Flat
 70
     0
 71
     2
 72
     1
 73
     1
 90
        2
 40
-0.6
 41
30.0
 62
     5
 63
     7
 74
     0
 91
        4
 64
     7
 65
   257
 75
     1
175
     1
 42
1.0
 92
        8
 66
     7
 43
1.0
 76
     1
 77
     6
 78
     2
 67
     7
 79
     5
170
     0
171
     0
290
     0
174
     0
 93
       13
 44
0.0
173
     0
291
     1
 45
0.0
1001
ACAD
1000
AcDbSavedByObjectVersion
1070
     0
  0
VISUALSTYLE
  5
2C
102
{ACAD_REACTORS
330
2A
102
}
330
2A
100
AcDbVisualStyle
  2
FlatWithEdges
 70
     1
 71
     2
 72
     1
 73
     1
 90
        2
 40
-0.6
 41
30.0
 62
     5
 63
     7
 74
     1
 91
        4
 64
     7
 65
   257
 75
     1
175
     1
 42
1.0
 92
        0
 66
   257
 43
1.0
 76
     1
 77
     6
 78
     2
 67
     7
 79
     5
170
     0
171
     0
290
     0
174
     0
 93
       13
 44
0.0
173
     0
291
     1
 45
0.0
1001
ACAD
1000
AcDbSavedByObjectVersion
1070
     0
  0
VISUALSTYLE
  5
2D
102
{ACAD_REACTORS
330
2A
102
}
330
2A
100
AcDbVisualStyle
  2
Gouraud
 70
     2
 71
     2
 72
     2
 73
     1
 90
        2
 40
-0.6
 41
30.0
 62
     5
 63
     7
 74
     0
 91
        4
 64
     7
 65
   257
 75
     1
175
     1
 42
1.0
 92
        0
 66
     7
 43
1.0
 76
     1
 77
     6
 78
     2
 67
     7
 79
     5
170
     0
171
     0
290
     0
174
     0
 93
       13
 44
0.0
173
     0
291
     1
 45
0.0
1001
ACAD
1000
AcDbSavedByObjectVersion
1070
     0
  0
VISUALSTYLE
  5
2E
102
{ACAD_REACTORS
330
2A
102
}
330
2A
100
AcDbVisualStyle
  2
GouraudWithEdges
 70
     3
 71
     2
 72
     2
 73
     1
 90
        2
 40
-0.6
 41
30.0
 62
     5
 63
     7
 74
     1
 91
        4
 64
     7
 65
   257
 75
     1
175
     1
 42
1.0
 92
        0
 66
   257
 43
1.0
 76
     1
 77
     6
 78
     2
 67
     7
 79
     5
170
     0
171
     0
290
     0
174
     0
 93
       13
 44
0.0
173
     0
291
     1
 45
0.0
1001
ACAD
1000
AcDbSavedByObjectVersion
1070
     0
  0
VISUALSTYLE
  5
38
102
{ACAD_REACTORS
330
2A
102
}
330
2A
100
AcDbVisualStyle
  2
Linepattern
 70
    14
 71
     2
 72
     2
 73
     0
 90
        0
 40
-0.6
 41
-30.0
 62
     5
 63
     7
 74
     1
 91
        4
 64
     7
 65
   257
 75
     7
175
     7
 42
1.0
 92
        8
 66
     7
 43
1.0
 76
     1
 77
     6
 78
     2
 67
     7
 79
     5
170
     0
171
     0
290
     0
174
     0
 93
        1
 44
0.0
173
     0
291
     1
 45
0.0
1001
ACAD
1000
AcDbSavedByObjectVersion
1070
     0
  0
VISUALSTYLE
  5
33
102
{ACAD_REACTORS
330
2A
102
}
330
2A
100
AcDbVisualStyle
  2
Realistic
 70
     8
 71
     2
 72
     2
 73
     0
 90
        0
 40
-0.6
 41
-30.0
 62
     5
 63
     7
 74
     1
 91
        0
 64
     7
 65
   257
 75
     1
175
     1
 42
1.0
 92
        8
 66
     8
 43
1.0
 76
     1
 77
     6
 78
     2
 67
     7
 79
     5
170
     0
171
     0
290
     0
174
     0
 93
       13
 44
0.0
173
     0
291
     0
 45
0.0
1001
ACAD
1000
AcDbSavedByObjectVersion
1070
     0
  0
VISUALSTYLE
  5
37
102
{ACAD_REACTORS
330
2A
102
}
330
2A
100
AcDbVisualStyle
  2
Thicken
 70
    13
 71
     2
 72
     2
 73
     0
 90
        0
 40
-0.6
 41
-30.0
 62
     5
 63
     7
 74
     1
 91
        4
 64
     7
 65
   257
 75
     1
175
     1
 42
1.0
 92
       12
 66
     7
 43
1.0
 76
     1
 77
     6
 78
     2
 67
     7
 79
     5
170
     0
171
     0
290
     0
174
     0
 93
        1
 44
0.0
173
     0
291
     1
 45
0.0
1001
ACAD
1000
AcDbSavedByObjectVersion
1070
     0
  0
DICTIONARYVAR
  5
4FF
102
{ACAD_REACTORS
330
4FC
102
}
330
4FC
100
DictionaryVariables
280
     0
  1
1:1
  0
ENDSEC
  0
EOF
