  0
SECTION
  2
HEADER
  9
$ACADVER
  1
AC1015
  9
$ACADMAINTVER
 70
     6
  9
$DWGCODEPAGE
  3
ANSI_1252
  9
$INSBASE
 10
0.0
 20
0.0
 30
0.0
  9
$EXTMIN
 10
314.9754109738406
 20
-7.21080031984502
 30
0.0
  9
$EXTMAX
 10
734.9754109738406
 20
289.789199680155
 30
0.0
  9
$LIMMIN
 10
0.0
 20
0.0
  9
$LIMMAX
 10
12.0
 20
9.0
  9
$ORTHOMODE
 70
     0
  9
$REGENMODE
 70
     1
  9
$FILLMODE
 70
     1
  9
$QTEXTMODE
 70
     0
  9
$MIRRTEXT
 70
     1
  9
$LTSCALE
 40
1.0
  9
$ATTMODE
 70
     1
  9
$TEXTSIZE
 40
0.2
  9
$TRACEWID
 40
0.05
  9
$TEXTSTYLE
  7
Standard
  9
$CLAYER
  8
0
  9
$CELTYPE
  6
ByLayer
  9
$CECOLOR
 62
   256
  9
$CELTSCALE
 40
1.0
  9
$DISPSILH
 70
     0
  9
$DIMSCALE
 40
1.0
  9
$DIMASZ
 40
0.18
  9
$DIMEXO
 40
0.0625
  9
$DIMDLI
 40
0.38
  9
$DIMRND
 40
0.0
  9
$DIMDLE
 40
0.0
  9
$DIMEXE
 40
0.18
  9
$DIMTP
 40
0.0
  9
$DIMTM
 40
0.0
  9
$DIMTXT
 40
0.18
  9
$DIMCEN
 40
0.09
  9
$DIMTSZ
 40
0.0
  9
$DIMTOL
 70
     0
  9
$DIMLIM
 70
     0
  9
$DIMTIH
 70
     1
  9
$DIMTOH
 70
     1
  9
$DIMSE1
 70
     0
  9
$DIMSE2
 70
     0
  9
$DIMTAD
 70
     0
  9
$DIMZIN
 70
     0
  9
$DIMBLK
  1

  9
$DIMASO
 70
     1
  9
$DIMSHO
 70
     1
  9
$DIMPOST
  1

  9
$DIMAPOST
  1

  9
$DIMALT
 70
     0
  9
$DIMALTD
 70
     2
  9
$DIMALTF
 40
25.4
  9
$DIMLFAC
 40
1.0
  9
$DIMTOFL
 70
     0
  9
$DIMTVP
 40
0.0
  9
$DIMTIX
 70
     0
  9
$DIMSOXD
 70
     0
  9
$DIMSAH
 70
     0
  9
$DIMBLK1
  1

  9
$DIMBLK2
  1

  9
$DIMSTYLE
  2
Standard
  9
$DIMCLRD
 70
     0
  9
$DIMCLRE
 70
     0
  9
$DIMCLRT
 70
     0
  9
$DIMTFAC
 40
1.0
  9
$DIMGAP
 40
0.09
  9
$DIMJUST
 70
     0
  9
$DIMSD1
 70
     0
  9
$DIMSD2
 70
     0
  9
$DIMTOLJ
 70
     1
  9
$DIMTZIN
 70
     0
  9
$DIMALTZ
 70
     0
  9
$DIMALTTZ
 70
     0
  9
$DIMUPT
 70
     0
  9
$DIMDEC
 70
     4
  9
$DIMTDEC
 70
     4
  9
$DIMALTU
 70
     2
  9
$DIMALTTD
 70
     2
  9
$DIMTXSTY
  7
Standard
  9
$DIMAUNIT
 70
     0
  9
$DIMADEC
 70
     0
  9
$DIMALTRND
 40
0.0
  9
$DIMAZIN
 70
     0
  9
$DIMDSEP
 70
    46
  9
$DIMATFIT
 70
     3
  9
$DIMFRAC
 70
     0
  9
$DIMLDRBLK
  1

  9
$DIMLUNIT
 70
     2
  9
$DIMLWD
 70
    -2
  9
$DIMLWE
 70
    -2
  9
$DIMTMOVE
 70
     0
  9
$LUNITS
 70
     2
  9
$LUPREC
 70
     4
  9
$SKETCHINC
 40
0.1
  9
$FILLETRAD
 40
0.5
  9
$AUNITS
 70
     0
  9
$AUPREC
 70
     0
  9
$MENU
  1
.
  9
$ELEVATION
 40
0.0
  9
$PELEVATION
 40
0.0
  9
$THICKNESS
 40
0.0
  9
$LIMCHECK
 70
     0
  9
$CHAMFERA
 40
0.5
  9
$CHAMFERB
 40
0.5
  9
$CHAMFERC
 40
1.0
  9
$CHAMFERD
 40
0.0
  9
$SKPOLY
 70
     0
  9
$TDCREATE
 40
2455569.585595174
  9
$TDUCREATE
 40
2455569.543928507
  9
$TDUPDATE
 40
2455569.585595185
  9
$TDUUPDATE
 40
2455569.543928518
  9
$TDINDWG
 40
0.0000000116
  9
$TDUSRTIMER
 40
0.0000000116
  9
$USRTIMER
 70
     1
  9
$ANGBASE
 50
0.0
  9
$ANGDIR
 70
     0
  9
$PDMODE
 70
     0
  9
$PDSIZE
 40
0.0
  9
$PLINEWID
 40
0.0
  9
$SPLFRAME
 70
     0
  9
$SPLINETYPE
 70
     6
  9
$SPLINESEGS
 70
     8
  9
$HANDSEED
  5
56B
  9
$SURFTAB1
 70
     6
  9
$SURFTAB2
 70
     6
  9
$SURFTYPE
 70
     6
  9
$SURFU
 70
     6
  9
$SURFV
 70
     6
  9
$UCSBASE
  2

  9
$UCSNAME
  2

  9
$UCSORG
 10
0.0
 20
0.0
 30
0.0
  9
$UCSXDIR
 10
1.0
 20
0.0
 30
0.0
  9
$UCSYDIR
 10
0.0
 20
1.0
 30
0.0
  9
$UCSORTHOREF
  2

  9
$UCSORTHOVIEW
 70
     0
  9
$UCSORGTOP
 10
0.0
 20
0.0
 30
0.0
  9
$UCSORGBOTTOM
 10
0.0
 20
0.0
 30
0.0
  9
$UCSORGLEFT
 10
0.0
 20
0.0
 30
0.0
  9
$UCSORGRIGHT
 10
0.0
 20
0.0
 30
0.0
  9
$UCSORGFRONT
 10
0.0
 20
0.0
 30
0.0
  9
$UCSORGBACK
 10
0.0
 20
0.0
 30
0.0
  9
$PUCSBASE
  2

  9
$PUCSNAME
  2

  9
$PUCSORG
 10
0.0
 20
0.0
 30
0.0
  9
$PUCSXDIR
 10
1.0
 20
0.0
 30
0.0
  9
$PUCSYDIR
 10
0.0
 20
1.0
 30
0.0
  9
$PUCSORTHOREF
  2

  9
$PUCSORTHOVIEW
 70
     0
  9
$PUCSORGTOP
 10
0.0
 20
0.0
 30
0.0
  9
$PUCSORGBOTTOM
 10
0.0
 20
0.0
 30
0.0
  9
$PUCSORGLEFT
 10
0.0
 20
0.0
 30
0.0
  9
$PUCSORGRIGHT
 10
0.0
 20
0.0
 30
0.0
  9
$PUCSORGFRONT
 10
0.0
 20
0.0
 30
0.0
  9
$PUCSORGBACK
 10
0.0
 20
0.0
 30
0.0
  9
$USERI1
 70
     0
  9
$USERI2
 70
     0
  9
$USERI3
 70
     0
  9
$USERI4
 70
     0
  9
$USERI5
 70
     0
  9
$USERR1
 40
16.5
  9
$USERR2
 40
0.0
  9
$USERR3
 40
0.0
  9
$USERR4
 40
0.0
  9
$USERR5
 40
0.0
  9
$WORLDVIEW
 70
     1
  9
$SHADEDGE
 70
     3
  9
$SHADEDIF
 70
    70
  9
$TILEMODE
 70
     1
  9
$MAXACTVP
 70
    64
  9
$PINSBASE
 10
0.0
 20
0.0
 30
0.0
  9
$PLIMCHECK
 70
     0
  9
$PEXTMIN
 10
1.00000000000000E+20
 20
1.00000000000000E+20
 30
1.00000000000000E+20
  9
$PEXTMAX
 10
-1.00000000000000E+20
 20
-1.00000000000000E+20
 30
-1.00000000000000E+20
  9
$PLIMMIN
 10
0.0
 20
0.0
  9
$PLIMMAX
 10
12.0
 20
9.0
  9
$UNITMODE
 70
     0
  9
$VISRETAIN
 70
     1
  9
$PLINEGEN
 70
     0
  9
$PSLTSCALE
 70
     1
  9
$TREEDEPTH
 70
  3020
  9
$CMLSTYLE
  2
Standard
  9
$CMLJUST
 70
     0
  9
$CMLSCALE
 40
1.0
  9
$PROXYGRAPHICS
 70
     1
  9
$MEASUREMENT
 70
     1
  9
$CELWEIGHT
370
    -1
  9
$ENDCAPS
280
     0
  9
$JOINSTYLE
280
     0
  9
$LWDISPLAY
290
     0
  9
$INSUNITS
 70
     1
  9
$HYPERLINKBASE
  1

  9
$STYLESHEET
  1

  9
$XEDIT
290
     1
  9
$CEPSNTYPE
380
     0
  9
$PSTYLEMODE
290
     1
  9
$FINGERPRINTGUID
  2
{562D1FC6-48EB-4A72-A657-677B86246F22}
  9
$VERSIONGUID
  2
{FAEB1C32-E019-11D5-929B-00C0DF256EC4}
  9
$EXTNAMES
290
     1
  9
$PSVPSCALE
 40
0.0
  9
$OLESTARTUP
290
     0
  0
ENDSEC
  0
SECTION
  2
CLASSES
  0
CLASS
  1
ACDBDICTIONARYWDFLT
  2
AcDbDictionaryWithDefault
  3
ObjectDBX Classes
 90
        0
280
     0
281
     0
  0
CLASS
  1
VISUALSTYLE
  2
AcDbVisualStyle
  3
ObjectDBX Classes
 90
     4095
280
     0
281
     0
  0
CLASS
  1
SCALE
  2
AcDbScale
  3
ObjectDBX Classes
 90
     1153
280
     0
281
     0
  0
CLASS
  1

  2
exOdDbCircle
  3

 90
        0
280
     0
281
     1
  0
CLASS
  1

  2
exOdDbPolyline
  3

 90
        0
280
     0
281
     1
  0
CLASS
  1
DICTIONARYVAR
  2
AcDbDictionaryVar
  3
ObjectDBX Classes
 90
        0
280
     0
281
     0
  0
CLASS
  1
ACDBPLACEHOLDER
  2
AcDbPlaceHolder
  3
ObjectDBX Classes
 90
        0
280
     0
281
     0
  0
CLASS
  1
LAYOUT
  2
AcDbLayout
  3
ObjectDBX Classes
 90
        0
280
     0
281
     0
  0
ENDSEC
  0
SECTION
  2
TABLES
  0
TABLE
  2
VPORT
  5
8
330
0
100
AcDbSymbolTable
 70
     1
  0
VPORT
  5
29
330
8
100
AcDbSymbolTableRecord
100
AcDbViewportTableRecord
  2
*Active
 70
     0
 10
0.0
 20
0.0
 11
1.0
 21
1.0
 12
524.9754109738406
 22
141.289199680155
 13
0.0
 23
0.0
 14
0.5
 24
0.5
 15
0.5
 25
0.5
 16
0.0
 26
0.0
 36
1.0
 17
0.0
 27
0.0
 37
0.0
 40
326.7
 41
1.60267857142857
 42
50.0
 43
0.0
 44
0.0
 50
0.0
 51
0.0
 71
     0
 72
   100
 73
     1
 74
     3
 75
     0
 76
     0
 77
     0
 78
     0
281
     0
 65
     1
110
0.0
120
0.0
130
0.0
111
1.0
121
0.0
131
0.0
112
0.0
122
1.0
132
0.0
 79
     0
146
0.0
  0
ENDTAB
  0
TABLE
  2
LTYPE
  5
5
330
0
100
AcDbSymbolTable
 70
     8
  0
LTYPE
  5
14
330
5
100
AcDbSymbolTableRecord
100
AcDbLinetypeTableRecord
  2
ByBlock
 70
     0
  3

 72
    65
 73
     0
 40
0.0
  0
LTYPE
  5
15
330
5
100
AcDbSymbolTableRecord
100
AcDbLinetypeTableRecord
  2
ByLayer
 70
     0
  3

 72
    65
 73
     0
 40
0.0
  0
LTYPE
  5
16
330
5
100
AcDbSymbolTableRecord
100
AcDbLinetypeTableRecord
  2
Continuous
 70
     0
  3
Solid line
 72
    65
 73
     0
 40
0.0
  0
LTYPE
  5
3B
330
5
100
AcDbSymbolTableRecord
100
AcDbLinetypeTableRecord
  2
DASHED
 70
     0
  3
Dashed
 72
    65
 73
     2
 40
15.0
 49
7.0
 74
     0
 49
-8.0
 74
     0
  0
LTYPE
  5
3C
330
5
100
AcDbSymbolTableRecord
100
AcDbLinetypeTableRecord
  2
DOTTED
 70
     0
  3
Dotted
 72
    65
 73
     2
 40
1.0
 49
0.0
 74
     0
 49
-1.0
 74
     0
  0
LTYPE
  5
3D
330
5
100
AcDbSymbolTableRecord
100
AcDbLinetypeTableRecord
  2
DOT_CENTER
 70
     0
  3
Dot_Center
 72
    65
 73
     4
 40
14.0
 49
12.0
 74
     0
 49
-1.0
 74
     0
 49
0.0
 74
     0
 49
-1.0
 74
     0
  0
LTYPE
  5
3E
330
5
100
AcDbSymbolTableRecord
100
AcDbLinetypeTableRecord
  2
LONG_DASHED
 70
     0
  3
Long_Dashed
 72
    65
 73
     2
 40
15.0
 49
10.0
 74
     0
 49
-5.0
 74
     0
  0
LTYPE
  5
3F
330
5
100
AcDbSymbolTableRecord
100
AcDbLinetypeTableRecord
  2
DASH_CENTER
 70
     0
  3
Dash_Center
 72
    65
 73
     4
 40
14.0
 49
11.0
 74
     0
 49
-1.0
 74
     0
 49
1.0
 74
     0
 49
-1.0
 74
     0
  0
LTYPE
  5
40
330
5
100
AcDbSymbolTableRecord
100
AcDbLinetypeTableRecord
  2
PHANTOM
 70
     0
  3
Phantom
 72
    65
 73
     6
 40
13.0
 49
10.0
 74
     0
 49
-1.0
 74
     0
 49
0.0
 74
     0
 49
-1.0
 74
     0
 49
0.0
 74
     0
 49
-1.0
 74
     0
  0
LTYPE
  5
41
330
5
100
AcDbSymbolTableRecord
100
AcDbLinetypeTableRecord
  2
CENTER_DASH_DASH
 70
     0
  3
Center_Dash_Dash
 72
    65
 73
     6
 40
14.0
 49
9.0
 74
     0
 49
-1.0
 74
     0
 49
1.0
 74
     0
 49
-1.0
 74
     0
 49
1.0
 74
     0
 49
-1.0
 74
     0
  0
ENDTAB
  0
TABLE
  2
LAYER
  5
2
330
0
100
AcDbSymbolTable
 70
     2
  0
LAYER
  5
10
330
2
100
AcDbSymbolTableRecord
100
AcDbLayerTableRecord
  2
0
 70
     0
 62
     7
  6
Continuous
370
    -3
390
F
  0
LAYER
  5
42
330
2
100
AcDbSymbolTableRecord
100
AcDbLayerTableRecord
  2
1
 70
     0
 62
     7
  6
Continuous
370
    -3
390
F
  0
ENDTAB
  0
TABLE
  2
STYLE
  5
3
330
0
100
AcDbSymbolTable
 70
     2
  0
STYLE
  5
11
330
3
100
AcDbSymbolTableRecord
100
AcDbTextStyleTableRecord
  2
Standard
 70
     0
 40
0.0
 41
1.0
 50
0.0
 71
     0
 42
0.2
  3
txt
  4

  0
STYLE
  5
DC
330
3
100
AcDbSymbolTableRecord
100
AcDbTextStyleTableRecord
  2
CONVERTER_11
 70
     0
 40
0.0
 41
0.9
 50
0.0
 71
     0
 42
0.2
  3
txt.shx
  4

  0
ENDTAB
  0
TABLE
  2
VIEW
  5
6
330
0
100
AcDbSymbolTable
 70
     0
  0
ENDTAB
  0
TABLE
  2
UCS
  5
7
330
0
100
AcDbSymbolTable
 70
     0
  0
ENDTAB
  0
TABLE
  2
APPID
  5
9
330
0
100
AcDbSymbolTable
 70
     1
  0
APPID
  5
12
330
9
100
AcDbSymbolTableRecord
100
AcDbRegAppTableRecord
  2
ACAD
 70
     0
  0
ENDTAB
  0
TABLE
  2
DIMSTYLE
  5
A
330
0
100
AcDbSymbolTable
 70
    57
100
AcDbDimStyleTable
  0
DIMSTYLE
105
27
330
A
100
AcDbSymbolTableRecord
100
AcDbDimStyleTableRecord
  2
Standard
 70
     0
340
11
  0
DIMSTYLE
105
299
102
{ACAD_REACTORS
330
29A
102
}
330
A
100
AcDbSymbolTableRecord
100
AcDbDimStyleTableRecord
  2
ME10_DIM_10
 70
     0
 41
7.875
 42
0.0
 44
4.5
 73
     0
 74
     0
 77
     1
 78
     8
140
11.25
147
4.5
172
     1
173
     1
176
     2
177
     2
178
     2
271
     2
340
DC
343
295
  0
DIMSTYLE
105
2A6
102
{ACAD_REACTORS
330
2A7
102
}
330
A
100
AcDbSymbolTableRecord
100
AcDbDimStyleTableRecord
  2
ME10_DIM_11
 70
     0
 41
7.875
 42
0.0
 44
4.5
 73
     0
 74
     0
 77
     1
 78
     8
140
11.25
147
4.5
172
     1
173
     1
176
     2
177
     2
178
     2
271
     2
340
DC
  0
DIMSTYLE
105
2B1
102
{ACAD_REACTORS
330
2B2
102
}
330
A
100
AcDbSymbolTableRecord
100
AcDbDimStyleTableRecord
  2
ME10_DIM_12
 70
     0
  3
ø<>
 41
7.875
 42
0.0
 44
4.5
 73
     0
 74
     0
 77
     1
 78
     8
140
11.25
147
4.5
172
     1
173
     1
176
     2
177
     2
178
     2
271
     2
340
DC
  0
DIMSTYLE
105
2BD
102
{ACAD_REACTORS
330
2BE
102
}
330
A
100
AcDbSymbolTableRecord
100
AcDbDimStyleTableRecord
  2
ME10_DIM_13
 70
     0
 41
7.875
 42
0.0
 44
4.5
 73
     0
 74
     0
 77
     1
 78
     8
140
11.25
147
4.5
172
     1
173
     1
176
     2
177
     2
178
     2
271
     2
340
DC
343
295
  0
DIMSTYLE
105
2CA
102
{ACAD_REACTORS
330
2CB
102
}
330
A
100
AcDbSymbolTableRecord
100
AcDbDimStyleTableRecord
  2
ME10_DIM_14
 70
     0
 41
7.875
 42
0.0
 44
4.5
 73
     0
 74
     0
 77
     1
 78
     8
140
11.25
147
4.5
172
     1
173
     1
176
     2
177
     2
178
     2
271
     2
340
DC
  0
DIMSTYLE
105
2D8
102
{ACAD_REACTORS
330
2D9
102
}
330
A
100
AcDbSymbolTableRecord
100
AcDbDimStyleTableRecord
  2
ME10_DIM_15
 70
     0
 41
7.875
 42
0.0
 44
4.5
 73
     0
 74
     0
 77
     1
 78
     8
140
11.25
147
4.5
172
     1
173
     1
176
     2
177
     2
178
     2
271
     2
340
DC
  0
DIMSTYLE
105
2E5
102
{ACAD_REACTORS
330
2E6
102
}
330
A
100
AcDbSymbolTableRecord
100
AcDbDimStyleTableRecord
  2
ME10_DIM_16
 70
     0
 41
7.875
 42
0.0
 44
4.5
 73
     0
 74
     0
 77
     1
 78
     8
140
11.25
147
4.5
172
     1
173
     1
176
     2
177
     2
178
     2
271
     2
340
DC
  0
DIMSTYLE
105
2F2
102
{ACAD_REACTORS
330
2F3
102
}
330
A
100
AcDbSymbolTableRecord
100
AcDbDimStyleTableRecord
  2
ME10_DIM_17
 70
     0
 41
7.875
 42
0.0
 44
4.5
 73
     0
 74
     0
 77
     1
 78
     8
140
11.25
147
4.5
172
     1
173
     1
176
     2
177
     2
178
     2
271
     2
340
DC
  0
DIMSTYLE
105
2FF
102
{ACAD_REACTORS
330
300
102
}
330
A
100
AcDbSymbolTableRecord
100
AcDbDimStyleTableRecord
  2
ME10_DIM_18
 70
     0
 41
7.875
 42
0.0
 44
4.5
 73
     0
 74
     0
 77
     1
 78
     8
140
11.25
147
4.5
172
     1
173
     1
176
     2
177
     2
178
     2
271
     2
340
DC
  0
DIMSTYLE
105
30A
102
{ACAD_REACTORS
330
30B
102
}
330
A
100
AcDbSymbolTableRecord
100
AcDbDimStyleTableRecord
  2
ME10_DIM_19
 70
     0
 41
7.875
 42
0.0
 44
4.5
 73
     0
 74
     0
 77
     1
 78
     8
140
11.25
147
4.5
172
     1
173
     1
176
     2
177
     2
178
     2
271
     2
340
DC
  0
DIMSTYLE
105
316
102
{ACAD_REACTORS
330
317
102
}
330
A
100
AcDbSymbolTableRecord
100
AcDbDimStyleTableRecord
  2
ME10_DIM_20
 70
     0
 41
7.875
 42
0.0
 44
4.5
 73
     0
 74
     0
 77
     1
 78
     8
140
11.25
147
4.5
172
     1
173
     1
176
     2
177
     2
178
     2
271
     2
340
DC
  0
DIMSTYLE
105
323
102
{ACAD_REACTORS
330
324
102
}
330
A
100
AcDbSymbolTableRecord
100
AcDbDimStyleTableRecord
  2
ME10_DIM_21
 70
     0
 41
7.875
 42
0.0
 44
4.5
 73
     0
 74
     0
 77
     1
 78
     8
140
11.25
147
4.5
172
     1
173
     1
176
     2
177
     2
178
     2
271
     2
340
DC
  0
DIMSTYLE
105
32F
102
{ACAD_REACTORS
330
330
102
}
330
A
100
AcDbSymbolTableRecord
100
AcDbDimStyleTableRecord
  2
ME10_DIM_22
 70
     0
 41
7.875
 42
0.0
 44
4.5
 73
     0
 74
     0
 77
     1
 78
     8
140
11.25
147
4.5
172
     1
173
     1
176
     2
177
     2
178
     2
271
     2
340
DC
  0
DIMSTYLE
105
33A
102
{ACAD_REACTORS
330
33B
102
}
330
A
100
AcDbSymbolTableRecord
100
AcDbDimStyleTableRecord
  2
ME10_DIM_23
 70
     0
 41
7.875
 42
0.0
 44
4.5
 73
     0
 74
     0
 77
     1
 78
     8
140
11.25
147
4.5
172
     1
173
     1
176
     2
177
     2
178
     2
271
     2
340
DC
  0
DIMSTYLE
105
347
102
{ACAD_REACTORS
330
348
102
}
330
A
100
AcDbSymbolTableRecord
100
AcDbDimStyleTableRecord
  2
ME10_DIM_24
 70
     0
 41
7.875
 42
0.0
 44
4.5
 73
     0
 74
     0
 77
     1
 78
     8
140
11.25
147
4.5
172
     1
173
     1
176
     2
177
     2
178
     2
271
     2
340
DC
  0
DIMSTYLE
105
352
102
{ACAD_REACTORS
330
353
102
}
330
A
100
AcDbSymbolTableRecord
100
AcDbDimStyleTableRecord
  2
ME10_DIM_25
 70
     0
 41
7.875
 42
0.0
 44
4.5
 73
     0
 74
     0
 77
     1
 78
     8
140
11.25
147
4.5
172
     1
173
     1
176
     2
177
     2
178
     2
271
     2
340
DC
  0
DIMSTYLE
105
35D
102
{ACAD_REACTORS
330
35E
102
}
330
A
100
AcDbSymbolTableRecord
100
AcDbDimStyleTableRecord
  2
ME10_DIM_26
 70
     0
  3
ø<>-j5
 41
7.875
 42
0.0
 44
4.5
 73
     0
 74
     0
 77
     1
 78
     8
140
11.25
147
4.5
172
     1
173
     1
176
     2
177
     2
178
     2
271
     2
340
DC
  0
DIMSTYLE
105
368
102
{ACAD_REACTORS
330
369
102
}
330
A
100
AcDbSymbolTableRecord
100
AcDbDimStyleTableRecord
  2
ME10_DIM_27
 70
     0
  3
ø<>-j5
 41
7.875
 42
0.0
 44
4.5
 73
     0
 74
     0
 77
     1
 78
     8
140
11.25
147
4.5
172
     1
173
     1
176
     2
177
     2
178
     2
271
     2
340
DC
  0
DIMSTYLE
105
373
102
{ACAD_REACTORS
330
374
102
}
330
A
100
AcDbSymbolTableRecord
100
AcDbDimStyleTableRecord
  2
ME10_DIM_28
 70
     0
 41
7.875
 42
0.0
 44
4.5
 73
     0
 74
     0
 77
     1
 78
     8
140
11.25
147
4.5
172
     1
173
     1
176
     2
177
     2
178
     2
271
     2
340
DC
  0
DIMSTYLE
105
37E
102
{ACAD_REACTORS
330
37F
102
}
330
A
100
AcDbSymbolTableRecord
100
AcDbDimStyleTableRecord
  2
ME10_DIM_29
 70
     0
 41
7.875
 42
0.0
 44
4.5
 73
     0
 74
     0
 77
     1
 78
     8
140
11.25
147
4.5
172
     1
173
     1
176
     2
177
     2
178
     2
271
     2
340
DC
  0
DIMSTYLE
105
389
102
{ACAD_REACTORS
330
38A
102
}
330
A
100
AcDbSymbolTableRecord
100
AcDbDimStyleTableRecord
  2
ME10_DIM_30
 70
     0
 41
7.875
 42
0.0
 44
4.5
 73
     0
 74
     0
 77
     1
 78
     8
140
11.25
147
4.5
172
     1
173
     1
176
     2
177
     2
178
     2
271
     2
340
DC
  0
DIMSTYLE
105
395
102
{ACAD_REACTORS
330
396
102
}
330
A
100
AcDbSymbolTableRecord
100
AcDbDimStyleTableRecord
  2
ME10_DIM_31
 70
     0
 41
7.875
 42
0.0
 44
4.5
 73
     0
 74
     0
 77
     1
 78
     8
140
11.25
147
4.5
172
     1
173
     1
176
     2
177
     2
178
     2
271
     2
340
DC
  0
DIMSTYLE
105
3A2
102
{ACAD_REACTORS
330
3A3
102
}
330
A
100
AcDbSymbolTableRecord
100
AcDbDimStyleTableRecord
  2
ME10_DIM_32
 70
     0
 41
7.875
 42
0.0
 44
4.5
 73
     0
 74
     0
 77
     1
 78
     8
140
11.25
147
4.5
172
     1
173
     1
176
     2
177
     2
178
     2
271
     2
340
DC
  0
DIMSTYLE
105
3AE
102
{ACAD_REACTORS
330
3AF
102
}
330
A
100
AcDbSymbolTableRecord
100
AcDbDimStyleTableRecord
  2
ME10_DIM_33
 70
     0
 41
7.875
 42
0.0
 44
4.5
 73
     0
 74
     0
 77
     1
 78
     8
140
11.25
147
4.5
172
     1
173
     1
176
     2
177
     2
178
     2
271
     2
340
DC
  0
DIMSTYLE
105
3B9
102
{ACAD_REACTORS
330
3BA
102
}
330
A
100
AcDbSymbolTableRecord
100
AcDbDimStyleTableRecord
  2
ME10_DIM_34
 70
     0
 41
7.875
 42
0.0
 44
4.5
 73
     0
 74
     0
 77
     1
 78
     8
140
11.25
147
4.5
172
     1
173
     1
176
     2
177
     2
178
     2
271
     2
340
DC
  0
DIMSTYLE
105
3C4
102
{ACAD_REACTORS
330
3C5
102
}
330
A
100
AcDbSymbolTableRecord
100
AcDbDimStyleTableRecord
  2
ME10_DIM_35
 70
     0
 41
7.875
 42
0.0
 44
4.5
 73
     0
 74
     0
 77
     1
 78
     8
140
11.25
147
4.5
172
     1
173
     1
176
     2
177
     2
178
     2
271
     2
340
DC
  0
DIMSTYLE
105
3CF
102
{ACAD_REACTORS
330
3D0
102
}
330
A
100
AcDbSymbolTableRecord
100
AcDbDimStyleTableRecord
  2
ME10_DIM_36
 70
     0
 41
7.875
 42
0.0
 44
4.5
 73
     0
 74
     0
 77
     1
 78
     8
140
11.25
147
4.5
172
     1
173
     1
176
     2
177
     2
178
     2
271
     2
340
DC
  0
DIMSTYLE
105
3DA
102
{ACAD_REACTORS
330
3DB
102
}
330
A
100
AcDbSymbolTableRecord
100
AcDbDimStyleTableRecord
  2
ME10_DIM_37
 70
     0
 41
7.875
 42
0.0
 44
4.5
 73
     0
 74
     0
 77
     1
 78
     8
140
11.25
147
4.5
172
     1
173
     1
176
     2
177
     2
178
     2
271
     2
340
DC
  0
DIMSTYLE
105
3E5
102
{ACAD_REACTORS
330
3E6
102
}
330
A
100
AcDbSymbolTableRecord
100
AcDbDimStyleTableRecord
  2
ME10_DIM_38
 70
     0
 41
7.875
 42
0.0
 44
4.5
 73
     0
 74
     0
 77
     1
 78
     8
140
11.25
147
4.5
172
     1
173
     1
176
     2
177
     2
178
     2
271
     2
340
DC
  0
DIMSTYLE
105
3F0
102
{ACAD_REACTORS
330
3F1
102
}
330
A
100
AcDbSymbolTableRecord
100
AcDbDimStyleTableRecord
  2
ME10_DIM_39
 70
     0
 41
7.875
 42
0.0
 44
4.5
 73
     0
 74
     0
 77
     1
 78
     8
140
11.25
147
4.5
172
     1
173
     1
176
     2
177
     2
178
     2
271
     2
340
DC
  0
DIMSTYLE
105
3FB
102
{ACAD_REACTORS
330
3FC
102
}
330
A
100
AcDbSymbolTableRecord
100
AcDbDimStyleTableRecord
  2
ME10_DIM_40
 70
     0
 41
7.875
 42
0.0
 44
4.5
 73
     0
 74
     0
 77
     1
 78
     8
140
11.25
147
4.5
172
     1
173
     1
176
     2
177
     2
178
     2
271
     2
340
DC
  0
DIMSTYLE
105
409
102
{ACAD_REACTORS
330
40A
102
}
330
A
100
AcDbSymbolTableRecord
100
AcDbDimStyleTableRecord
  2
ME10_DIM_41
 70
     0
 41
7.875
 42
0.0
 44
4.5
 73
     0
 74
     0
 77
     1
 78
     8
140
11.25
147
4.5
172
     1
173
     1
176
     2
177
     2
178
     2
271
     2
340
DC
  0
DIMSTYLE
105
414
102
{ACAD_REACTORS
330
415
102
}
330
A
100
AcDbSymbolTableRecord
100
AcDbDimStyleTableRecord
  2
ME10_DIM_42
 70
     0
 41
7.875
 42
0.0
 44
4.5
 73
     0
 74
     0
 77
     1
 78
     8
140
11.25
147
4.5
172
     1
173
     1
176
     2
177
     2
178
     2
271
     2
340
DC
  0
DIMSTYLE
105
421
102
{ACAD_REACTORS
330
422
102
}
330
A
100
AcDbSymbolTableRecord
100
AcDbDimStyleTableRecord
  2
ME10_DIM_43
 70
     0
 41
7.875
 42
0.0
 44
4.5
 73
     0
 74
     0
 77
     1
 78
     8
140
11.25
147
4.5
172
     1
173
     1
176
     2
177
     2
178
     2
271
     2
340
DC
  0
DIMSTYLE
105
42D
102
{ACAD_REACTORS
330
42E
102
}
330
A
100
AcDbSymbolTableRecord
100
AcDbDimStyleTableRecord
  2
ME10_DIM_44
 70
     0
 41
7.875
 42
0.0
 44
4.5
 73
     0
 74
     0
 77
     1
 78
     8
140
11.25
147
4.5
172
     1
173
     1
176
     2
177
     2
178
     2
271
     2
340
DC
  0
DIMSTYLE
105
43C
102
{ACAD_REACTORS
330
43D
102
}
330
A
100
AcDbSymbolTableRecord
100
AcDbDimStyleTableRecord
  2
ME10_DIM_45
 70
     0
 41
7.875
 42
0.0
 44
4.5
 73
     0
 74
     0
 77
     1
 78
     8
140
11.25
147
4.5
172
     1
173
     1
176
     2
177
     2
178
     2
271
     2
340
DC
  0
DIMSTYLE
105
447
102
{ACAD_REACTORS
330
448
102
}
330
A
100
AcDbSymbolTableRecord
100
AcDbDimStyleTableRecord
  2
ME10_DIM_46
 70
     0
 41
7.875
 42
0.0
 44
4.5
 73
     0
 74
     0
 77
     1
 78
     8
140
11.25
147
4.5
172
     1
173
     1
176
     2
177
     2
178
     2
271
     2
340
DC
  0
DIMSTYLE
105
452
102
{ACAD_REACTORS
330
453
102
}
330
A
100
AcDbSymbolTableRecord
100
AcDbDimStyleTableRecord
  2
ME10_DIM_47
 70
     0
  3
ø<>-j7
 41
7.875
 42
0.0
 44
4.5
 73
     0
 74
     0
 77
     1
 78
     8
140
11.25
147
4.5
172
     1
173
     1
176
     2
177
     2
178
     2
271
     2
340
DC
  0
DIMSTYLE
105
45D
102
{ACAD_REACTORS
330
45E
102
}
330
A
100
AcDbSymbolTableRecord
100
AcDbDimStyleTableRecord
  2
ME10_DIM_48
 70
     0
  3
ø<>
 41
7.875
 42
0.0
 44
4.5
 73
     0
 74
     0
 77
     1
 78
     8
140
11.25
147
4.5
172
     1
173
     1
176
     2
177
     2
178
     2
271
     2
340
DC
  0
DIMSTYLE
105
46A
102
{ACAD_REACTORS
330
46B
102
}
330
A
100
AcDbSymbolTableRecord
100
AcDbDimStyleTableRecord
  2
ME10_DIM_49
 70
     0
  3
x45·
 41
7.875
 42
0.0
 44
4.5
 73
     0
 74
     0
 77
     1
 78
     8
140
11.25
147
4.5
172
     1
173
     1
176
     2
177
     2
178
     2
271
     2
340
DC
  0
DIMSTYLE
105
477
102
{ACAD_REACTORS
330
478
102
}
330
A
100
AcDbSymbolTableRecord
100
AcDbDimStyleTableRecord
  2
ME10_DIM_50
 70
     0
 41
7.875
 42
0.0
 44
4.5
 73
     0
 74
     0
 77
     1
 78
     8
140
11.25
147
4.5
172
     1
173
     1
176
     2
177
     2
178
     2
271
     2
340
DC
  0
DIMSTYLE
105
484
102
{ACAD_REACTORS
330
485
102
}
330
A
100
AcDbSymbolTableRecord
100
AcDbDimStyleTableRecord
  2
ME10_DIM_51
 70
     0
 41
7.875
 42
0.0
 44
4.5
 73
     0
 74
     0
 77
     1
 78
     8
140
11.25
147
4.5
172
     1
173
     1
176
     2
177
     2
178
     2
271
     2
340
DC
  0
DIMSTYLE
105
49A
102
{ACAD_REACTORS
330
49B
102
}
330
A
100
AcDbSymbolTableRecord
100
AcDbDimStyleTableRecord
  2
ME10_DIM_52
 70
     0
 41
11.25
 42
2.25
 44
6.75
 73
     0
 74
     0
 77
     1
 78
     8
140
11.25
147
4.5
172
     1
173
     1
176
     2
177
     2
178
     2
271
     2
340
DC
343
493
344
493
  0
DIMSTYLE
105
4A6
102
{ACAD_REACTORS
330
4A7
102
}
330
A
100
AcDbSymbolTableRecord
100
AcDbDimStyleTableRecord
  2
ME10_DIM_53
 70
     0
 41
7.875
 42
0.0
 44
4.5
 73
     0
 74
     0
 77
     1
 78
     8
140
11.25
147
4.5
172
     1
173
     1
176
     2
177
     2
178
     2
271
     2
340
DC
  0
DIMSTYLE
105
4B1
102
{ACAD_REACTORS
330
4B2
102
}
330
A
100
AcDbSymbolTableRecord
100
AcDbDimStyleTableRecord
  2
ME10_DIM_54
 70
     0
 41
7.875
 42
0.0
 44
4.5
 73
     0
 74
     0
 77
     1
 78
     8
140
11.25
147
4.5
172
     1
173
     1
176
     2
177
     2
178
     2
271
     2
340
DC
  0
DIMSTYLE
105
4BD
102
{ACAD_REACTORS
330
4BE
102
}
330
A
100
AcDbSymbolTableRecord
100
AcDbDimStyleTableRecord
  2
ME10_DIM_55
 70
     0
 41
7.875
 42
0.0
 44
4.5
 73
     0
 74
     0
 77
     1
 78
     8
140
11.25
147
4.5
172
     1
173
     1
176
     2
177
     2
178
     2
271
     2
340
DC
  0
DIMSTYLE
105
4C8
102
{ACAD_REACTORS
330
4C9
102
}
330
A
100
AcDbSymbolTableRecord
100
AcDbDimStyleTableRecord
  2
ME10_DIM_56
 70
     0
 41
7.875
 42
0.0
 44
4.5
 73
     0
 74
     0
 77
     1
 78
     8
140
11.25
147
4.5
172
     1
173
     1
176
     2
177
     2
178
     2
271
     2
340
DC
  0
DIMSTYLE
105
4D5
102
{ACAD_REACTORS
330
4D6
102
}
330
A
100
AcDbSymbolTableRecord
100
AcDbDimStyleTableRecord
  2
ME10_DIM_57
 70
     0
 41
7.875
 42
0.0
 44
4.5
 73
     0
 74
     0
 77
     1
 78
     8
140
11.25
147
4.5
172
     1
173
     1
176
     2
177
     2
178
     2
271
     2
340
DC
  0
DIMSTYLE
105
4E0
102
{ACAD_REACTORS
330
4E1
102
}
330
A
100
AcDbSymbolTableRecord
100
AcDbDimStyleTableRecord
  2
ME10_DIM_58
 70
     0
 41
7.875
 42
0.0
 44
4.5
 73
     0
 74
     0
 77
     1
 78
     8
140
11.25
147
4.5
172
     1
173
     1
176
     2
177
     2
178
     2
271
     2
340
DC
  0
DIMSTYLE
105
4EB
102
{ACAD_REACTORS
330
4EC
102
}
330
A
100
AcDbSymbolTableRecord
100
AcDbDimStyleTableRecord
  2
ME10_DIM_59
 70
     0
 41
7.875
 42
0.0
 44
4.5
 73
     0
 74
     0
 77
     1
 78
     8
140
11.25
147
4.5
172
     1
173
     1
176
     2
177
     2
178
     2
271
     2
340
DC
  0
DIMSTYLE
105
4F6
102
{ACAD_REACTORS
330
4F7
102
}
330
A
100
AcDbSymbolTableRecord
100
AcDbDimStyleTableRecord
  2
ME10_DIM_60
 70
     0
 41
7.875
 42
0.0
 44
4.5
 73
     0
 74
     0
 77
     1
 78
     8
140
11.25
147
4.5
172
     1
173
     1
176
     2
177
     2
178
     2
271
     2
340
DC
  0
DIMSTYLE
105
501
102
{ACAD_REACTORS
330
502
102
}
330
A
100
AcDbSymbolTableRecord
100
AcDbDimStyleTableRecord
  2
ME10_DIM_61
 70
     0
 41
7.875
 42
0.0
 44
4.5
 73
     0
 74
     0
 77
     1
 78
     8
140
11.25
147
4.5
172
     1
173
     1
176
     2
177
     2
178
     2
271
     2
340
DC
  0
DIMSTYLE
105
50C
102
{ACAD_REACTORS
330
50D
102
}
330
A
100
AcDbSymbolTableRecord
100
AcDbDimStyleTableRecord
  2
ME10_DIM_62
 70
     0
 41
7.875
 42
0.0
 44
4.5
 73
     0
 74
     0
 77
     1
 78
     8
140
11.25
147
4.5
172
     1
173
     1
176
     2
177
     2
178
     2
271
     2
340
DC
  0
DIMSTYLE
105
51D
102
{ACAD_REACTORS
330
51E
102
}
330
A
100
AcDbSymbolTableRecord
100
AcDbDimStyleTableRecord
  2
ME10_DIM_63
 70
     0
 41
11.25
 42
2.25
 44
6.75
 73
     0
 74
     0
 77
     1
 78
     8
140
11.25
147
4.5
172
     1
173
     1
176
     2
177
     2
178
     2
271
     2
340
DC
343
493
344
493
  0
DIMSTYLE
105
52E
102
{ACAD_REACTORS
330
52F
102
}
330
A
100
AcDbSymbolTableRecord
100
AcDbDimStyleTableRecord
  2
ME10_DIM_64
 70
     0
 41
11.25
 42
2.25
 44
6.75
 73
     0
 74
     0
 77
     1
 78
     8
140
11.25
147
4.5
172
     1
173
     1
176
     2
177
     2
178
     2
271
     2
340
DC
343
493
344
493
  0
DIMSTYLE
105
53D
102
{ACAD_REACTORS
330
53E
102
}
330
A
100
AcDbSymbolTableRecord
100
AcDbDimStyleTableRecord
  2
ME10_DIM_65
 70
     0
 41
11.25
 42
2.25
 44
6.75
 73
     0
 74
     0
 77
     1
 78
     8
140
11.25
147
4.5
172
     1
173
     1
176
     2
177
     2
178
     2
271
     2
340
DC
343
493
344
493
  0
ENDTAB
  0
TABLE
  2
BLOCK_RECORD
  5
1
330
0
100
AcDbSymbolTable
 70
    66
  0
BLOCK_RECORD
  5
1F
330
1
100
AcDbSymbolTableRecord
100
AcDbBlockTableRecord
  2
*Model_Space
340
22
  0
BLOCK_RECORD
  5
1B
330
1
100
AcDbSymbolTableRecord
100
AcDbBlockTableRecord
  2
*Paper_Space
340
1E
  0
BLOCK_RECORD
  5
23
330
1
100
AcDbSymbolTableRecord
100
AcDbBlockTableRecord
  2
*Paper_Space0
340
26
  0
BLOCK_RECORD
  5
43
330
1
100
AcDbSymbolTableRecord
100
AcDbBlockTableRecord
  2
Top__1
340
0
102
{BLKREFS
331
69
102
}
  0
BLOCK_RECORD
  5
46
330
1
100
AcDbSymbolTableRecord
100
AcDbBlockTableRecord
  2
Top__2
340
0
102
{BLKREFS
331
6C
102
}
  0
BLOCK_RECORD
  5
28B
330
1
100
AcDbSymbolTableRecord
100
AcDbBlockTableRecord
  2
*D3
340
0
  0
BLOCK_RECORD
  5
295
330
1
100
AcDbSymbolTableRecord
100
AcDbBlockTableRecord
  2
_OBLIQUE
340
0
  0
BLOCK_RECORD
  5
29B
330
1
100
AcDbSymbolTableRecord
100
AcDbBlockTableRecord
  2
*D5
340
0
  0
BLOCK_RECORD
  5
2A8
330
1
100
AcDbSymbolTableRecord
100
AcDbBlockTableRecord
  2
*D6
340
0
  0
BLOCK_RECORD
  5
2B3
330
1
100
AcDbSymbolTableRecord
100
AcDbBlockTableRecord
  2
*D7
340
0
  0
BLOCK_RECORD
  5
2BF
330
1
100
AcDbSymbolTableRecord
100
AcDbBlockTableRecord
  2
*D8
340
0
  0
BLOCK_RECORD
  5
2CC
330
1
100
AcDbSymbolTableRecord
100
AcDbBlockTableRecord
  2
*D9
340
0
  0
BLOCK_RECORD
  5
2DA
330
1
100
AcDbSymbolTableRecord
100
AcDbBlockTableRecord
  2
*D10
340
0
  0
BLOCK_RECORD
  5
2E7
330
1
100
AcDbSymbolTableRecord
100
AcDbBlockTableRecord
  2
*D11
340
0
  0
BLOCK_RECORD
  5
2F4
330
1
100
AcDbSymbolTableRecord
100
AcDbBlockTableRecord
  2
*D12
340
0
  0
BLOCK_RECORD
  5
301
330
1
100
AcDbSymbolTableRecord
100
AcDbBlockTableRecord
  2
*D13
340
0
  0
BLOCK_RECORD
  5
30C
330
1
100
AcDbSymbolTableRecord
100
AcDbBlockTableRecord
  2
*D14
340
0
  0
BLOCK_RECORD
  5
318
330
1
100
AcDbSymbolTableRecord
100
AcDbBlockTableRecord
  2
*D15
340
0
  0
BLOCK_RECORD
  5
325
330
1
100
AcDbSymbolTableRecord
100
AcDbBlockTableRecord
  2
*D16
340
0
  0
BLOCK_RECORD
  5
331
330
1
100
AcDbSymbolTableRecord
100
AcDbBlockTableRecord
  2
*D17
340
0
  0
BLOCK_RECORD
  5
33C
330
1
100
AcDbSymbolTableRecord
100
AcDbBlockTableRecord
  2
*D18
340
0
  0
BLOCK_RECORD
  5
349
330
1
100
AcDbSymbolTableRecord
100
AcDbBlockTableRecord
  2
*D19
340
0
  0
BLOCK_RECORD
  5
354
330
1
100
AcDbSymbolTableRecord
100
AcDbBlockTableRecord
  2
*D20
340
0
  0
BLOCK_RECORD
  5
35F
330
1
100
AcDbSymbolTableRecord
100
AcDbBlockTableRecord
  2
*D21
340
0
  0
BLOCK_RECORD
  5
36A
330
1
100
AcDbSymbolTableRecord
100
AcDbBlockTableRecord
  2
*D22
340
0
  0
BLOCK_RECORD
  5
375
330
1
100
AcDbSymbolTableRecord
100
AcDbBlockTableRecord
  2
*D23
340
0
  0
BLOCK_RECORD
  5
380
330
1
100
AcDbSymbolTableRecord
100
AcDbBlockTableRecord
  2
*D24
340
0
  0
BLOCK_RECORD
  5
38B
330
1
100
AcDbSymbolTableRecord
100
AcDbBlockTableRecord
  2
*D25
340
0
  0
BLOCK_RECORD
  5
397
330
1
100
AcDbSymbolTableRecord
100
AcDbBlockTableRecord
  2
*D26
340
0
  0
BLOCK_RECORD
  5
3A4
330
1
100
AcDbSymbolTableRecord
100
AcDbBlockTableRecord
  2
*D27
340
0
  0
BLOCK_RECORD
  5
3B0
330
1
100
AcDbSymbolTableRecord
100
AcDbBlockTableRecord
  2
*D28
340
0
  0
BLOCK_RECORD
  5
3BB
330
1
100
AcDbSymbolTableRecord
100
AcDbBlockTableRecord
  2
*D29
340
0
  0
BLOCK_RECORD
  5
3C6
330
1
100
AcDbSymbolTableRecord
100
AcDbBlockTableRecord
  2
*D30
340
0
  0
BLOCK_RECORD
  5
3D1
330
1
100
AcDbSymbolTableRecord
100
AcDbBlockTableRecord
  2
*D31
340
0
  0
BLOCK_RECORD
  5
3DC
330
1
100
AcDbSymbolTableRecord
100
AcDbBlockTableRecord
  2
*D32
340
0
  0
BLOCK_RECORD
  5
3E7
330
1
100
AcDbSymbolTableRecord
100
AcDbBlockTableRecord
  2
*D33
340
0
  0
BLOCK_RECORD
  5
3F2
330
1
100
AcDbSymbolTableRecord
100
AcDbBlockTableRecord
  2
*D34
340
0
  0
BLOCK_RECORD
  5
3FD
330
1
100
AcDbSymbolTableRecord
100
AcDbBlockTableRecord
  2
*D35
340
0
  0
BLOCK_RECORD
  5
40B
330
1
100
AcDbSymbolTableRecord
100
AcDbBlockTableRecord
  2
*D36
340
0
  0
BLOCK_RECORD
  5
416
330
1
100
AcDbSymbolTableRecord
100
AcDbBlockTableRecord
  2
*D37
340
0
  0
BLOCK_RECORD
  5
423
330
1
100
AcDbSymbolTableRecord
100
AcDbBlockTableRecord
  2
*D38
340
0
  0
BLOCK_RECORD
  5
42F
330
1
100
AcDbSymbolTableRecord
100
AcDbBlockTableRecord
  2
*D39
340
0
  0
BLOCK_RECORD
  5
43E
330
1
100
AcDbSymbolTableRecord
100
AcDbBlockTableRecord
  2
*D40
340
0
  0
BLOCK_RECORD
  5
449
330
1
100
AcDbSymbolTableRecord
100
AcDbBlockTableRecord
  2
*D41
340
0
  0
BLOCK_RECORD
  5
454
330
1
100
AcDbSymbolTableRecord
100
AcDbBlockTableRecord
  2
*D42
340
0
  0
BLOCK_RECORD
  5
45F
330
1
100
AcDbSymbolTableRecord
100
AcDbBlockTableRecord
  2
*D43
340
0
  0
BLOCK_RECORD
  5
46C
330
1
100
AcDbSymbolTableRecord
100
AcDbBlockTableRecord
  2
*D44
340
0
  0
BLOCK_RECORD
  5
479
330
1
100
AcDbSymbolTableRecord
100
AcDbBlockTableRecord
  2
*D45
340
0
  0
BLOCK_RECORD
  5
486
330
1
100
AcDbSymbolTableRecord
100
AcDbBlockTableRecord
  2
*D46
340
0
  0
BLOCK_RECORD
  5
493
330
1
100
AcDbSymbolTableRecord
100
AcDbBlockTableRecord
  2
_CLOSED
340
0
  0
BLOCK_RECORD
  5
49C
330
1
100
AcDbSymbolTableRecord
100
AcDbBlockTableRecord
  2
*D48
340
0
  0
BLOCK_RECORD
  5
4A8
330
1
100
AcDbSymbolTableRecord
100
AcDbBlockTableRecord
  2
*D49
340
0
  0
BLOCK_RECORD
  5
4B3
330
1
100
AcDbSymbolTableRecord
100
AcDbBlockTableRecord
  2
*D50
340
0
  0
BLOCK_RECORD
  5
4BF
330
1
100
AcDbSymbolTableRecord
100
AcDbBlockTableRecord
  2
*D51
340
0
  0
BLOCK_RECORD
  5
4CA
330
1
100
AcDbSymbolTableRecord
100
AcDbBlockTableRecord
  2
*D52
340
0
  0
BLOCK_RECORD
  5
4D7
330
1
100
AcDbSymbolTableRecord
100
AcDbBlockTableRecord
  2
*D53
340
0
  0
BLOCK_RECORD
  5
4E2
330
1
100
AcDbSymbolTableRecord
100
AcDbBlockTableRecord
  2
*D54
340
0
  0
BLOCK_RECORD
  5
4ED
330
1
100
AcDbSymbolTableRecord
100
AcDbBlockTableRecord
  2
*D55
340
0
  0
BLOCK_RECORD
  5
4F8
330
1
100
AcDbSymbolTableRecord
100
AcDbBlockTableRecord
  2
*D56
340
0
  0
BLOCK_RECORD
  5
503
330
1
100
AcDbSymbolTableRecord
100
AcDbBlockTableRecord
  2
*D57
340
0
  0
BLOCK_RECORD
  5
50E
330
1
100
AcDbSymbolTableRecord
100
AcDbBlockTableRecord
  2
*D58
340
0
  0
BLOCK_RECORD
  5
51F
330
1
100
AcDbSymbolTableRecord
100
AcDbBlockTableRecord
  2
*D59
340
0
  0
BLOCK_RECORD
  5
530
330
1
100
AcDbSymbolTableRecord
100
AcDbBlockTableRecord
  2
*D60
340
0
  0
BLOCK_RECORD
  5
53F
330
1
100
AcDbSymbolTableRecord
100
AcDbBlockTableRecord
  2
*D61
340
0
102
{BLKREFS
331
546
102
}
  0
BLOCK_RECORD
  5
547
330
1
100
AcDbSymbolTableRecord
100
AcDbBlockTableRecord
  2
*D62
340
0
102
{BLKREFS
331
54F
102
}
  0
BLOCK_RECORD
  5
550
330
1
100
AcDbSymbolTableRecord
100
AcDbBlockTableRecord
  2
*D63
340
0
102
{BLKREFS
331
557
102
}
  0
BLOCK_RECORD
  5
558
330
1
100
AcDbSymbolTableRecord
100
AcDbBlockTableRecord
  2
*D64
340
0
102
{BLKREFS
331
55E
102
}
  0
BLOCK_RECORD
  5
55F
330
1
100
AcDbSymbolTableRecord
100
AcDbBlockTableRecord
  2
*D65
340
0
102
{BLKREFS
331
566
102
}
  0
ENDTAB
  0
ENDSEC
  0
SECTION
  2
BLOCKS
  0
BLOCK
  5
20
330
1F
100
AcDbEntity
  8
0
100
AcDbBlockBegin
  2
*Model_Space
 70
     0
 10
0.0
 20
0.0
 30
0.0
  3
*Model_Space
  1

  0
ENDBLK
  5
21
330
1F
100
AcDbEntity
  8
0
100
AcDbBlockEnd
  0
BLOCK
  5
1C
330
1B
100
AcDbEntity
 67
     1
  8
0
100
AcDbBlockBegin
  2
*Paper_Space
 70
     0
 10
0.0
 20
0.0
 30
0.0
  3
*Paper_Space
  1

  0
ENDBLK
  5
1D
330
1B
100
AcDbEntity
 67
     1
  8
0
100
AcDbBlockEnd
  0
BLOCK
  5
24
330
23
100
AcDbEntity
  8
0
100
AcDbBlockBegin
  2
*Paper_Space0
 70
     0
 10
0.0
 20
0.0
 30
0.0
  3
*Paper_Space0
  1

  0
ENDBLK
  5
25
330
23
100
AcDbEntity
  8
0
100
AcDbBlockEnd
  0
BLOCK
  5
44
330
43
100
AcDbEntity
  8
0
100
AcDbBlockBegin
  2
Top__1
 70
     0
 10
-1591.441844007771
 20
-721.6005817353856
 30
0.0
  3
Top__1
  1

  0
LINE
  5
6D
330
43
100
AcDbEntity
  8
1
  6
Continuous
 62
     4
100
AcDbLine
 10
683.06597639133
 20
204.7992588517529
 30
0.0
 11
683.06597639133
 21
149.799258851752
 31
0.0
  0
LINE
  5
6E
330
43
100
AcDbEntity
  8
1
  6
Continuous
 62
     4
100
AcDbLine
 10
667.9548652802187
 20
204.7992588517529
 30
0.0
 11
667.9548652802187
 21
149.799258851752
 31
0.0
  0
LINE
  5
6F
330
43
100
AcDbEntity
  8
1
  6
Continuous
 62
     7
100
AcDbLine
 10
547.4754109738415
 20
19.78919968015498
 30
0.0
 11
591.8721568860992
 21
19.78919968015498
 31
0.0
  0
LINE
  5
70
330
43
100
AcDbEntity
  8
1
  6
Continuous
 62
     7
100
AcDbLine
 10
702.4754109738415
 20
46.03919968015498
 30
0.0
 11
702.4754109738415
 21
44.78919968015498
 31
0.0
  0
LINE
  5
71
330
43
100
AcDbEntity
  8
1
  6
Continuous
 62
     7
100
AcDbLine
 10
729.9754109738415
 20
46.03919968015498
 30
0.0
 11
729.9754109738415
 21
42.28919968015498
 31
0.0
  0
LINE
  5
72
330
43
100
AcDbEntity
  8
1
  6
Continuous
 62
     2
100
AcDbLine
 10
729.9754109738415
 20
46.03919968015498
 30
0.0
 11
702.4754109738415
 21
46.03919968015498
 31
0.0
  0
LINE
  5
73
330
43
100
AcDbEntity
  8
1
  6
Continuous
 62
     7
100
AcDbLine
 10
729.9754109738415
 20
42.28919968015498
 30
0.0
 11
729.9754109738415
 21
38.53919968015498
 31
0.0
  0
LINE
  5
74
330
43
100
AcDbEntity
  8
1
  6
Continuous
 62
     7
100
AcDbLine
 10
702.4754109738415
 20
42.28919968015498
 30
0.0
 11
702.4754109738415
 21
39.78919968015498
 31
0.0
  0
LINE
  5
75
330
43
100
AcDbEntity
  8
1
  6
Continuous
 62
     2
100
AcDbLine
 10
702.4754109738415
 20
42.28919968015498
 30
0.0
 11
729.9754109738415
 21
42.28919968015498
 31
0.0
  0
LINE
  5
76
330
43
100
AcDbEntity
  8
1
  6
Continuous
 62
     7
100
AcDbLine
 10
702.4754109738415
 20
38.53919968015498
 30
0.0
 11
702.4754109738415
 21
34.78919968015498
 31
0.0
  0
LINE
  5
77
330
43
100
AcDbEntity
  8
1
  6
Continuous
 62
     7
100
AcDbLine
 10
729.9754109738415
 20
38.53919968015498
 30
0.0
 11
729.9754109738415
 21
34.78919968015498
 31
0.0
  0
LINE
  5
78
330
43
100
AcDbEntity
  8
1
  6
Continuous
 62
     2
100
AcDbLine
 10
729.9754109738415
 20
38.53919968015498
 30
0.0
 11
702.4754109738415
 21
38.53919968015498
 31
0.0
  0
LINE
  5
79
330
43
100
AcDbEntity
  8
1
  6
Continuous
 62
     7
100
AcDbLine
 10
729.9754109738415
 20
29.28919968015498
 30
0.0
 11
729.9754109738415
 21
23.78919968015498
 31
0.0
  0
LINE
  5
7A
330
43
100
AcDbEntity
  8
1
  6
Continuous
 62
     2
100
AcDbLine
 10
729.9754109738415
 20
29.28919968015498
 30
0.0
 11
675.9754109738415
 21
29.28919968015498
 31
0.0
  0
LINE
  5
7B
330
43
100
AcDbEntity
  8
1
  6
Continuous
 62
     7
100
AcDbLine
 10
729.9754109738415
 20
23.78919968015498
 30
0.0
 11
729.9754109738415
 21
18.28919968015498
 31
0.0
  0
LINE
  5
7C
330
43
100
AcDbEntity
  8
1
  6
Continuous
 62
     7
100
AcDbLine
 10
675.9754109738415
 20
23.78919968015498
 30
0.0
 11
675.9754109738415
 21
18.28919968015498
 31
0.0
  0
LINE
  5
7D
330
43
100
AcDbEntity
  8
1
  6
Continuous
 62
     2
100
AcDbLine
 10
675.9754109738415
 20
23.78919968015498
 30
0.0
 11
729.9754109738415
 21
23.78919968015498
 31
0.0
  0
LINE
  5
7E
330
43
100
AcDbEntity
  8
1
  6
Continuous
 62
     7
100
AcDbLine
 10
675.9754109738415
 20
18.28919968015498
 30
0.0
 11
675.9754109738415
 21
12.78919968015498
 31
0.0
  0
LINE
  5
7F
330
43
100
AcDbEntity
  8
1
  6
Continuous
 62
     7
100
AcDbLine
 10
729.9754109738415
 20
18.28919968015498
 30
0.0
 11
729.9754109738415
 21
12.78919968015498
 31
0.0
  0
LINE
  5
80
330
43
100
AcDbEntity
  8
1
  6
Continuous
 62
     2
100
AcDbLine
 10
729.9754109738415
 20
18.28919968015498
 30
0.0
 11
675.9754109738415
 21
18.28919968015498
 31
0.0
  0
LINE
  5
81
330
43
100
AcDbEntity
  8
1
  6
Continuous
 62
     7
100
AcDbLine
 10
712.4754109738415
 20
34.78919968015498
 30
0.0
 11
729.9754109738415
 21
34.78919968015498
 31
0.0
  0
LINE
  5
82
330
43
100
AcDbEntity
  8
1
  6
Continuous
 62
     7
100
AcDbLine
 10
712.4754109738415
 20
12.78919968015498
 30
0.0
 11
694.9754109738415
 21
12.78919968015498
 31
0.0
  0
LINE
  5
83
330
43
100
AcDbEntity
  8
1
  6
Continuous
 62
     2
100
AcDbLine
 10
712.4754109738415
 20
12.78919968015498
 30
0.0
 11
712.4754109738415
 21
34.78919968015498
 31
0.0
  0
LINE
  5
84
330
43
100
AcDbEntity
  8
1
  6
Continuous
 62
     7
100
AcDbLine
 10
694.9754109738415
 20
12.78919968015498
 30
0.0
 11
675.9754109738415
 21
12.78919968015498
 31
0.0
  0
LINE
  5
85
330
43
100
AcDbEntity
  8
1
  6
Continuous
 62
     7
100
AcDbLine
 10
694.9754109738415
 20
34.78919968015498
 30
0.0
 11
702.4754109738415
 21
34.78919968015498
 31
0.0
  0
LINE
  5
86
330
43
100
AcDbEntity
  8
1
  6
Continuous
 62
     2
100
AcDbLine
 10
694.9754109738415
 20
34.78919968015498
 30
0.0
 11
694.9754109738415
 21
12.78919968015498
 31
0.0
  0
LINE
  5
87
330
43
100
AcDbEntity
  8
1
  6
Continuous
 62
     7
100
AcDbLine
 10
689.9754109738415
 20
34.78919968015498
 30
0.0
 11
694.9754109738415
 21
34.78919968015498
 31
0.0
  0
LINE
  5
88
330
43
100
AcDbEntity
  8
1
  6
Continuous
 62
     2
100
AcDbLine
 10
689.9754109738415
 20
34.78919968015498
 30
0.0
 11
689.9754109738415
 21
49.78919968015498
 31
0.0
  0
LINE
  5
89
330
43
100
AcDbEntity
  8
1
  6
Continuous
 62
     7
100
AcDbLine
 10
677.9754109738406
 20
34.78919968015498
 30
0.0
 11
689.9754109738415
 21
34.78919968015498
 31
0.0
  0
LINE
  5
8A
330
43
100
AcDbEntity
  8
1
  6
Continuous
 62
     7
100
AcDbLine
 10
677.9754109738406
 20
49.78919968015498
 30
0.0
 11
657.9754109738415
 21
49.78919968015498
 31
0.0
  0
LINE
  5
8B
330
43
100
AcDbEntity
  8
1
  6
Continuous
 62
     2
100
AcDbLine
 10
677.9754109738406
 20
49.78919968015498
 30
0.0
 11
677.9754109738406
 21
34.78919968015498
 31
0.0
  0
LINE
  5
8C
330
43
100
AcDbEntity
  8
1
  6
Continuous
 62
     7
100
AcDbLine
 10
657.9754109738415
 20
49.78919968015498
 30
0.0
 11
637.9754109738406
 21
49.78919968015498
 31
0.0
  0
LINE
  5
8D
330
43
100
AcDbEntity
  8
1
  6
Continuous
 62
     7
100
AcDbLine
 10
657.9754109738415
 20
34.78919968015498
 30
0.0
 11
675.9754109738415
 21
34.78919968015498
 31
0.0
  0
LINE
  5
8E
330
43
100
AcDbEntity
  8
1
  6
Continuous
 62
     2
100
AcDbLine
 10
657.9754109738415
 20
34.78919968015498
 30
0.0
 11
657.9754109738415
 21
49.78919968015498
 31
0.0
  0
LINE
  5
8F
330
43
100
AcDbEntity
  8
1
  6
Continuous
 62
     7
100
AcDbLine
 10
637.9754109738406
 20
34.78919968015498
 30
0.0
 11
657.9754109738415
 21
34.78919968015498
 31
0.0
  0
LINE
  5
90
330
43
100
AcDbEntity
  8
1
  6
Continuous
 62
     2
100
AcDbLine
 10
637.9754109738406
 20
34.78919968015498
 30
0.0
 11
637.9754109738406
 21
49.78919968015498
 31
0.0
  0
LINE
  5
91
330
43
100
AcDbEntity
  8
1
  6
Continuous
 62
     7
100
AcDbLine
 10
625.4754109738406
 20
49.78919968015498
 30
0.0
 11
605.4754109738406
 21
49.78919968015498
 31
0.0
  0
LINE
  5
92
330
43
100
AcDbEntity
  8
1
  6
Continuous
 62
     7
100
AcDbLine
 10
625.4754109738406
 20
34.78919968015498
 30
0.0
 11
637.9754109738406
 21
34.78919968015498
 31
0.0
  0
LINE
  5
93
330
43
100
AcDbEntity
  8
1
  6
Continuous
 62
     2
100
AcDbLine
 10
625.4754109738406
 20
34.78919968015498
 30
0.0
 11
625.4754109738406
 21
49.78919968015498
 31
0.0
  0
LINE
  5
94
330
43
100
AcDbEntity
  8
1
  6
Continuous
 62
     7
100
AcDbLine
 10
605.4754109738406
 20
34.78919968015498
 30
0.0
 11
625.4754109738406
 21
34.78919968015498
 31
0.0
  0
LINE
  5
95
330
43
100
AcDbEntity
  8
1
  6
Continuous
 62
     7
100
AcDbLine
 10
605.4754109738406
 20
49.78919968015498
 30
0.0
 11
597.4754109738415
 21
49.78919968015498
 31
0.0
  0
LINE
  5
96
330
43
100
AcDbEntity
  8
1
  6
Continuous
 62
     2
100
AcDbLine
 10
605.4754109738406
 20
49.78919968015498
 30
0.0
 11
605.4754109738406
 21
34.78919968015498
 31
0.0
  0
LINE
  5
97
330
43
100
AcDbEntity
  8
1
  6
Continuous
 62
     7
100
AcDbLine
 10
585.4754109738406
 20
49.78919968015498
 30
0.0
 11
572.9754109738406
 21
49.78919968015498
 31
0.0
  0
LINE
  5
98
330
43
100
AcDbEntity
  8
1
  6
Continuous
 62
     7
100
AcDbLine
 10
585.4754109738406
 20
34.78919968015498
 30
0.0
 11
597.4754109738415
 21
34.78919968015498
 31
0.0
  0
LINE
  5
99
330
43
100
AcDbEntity
  8
1
  6
Continuous
 62
     2
100
AcDbLine
 10
585.4754109738406
 20
34.78919968015498
 30
0.0
 11
585.4754109738406
 21
49.78919968015498
 31
0.0
  0
LINE
  5
9A
330
43
100
AcDbEntity
  8
1
  6
Continuous
 62
     7
100
AcDbLine
 10
572.9754109738406
 20
34.78919968015498
 30
0.0
 11
585.4754109738406
 21
34.78919968015498
 31
0.0
  0
LINE
  5
9B
330
43
100
AcDbEntity
  8
1
  6
Continuous
 62
     7
100
AcDbLine
 10
572.9754109738406
 20
49.78919968015498
 30
0.0
 11
552.9754109738406
 21
49.78919968015498
 31
0.0
  0
LINE
  5
9C
330
43
100
AcDbEntity
  8
1
  6
Continuous
 62
     2
100
AcDbLine
 10
572.9754109738406
 20
49.78919968015498
 30
0.0
 11
572.9754109738406
 21
34.78919968015498
 31
0.0
  0
LINE
  5
9D
330
43
100
AcDbEntity
  8
1
  6
Continuous
 62
     7
100
AcDbLine
 10
552.9754109738406
 20
34.78919968015498
 30
0.0
 11
572.9754109738406
 21
34.78919968015498
 31
0.0
  0
LINE
  5
9E
330
43
100
AcDbEntity
  8
1
  6
Continuous
 62
     2
100
AcDbLine
 10
552.9754109738406
 20
34.78919968015498
 30
0.0
 11
552.9754109738406
 21
49.78919968015498
 31
0.0
  0
LINE
  5
9F
330
43
100
AcDbEntity
  8
1
  6
Continuous
 62
     7
100
AcDbLine
 10
544.9754109738415
 20
39.78919968015498
 30
0.0
 11
544.9754109738415
 21
44.78919968015498
 31
0.0
  0
LINE
  5
A0
330
43
100
AcDbEntity
  8
1
  6
Continuous
 62
     7
100
AcDbLine
 10
702.4754109738415
 20
39.78919968015498
 30
0.0
 11
702.4754109738415
 21
38.53919968015498
 31
0.0
  0
LINE
  5
A1
330
43
100
AcDbEntity
  8
1
  6
Continuous
 62
     2
100
AcDbLine
 10
702.4754109738415
 20
39.78919968015498
 30
0.0
 11
544.9754109738415
 21
39.78919968015498
 31
0.0
  0
LINE
  5
A2
330
43
100
AcDbEntity
  8
1
  6
Continuous
 62
     7
100
AcDbLine
 10
702.4754109738415
 20
44.78919968015498
 30
0.0
 11
702.4754109738415
 21
42.28919968015498
 31
0.0
  0
LINE
  5
A3
330
43
100
AcDbEntity
  8
1
  6
Continuous
 62
     7
100
AcDbLine
 10
544.9754109738415
 20
44.78919968015498
 30
0.0
 11
544.9754109738415
 21
49.78919968015498
 31
0.0
  0
LINE
  5
A4
330
43
100
AcDbEntity
  8
1
  6
Continuous
 62
     2
100
AcDbLine
 10
544.9754109738415
 20
44.78919968015498
 30
0.0
 11
702.4754109738415
 21
44.78919968015498
 31
0.0
  0
LINE
  5
A5
330
43
100
AcDbEntity
  8
1
  6
Continuous
 62
     7
100
AcDbLine
 10
649.9754109738415
 20
29.28919968015498
 30
0.0
 11
649.9754109738415
 21
-2.21080031984502
 31
0.0
  0
LINE
  5
A6
330
43
100
AcDbEntity
  8
1
  6
Continuous
 62
     7
100
AcDbLine
 10
675.9754109738415
 20
29.28919968015498
 30
0.0
 11
675.9754109738415
 21
23.78919968015498
 31
0.0
  0
LINE
  5
A7
330
43
100
AcDbEntity
  8
1
  6
Continuous
 62
     7
100
AcDbLine
 10
675.9754109738415
 20
29.28919968015498
 30
0.0
 11
649.9754109738415
 21
29.28919968015498
 31
0.0
  0
LINE
  5
A8
330
43
100
AcDbEntity
  8
1
  6
Continuous
 62
     7
100
AcDbLine
 10
675.9754109738415
 20
12.78919968015498
 30
0.0
 11
544.9754109738415
 21
12.78919968015498
 31
0.0
  0
LINE
  5
A9
330
43
100
AcDbEntity
  8
1
  6
Continuous
 62
     7
100
AcDbLine
 10
675.9754109738415
 20
34.78919968015498
 30
0.0
 11
677.9754109738406
 21
34.78919968015498
 31
0.0
  0
LINE
  5
AA
330
43
100
AcDbEntity
  8
1
  6
Continuous
 62
     7
100
AcDbLine
 10
675.9754109738415
 20
34.78919968015498
 30
0.0
 11
675.9754109738415
 21
29.28919968015498
 31
0.0
  0
LINE
  5
AB
330
43
100
AcDbEntity
  8
1
  6
Continuous
 62
     7
100
AcDbLine
 10
597.4754109738415
 20
34.78919968015498
 30
0.0
 11
605.4754109738406
 21
34.78919968015498
 31
0.0
  0
LINE
  5
AC
330
43
100
AcDbEntity
  8
1
  6
Continuous
 62
     7
100
AcDbLine
 10
597.4754109738415
 20
49.78919968015498
 30
0.0
 11
585.4754109738406
 21
49.78919968015498
 31
0.0
  0
LINE
  5
AD
330
43
100
AcDbEntity
  8
1
  6
Continuous
 62
     7
100
AcDbLine
 10
597.4754109738415
 20
49.78919968015498
 30
0.0
 11
597.4754109738415
 21
34.78919968015498
 31
0.0
  0
LINE
  5
AE
330
43
100
AcDbEntity
  8
1
  6
Continuous
 62
     7
100
AcDbLine
 10
702.4754109738415
 20
34.78919968015498
 30
0.0
 11
712.4754109738415
 21
34.78919968015498
 31
0.0
  0
LINE
  5
AF
330
43
100
AcDbEntity
  8
1
  6
Continuous
 62
     7
100
AcDbLine
 10
702.4754109738415
 20
49.78919968015498
 30
0.0
 11
689.9754109738415
 21
49.78919968015498
 31
0.0
  0
LINE
  5
B0
330
43
100
AcDbEntity
  8
1
  6
Continuous
 62
     7
100
AcDbLine
 10
702.4754109738415
 20
49.78919968015498
 30
0.0
 11
702.4754109738415
 21
46.03919968015498
 31
0.0
  0
LINE
  5
B1
330
43
100
AcDbEntity
  8
1
  6
Continuous
 62
     7
100
AcDbLine
 10
689.9754109738415
 20
49.78919968015498
 30
0.0
 11
677.9754109738406
 21
49.78919968015498
 31
0.0
  0
LINE
  5
B2
330
43
100
AcDbEntity
  8
1
  6
Continuous
 62
     7
100
AcDbLine
 10
649.9754109738415
 20
-2.21080031984502
 30
0.0
 11
544.9754109738415
 21
-2.21080031984502
 31
0.0
  0
LINE
  5
B3
330
43
100
AcDbEntity
  8
1
  6
Continuous
 62
     7
100
AcDbLine
 10
649.9754109738415
 20
49.78919968015498
 30
0.0
 11
649.9754109738415
 21
29.28919968015498
 31
0.0
  0
LINE
  5
B4
330
43
100
AcDbEntity
  8
1
  6
Continuous
 62
     7
100
AcDbLine
 10
637.9754109738406
 20
49.78919968015498
 30
0.0
 11
625.4754109738406
 21
49.78919968015498
 31
0.0
  0
LINE
  5
B5
330
43
100
AcDbEntity
  8
1
  6
Continuous
 62
     7
100
AcDbLine
 10
552.9754109738406
 20
49.78919968015498
 30
0.0
 11
544.9754109738415
 21
49.78919968015498
 31
0.0
  0
LINE
  5
B6
330
43
100
AcDbEntity
  8
1
  6
Continuous
 62
     7
100
AcDbLine
 10
729.9754109738415
 20
49.78919968015498
 30
0.0
 11
729.9754109738415
 21
46.03919968015498
 31
0.0
  0
LINE
  5
B7
330
43
100
AcDbEntity
  8
1
  6
Continuous
 62
     7
100
AcDbLine
 10
729.9754109738415
 20
49.78919968015498
 30
0.0
 11
702.4754109738415
 21
49.78919968015498
 31
0.0
  0
LINE
  5
B8
330
43
100
AcDbEntity
  8
1
  6
Continuous
 62
     7
100
AcDbLine
 10
729.9754109738415
 20
34.78919968015498
 30
0.0
 11
729.9754109738415
 21
29.28919968015498
 31
0.0
  0
LINE
  5
B9
330
43
100
AcDbEntity
  8
1
  6
Continuous
 62
     7
100
AcDbLine
 10
544.9754109738415
 20
34.78919968015498
 30
0.0
 11
544.9754109738415
 21
39.78919968015498
 31
0.0
  0
LINE
  5
BA
330
43
100
AcDbEntity
  8
1
  6
Continuous
 62
     7
100
AcDbLine
 10
544.9754109738415
 20
34.78919968015498
 30
0.0
 11
552.9754109738406
 21
34.78919968015498
 31
0.0
  0
LINE
  5
BB
330
43
100
AcDbEntity
  8
1
  6
Continuous
 62
     7
100
AcDbLine
 10
544.9754109738415
 20
12.78919968015498
 30
0.0
 11
544.9754109738415
 21
34.78919968015498
 31
0.0
  0
LINE
  5
BC
330
43
100
AcDbEntity
  8
1
  6
Continuous
 62
     7
100
AcDbLine
 10
729.9754109738415
 20
12.78919968015498
 30
0.0
 11
729.9754109738415
 21
-2.21080031984502
 31
0.0
  0
LINE
  5
BD
330
43
100
AcDbEntity
  8
1
  6
Continuous
 62
     7
100
AcDbLine
 10
729.9754109738415
 20
12.78919968015498
 30
0.0
 11
712.4754109738415
 21
12.78919968015498
 31
0.0
  0
LINE
  5
BE
330
43
100
AcDbEntity
  8
1
  6
Continuous
 62
     7
100
AcDbLine
 10
544.9754109738415
 20
-2.21080031984502
 30
0.0
 11
544.9754109738415
 21
12.78919968015498
 31
0.0
  0
LINE
  5
BF
330
43
100
AcDbEntity
  8
1
  6
Continuous
 62
     7
100
AcDbLine
 10
729.9754109738415
 20
-2.21080031984502
 30
0.0
 11
649.9754109738415
 21
-2.21080031984502
 31
0.0
  0
LINE
  5
C0
330
43
100
AcDbEntity
  8
1
  6
Continuous
 62
     4
100
AcDbLine
 10
657.9548652802187
 20
204.7992588517529
 30
0.0
 11
657.9548652802187
 21
149.799258851752
 31
0.0
  0
LINE
  5
C1
330
43
100
AcDbEntity
  8
1
  6
Continuous
 62
     4
100
AcDbLine
 10
587.5104208357734
 20
149.799258851752
 30
0.0
 11
683.06597639133
 21
149.799258851752
 31
0.0
  0
LINE
  5
C2
330
43
100
AcDbEntity
  8
1
  6
Continuous
 62
     2
100
AcDbLine
 10
604.1770875024413
 20
164.799258851752
 30
0.0
 11
683.06597639133
 21
164.799258851752
 31
0.0
  0
LINE
  5
C3
330
43
100
AcDbEntity
  8
1
  6
Continuous
 62
     2
100
AcDbLine
 10
604.1770875024413
 20
174.799258851752
 30
0.0
 11
683.06597639133
 21
174.799258851752
 31
0.0
  0
LINE
  5
C4
330
43
100
AcDbEntity
  8
1
  6
Continuous
 62
     4
100
AcDbLine
 10
683.06597639133
 20
204.7992588517529
 30
0.0
 11
683.06597639133
 21
149.799258851752
 31
0.0
  0
LINE
  5
C5
330
43
100
AcDbEntity
  8
1
  6
Continuous
 62
     4
100
AcDbLine
 10
623.06597639133
 20
204.7992588517529
 30
0.0
 11
623.06597639133
 21
149.799258851752
 31
0.0
  0
LINE
  5
C6
330
43
100
AcDbEntity
  8
1
  6
Continuous
 62
     4
100
AcDbLine
 10
633.06597639133
 20
204.7992588517529
 30
0.0
 11
633.06597639133
 21
149.799258851752
 31
0.0
  0
LINE
  5
C7
330
43
100
AcDbEntity
  8
1
  6
Continuous
 62
     4
100
AcDbLine
 10
650.1770875024413
 20
204.7992588517529
 30
0.0
 11
650.1770875024413
 21
149.799258851752
 31
0.0
  0
LINE
  5
C8
330
43
100
AcDbEntity
  8
1
  6
Continuous
 62
     4
100
AcDbLine
 10
683.06597639133
 20
199.7992588517529
 30
0.0
 11
587.5104208357734
 21
199.7992588517529
 31
0.0
  0
LINE
  5
C9
330
43
100
AcDbEntity
  8
1
  6
Continuous
 62
     2
100
AcDbLine
 10
604.1770875024413
 20
194.7992588517529
 30
0.0
 11
683.06597639133
 21
194.7992588517529
 31
0.0
  0
LINE
  5
CA
330
43
100
AcDbEntity
  8
1
  6
Continuous
 62
     2
100
AcDbLine
 10
683.06597639133
 20
184.799258851752
 30
0.0
 11
604.1770875024413
 21
184.799258851752
 31
0.0
  0
LINE
  5
CB
330
43
100
AcDbEntity
  8
1
  6
Continuous
 62
     4
100
AcDbLine
 10
642.399309724663
 20
204.7992588517529
 30
0.0
 11
642.399309724663
 21
149.799258851752
 31
0.0
  0
LINE
  5
CC
330
43
100
AcDbEntity
  8
1
  6
Continuous
 62
     4
100
AcDbLine
 10
604.1770875024413
 20
204.7992588517529
 30
0.0
 11
604.1770875024413
 21
149.799258851752
 31
0.0
  0
LINE
  5
CD
330
43
100
AcDbEntity
  8
1
  6
Continuous
 62
     2
100
AcDbLine
 10
587.5104208357734
 20
189.799258851752
 30
0.0
 11
683.06597639133
 21
189.799258851752
 31
0.0
  0
LINE
  5
CE
330
43
100
AcDbEntity
  8
1
  6
Continuous
 62
     2
100
AcDbLine
 10
683.06597639133
 20
179.799258851752
 30
0.0
 11
587.5104208357734
 21
179.799258851752
 31
0.0
  0
LINE
  5
CF
330
43
100
AcDbEntity
  8
1
  6
Continuous
 62
     2
100
AcDbLine
 10
587.5104208357734
 20
169.799258851752
 30
0.0
 11
683.06597639133
 21
169.799258851752
 31
0.0
  0
LINE
  5
D0
330
43
100
AcDbEntity
  8
1
  6
Continuous
 62
     2
100
AcDbLine
 10
587.5104208357734
 20
159.799258851752
 30
0.0
 11
683.06597639133
 21
159.799258851752
 31
0.0
  0
LINE
  5
D1
330
43
100
AcDbEntity
  8
1
  6
Continuous
 62
     2
100
AcDbLine
 10
604.1770875024413
 20
154.799258851752
 30
0.0
 11
683.06597639133
 21
154.799258851752
 31
0.0
  0
LINE
  5
D2
330
43
100
AcDbEntity
  8
1
  6
Continuous
 62
     4
100
AcDbLine
 10
587.5104208357734
 20
149.799258851752
 30
0.0
 11
587.5104208357734
 21
204.7992588517529
 31
0.0
  0
LINE
  5
D3
330
43
100
AcDbEntity
  8
1
  6
Continuous
 62
     4
100
AcDbLine
 10
587.5104208357734
 20
204.7992588517529
 30
0.0
 11
683.06597639133
 21
204.7992588517529
 31
0.0
  0
LINE
  5
D4
330
43
100
AcDbEntity
  8
1
  6
Continuous
 62
     2
100
AcDbLine
 10
734.9754109738415
 20
289.789199680155
 30
0.0
 11
734.9754109738415
 21
-7.21080031984502
 31
0.0
  0
LINE
  5
D5
330
43
100
AcDbEntity
  8
1
  6
Continuous
 62
     7
100
AcDbLine
 10
729.9754109738415
 20
284.789199680155
 30
0.0
 11
729.9754109738415
 21
49.78919968015498
 31
0.0
  0
LINE
  5
D6
330
43
100
AcDbEntity
  8
1
  6
Continuous
 62
     7
100
AcDbLine
 10
544.9754109738415
 20
-2.21080031984502
 30
0.0
 11
319.9754109738415
 21
-2.21080031984502
 31
0.0
  0
LINE
  5
D7
330
43
100
AcDbEntity
  8
1
  6
Continuous
 62
     2
100
AcDbLine
 10
734.9754109738415
 20
-7.21080031984502
 30
0.0
 11
314.9754109738415
 21
-7.21080031984502
 31
0.0
  0
LINE
  5
D8
330
43
100
AcDbEntity
  8
1
  6
Continuous
 62
     2
100
AcDbLine
 10
314.9754109738415
 20
-7.21080031984502
 30
0.0
 11
314.9754109738415
 21
289.789199680155
 31
0.0
  0
LINE
  5
D9
330
43
100
AcDbEntity
  8
1
  6
Continuous
 62
     7
100
AcDbLine
 10
319.9754109738415
 20
-2.21080031984502
 30
0.0
 11
319.9754109738415
 21
284.789199680155
 31
0.0
  0
LINE
  5
DA
330
43
100
AcDbEntity
  8
1
  6
Continuous
 62
     7
100
AcDbLine
 10
319.9754109738415
 20
284.789199680155
 30
0.0
 11
729.9754109738415
 21
284.789199680155
 31
0.0
  0
LINE
  5
DB
330
43
100
AcDbEntity
  8
1
  6
Continuous
 62
     2
100
AcDbLine
 10
314.9754109738415
 20
289.789199680155
 30
0.0
 11
734.9754109738415
 21
289.789199680155
 31
0.0
  0
MTEXT
  5
DD
330
43
100
AcDbEntity
  8
1
 62
     2
100
AcDbMText
 10
675.56597639133
 20
171.8913551861881
 30
0.0
 40
2.5
 41
0.0
 71
     5
 72
     1
  1
--
  7
CONVERTER_11
 73
     1
 44
1.32052821128451
  0
MTEXT
  5
DE
330
43
100
AcDbEntity
  8
1
 62
     2
100
AcDbMText
 10
675.56597639133
 20
196.0492588517529
 30
0.0
 40
2.5
 41
0.0
 71
     8
 72
     1
  1
24/28
  7
CONVERTER_11
 73
     1
 44
1.32052821128451
  0
MTEXT
  5
DF
330
43
100
AcDbEntity
  8
1
 62
     2
100
AcDbMText
 10
675.56597639133
 20
201.0492588517529
 30
0.0
 40
2.5
 41
0.0
 71
     8
 72
     1
  1
Rotex
  7
CONVERTER_11
 73
     1
 44
1.32052821128451
  0
MTEXT
  5
E0
330
43
100
AcDbEntity
  8
1
 62
     2
100
AcDbMText
 10
675.56597639133
 20
181.8913551861881
 30
0.0
 40
2.5
 41
0.0
 71
     5
 72
     1
  1
--
  7
CONVERTER_11
 73
     1
 44
1.32052821128451
  0
MTEXT
  5
E1
330
43
100
AcDbEntity
  8
1
 62
     2
100
AcDbMText
 10
675.56597639133
 20
191.8913551861881
 30
0.0
 40
2.5
 41
0.0
 71
     5
 72
     1
  1
--
  7
CONVERTER_11
 73
     1
 44
1.32052821128451
  0
MTEXT
  5
E2
330
43
100
AcDbEntity
  8
1
 62
     2
100
AcDbMText
 10
675.56597639133
 20
161.8913551861881
 30
0.0
 40
2.5
 41
0.0
 71
     5
 72
     1
  1
--
  7
CONVERTER_11
 73
     1
 44
1.32052821128451
  0
MTEXT
  5
E3
330
43
100
AcDbEntity
  8
1
 62
     2
100
AcDbMText
 10
675.56597639133
 20
156.0492588517529
 30
0.0
 40
2.5
 41
0.0
 71
     8
 72
     1
  1
38
  7
CONVERTER_11
 73
     1
 44
1.32052821128451
  0
MTEXT
  5
E4
330
43
100
AcDbEntity
  8
1
 62
     2
100
AcDbMText
 10
675.56597639133
 20
151.0492588517529
 30
0.0
 40
2.5
 41
0.0
 71
     8
 72
     1
  1
38
  7
CONVERTER_11
 73
     1
 44
1.32052821128451
  0
MTEXT
  5
E5
330
43
100
AcDbEntity
  8
1
 62
     7
100
AcDbMText
 10
689.9754109738415
 20
5.28919968015498
 30
0.0
 40
4.0
 41
0.0
 71
     5
 72
     1
  1
MB1-0298-3a
  7
CONVERTER_11
 73
     1
 44
1.32052821128451
  0
MTEXT
  5
E6
330
43
100
AcDbEntity
  8
1
 62
     7
100
AcDbMText
 10
544.9754109738415
 20
23.78919968015498
 30
0.0
 40
4.0
 41
0.0
 71
     4
 72
     1
  1
 Typ SGG104/11
  7
CONVERTER_11
 73
     1
 44
1.32052821128451
  0
MTEXT
  5
E7
330
43
100
AcDbEntity
  8
1
 62
     2
100
AcDbMText
 10
662.9754109738415
 20
21.03919968015498
 30
0.0
 40
2.5
 41
0.0
 71
     5
 72
     1
  1
 %
  7
CONVERTER_11
 73
     1
 44
1.32052821128451
  0
MTEXT
  5
E8
330
43
100
AcDbEntity
  8
1
 62
     2
100
AcDbMText
 10
544.9754109738415
 20
31.28919968015498
 30
0.0
 40
2.5
 41
0.0
 71
     4
 72
     1
  1
  Motoranbaum\U+00f6glichkeiten
  7
CONVERTER_11
 73
     1
 44
1.32052821128451
  0
MTEXT
  5
E9
330
43
100
AcDbEntity
  8
1
 62
     2
100
AcDbMText
 10
675.9754109738415
 20
26.53919968015498
 30
0.0
 40
2.0
 41
0.0
 71
     4
 72
     1
  1
 Gepr\U+00fcft
  7
CONVERTER_11
 73
     1
 44
1.32052821128451
  0
MTEXT
  5
EA
330
43
100
AcDbEntity
  8
1
 62
     2
100
AcDbMText
 10
675.9754109738415
 20
32.03919968015498
 30
0.0
 40
2.0
 41
0.0
 71
     4
 72
     1
  1
 Gezeichnet
  7
CONVERTER_11
 73
     1
 44
1.32052821128451
  0
MTEXT
  5
EB
330
43
100
AcDbEntity
  8
1
 62
     2
100
AcDbMText
 10
662.9754109738415
 20
26.53919968015498
 30
0.0
 40
2.0
 41
0.0
 71
     5
 72
     1
  1
Massstab
  7
CONVERTER_11
 73
     1
 44
1.32052821128451
  0
MTEXT
  5
EC
330
43
100
AcDbEntity
  8
1
 62
     2
100
AcDbMText
 10
649.9754109738415
 20
32.03919968015498
 30
0.0
 40
2.0
 41
0.0
 71
     4
 72
     1
  1
 Kd.-Nr.
  7
CONVERTER_11
 73
     1
 44
1.32052821128451
  0
MTEXT
  5
ED
330
43
100
AcDbEntity
  8
1
 62
     2
100
AcDbMText
 10
585.4754109738406
 20
47.28919968015498
 30
0.0
 40
2.0
 41
0.0
 71
     4
 72
     1
  1
 Vis.
  7
CONVERTER_11
 73
     1
 44
1.32052821128451
  0
MTEXT
  5
EE
330
43
100
AcDbEntity
  8
1
 62
     2
100
AcDbMText
 10
572.9754109738406
 20
47.28919968015498
 30
0.0
 40
2.0
 41
0.0
 71
     4
 72
     1
  1
 Dat.
  7
CONVERTER_11
 73
     1
 44
1.32052821128451
  0
MTEXT
  5
EF
330
43
100
AcDbEntity
  8
1
 62
     2
100
AcDbMText
 10
552.9754109738406
 20
47.28919968015498
 30
0.0
 40
2.0
 41
0.0
 71
     4
 72
     1
  1
 \U+00c4nd.-Nr.
  7
CONVERTER_11
 73
     1
 44
1.32052821128451
  0
MTEXT
  5
F0
330
43
100
AcDbEntity
  8
1
 62
     2
100
AcDbMText
 10
544.9754109738415
 20
47.28919968015498
 30
0.0
 40
2.0
 41
0.0
 71
     4
 72
     1
  1
 Ind.
  7
CONVERTER_11
 73
     1
 44
1.32052821128451
  0
MTEXT
  5
F1
330
43
100
AcDbEntity
  8
1
 62
     2
100
AcDbMText
 10
702.4754109738415
 20
40.41419968015498
 30
0.0
 40
1.8
 41
0.0
 71
     4
 72
     1
  1
 Ersatz f\U+00fcr:
  7
CONVERTER_11
 73
     1
 44
1.32052821128451
  0
MTEXT
  5
F2
330
43
100
AcDbEntity
  8
1
 62
     2
100
AcDbMText
 10
702.4754109738415
 20
47.91419968015498
 30
0.0
 40
1.8
 41
0.0
 71
     4
 72
     1
  1
 Ersetzt durch:
  7
CONVERTER_11
 73
     1
 44
1.32052821128451
  0
MTEXT
  5
F3
330
43
100
AcDbEntity
  8
1
 62
     7
100
AcDbMText
 10
597.4754109738415
 20
5.28919968015498
 30
0.0
 40
4.0
 41
0.0
 71
     5
 72
     1
  1
TH. Z\U+00dcRRER AG  8055 Z\U+00dcRICH
  7
CONVERTER_11
 73
     1
 44
1.32052821128451
  0
MTEXT
  5
F4
330
43
100
AcDbEntity
  8
1
 62
     2
100
AcDbMText
 10
696.2763092086107
 20
32.19120622539299
 30
0.0
 40
2.0
 41
0.0
 71
     4
 72
     1
  1
20.02.1996
  7
CONVERTER_11
 73
     1
 44
1.32052821128451
  0
MTEXT
  5
F5
330
43
100
AcDbEntity
  8
1
 62
     2
100
AcDbMText
 10
716.8777081706276
 20
32.10912893869204
 30
0.0
 40
2.0
 41
0.0
 71
     4
 72
     1
  1
N.Frei
  7
CONVERTER_11
 73
     1
 44
1.32052821128451
  0
MTEXT
  5
F6
330
43
100
AcDbEntity
  8
1
 62
     2
100
AcDbMText
 10
665.9548652802187
 20
156.049258851752
 30
0.0
 40
2.5
 41
0.0
 71
     9
 72
     1
  1
300
  7
CONVERTER_11
 73
     1
 44
1.32052821128451
  0
MTEXT
  5
F7
330
43
100
AcDbEntity
  8
1
 62
     2
100
AcDbMText
 10
654.06597639133
 20
156.8947065271891
 30
0.0
 40
2.5
 41
0.0
 71
     5
 72
     1
  1
--
  7
CONVERTER_11
 73
     1
 44
1.32052821128451
  0
MTEXT
  5
F8
330
43
100
AcDbEntity
  8
1
 62
     2
100
AcDbMText
 10
648.1770875024413
 20
156.049258851752
 30
0.0
 40
2.5
 41
0.0
 71
     9
 72
     1
  1
25
  7
CONVERTER_11
 73
     1
 44
1.32052821128451
  0
MTEXT
  5
F9
330
43
100
AcDbEntity
  8
1
 62
     2
100
AcDbMText
 10
640.399309724663
 20
156.049258851752
 30
0.0
 40
2.5
 41
0.0
 71
     9
 72
     1
  1
112
  7
CONVERTER_11
 73
     1
 44
1.32052821128451
  0
MTEXT
  5
FA
330
43
100
AcDbEntity
  8
1
 62
     2
100
AcDbMText
 10
631.06597639133
 20
156.049258851752
 30
0.0
 40
2.5
 41
0.0
 71
     9
 72
     1
  1
397
  7
CONVERTER_11
 73
     1
 44
1.32052821128451
  0
MTEXT
  5
FB
330
43
100
AcDbEntity
  8
1
 62
     2
100
AcDbMText
 10
654.06597639133
 20
166.8947065271891
 30
0.0
 40
2.5
 41
0.0
 71
     5
 72
     1
  1
--
  7
CONVERTER_11
 73
     1
 44
1.32052821128451
  0
MTEXT
  5
FC
330
43
100
AcDbEntity
  8
1
 62
     2
100
AcDbMText
 10
662.9548652802187
 20
161.8947065271891
 30
0.0
 40
2.5
 41
0.0
 71
     5
 72
     1
  1
--
  7
CONVERTER_11
 73
     1
 44
1.32052821128451
  0
MTEXT
  5
FD
330
43
100
AcDbEntity
  8
1
 62
     2
100
AcDbMText
 10
654.06597639133
 20
161.8947065271891
 30
0.0
 40
2.5
 41
0.0
 71
     5
 72
     1
  1
--
  7
CONVERTER_11
 73
     1
 44
1.32052821128451
  0
MTEXT
  5
FE
330
43
100
AcDbEntity
  8
1
 62
     2
100
AcDbMText
 10
646.2881986135517
 20
161.8947065271891
 30
0.0
 40
2.5
 41
0.0
 71
     5
 72
     1
  1
--
  7
CONVERTER_11
 73
     1
 44
1.32052821128451
  0
MTEXT
  5
FF
330
43
100
AcDbEntity
  8
1
 62
     2
100
AcDbMText
 10
637.7326430579969
 20
161.8947065271891
 30
0.0
 40
2.5
 41
0.0
 71
     5
 72
     1
  1
--
  7
CONVERTER_11
 73
     1
 44
1.32052821128451
  0
MTEXT
  5
100
330
43
100
AcDbEntity
  8
1
 62
     2
100
AcDbMText
 10
628.06597639133
 20
161.8947065271891
 30
0.0
 40
2.5
 41
0.0
 71
     8
 72
     1
  1
--
  7
CONVERTER_11
 73
     1
 44
1.32052821128451
  0
MTEXT
  5
101
330
43
100
AcDbEntity
  8
1
 62
     2
100
AcDbMText
 10
662.9548652802187
 20
171.8947065271891
 30
0.0
 40
2.5
 41
0.0
 71
     5
 72
     1
  1
--
  7
CONVERTER_11
 73
     1
 44
1.32052821128451
  0
MTEXT
  5
102
330
43
100
AcDbEntity
  8
1
 62
     2
100
AcDbMText
 10
646.2881986135517
 20
171.8947065271891
 30
0.0
 40
2.5
 41
0.0
 71
     5
 72
     1
  1
--
  7
CONVERTER_11
 73
     1
 44
1.32052821128451
  0
MTEXT
  5
103
330
43
100
AcDbEntity
  8
1
 62
     2
100
AcDbMText
 10
637.7326430579969
 20
171.8947065271891
 30
0.0
 40
2.5
 41
0.0
 71
     5
 72
     1
  1
--
  7
CONVERTER_11
 73
     1
 44
1.32052821128451
  0
MTEXT
  5
104
330
43
100
AcDbEntity
  8
1
 62
     2
100
AcDbMText
 10
628.06597639133
 20
171.8947065271891
 30
0.0
 40
2.5
 41
0.0
 71
     5
 72
     1
  1
--
  7
CONVERTER_11
 73
     1
 44
1.32052821128451
  0
MTEXT
  5
105
330
43
100
AcDbEntity
  8
1
 62
     2
100
AcDbMText
 10
654.06597639133
 20
171.8947065271891
 30
0.0
 40
2.5
 41
0.0
 71
     5
 72
     1
  1
--
  7
CONVERTER_11
 73
     1
 44
1.32052821128451
  0
MTEXT
  5
106
330
43
100
AcDbEntity
  8
1
 62
     2
100
AcDbMText
 10
654.06597639133
 20
176.8947065271891
 30
0.0
 40
2.5
 41
0.0
 71
     5
 72
     1
  1
--
  7
CONVERTER_11
 73
     1
 44
1.32052821128451
  0
MTEXT
  5
107
330
43
100
AcDbEntity
  8
1
 62
     2
100
AcDbMText
 10
654.06597639133
 20
186.8947065271891
 30
0.0
 40
2.5
 41
0.0
 71
     5
 72
     1
  1
--
  7
CONVERTER_11
 73
     1
 44
1.32052821128451
  0
MTEXT
  5
108
330
43
100
AcDbEntity
  8
1
 62
     2
100
AcDbMText
 10
654.06597639133
 20
196.8947065271891
 30
0.0
 40
2.5
 41
0.0
 71
     5
 72
     1
  1
--
  7
CONVERTER_11
 73
     1
 44
1.32052821128451
  0
MTEXT
  5
109
330
43
100
AcDbEntity
  8
1
 62
     2
100
AcDbMText
 10
662.9548652802187
 20
201.0492588517529
 30
0.0
 40
2.5
 41
0.0
 71
     8
 72
     1
  1
D
  7
CONVERTER_11
 73
     1
 44
1.32052821128451
  0
MTEXT
  5
10A
330
43
100
AcDbEntity
  8
1
 62
     2
100
AcDbMText
 10
665.9548652802187
 20
196.0492588517529
 30
0.0
 40
2.5
 41
0.0
 71
     9
 72
     1
  1
200
  7
CONVERTER_11
 73
     1
 44
1.32052821128451
  0
MTEXT
  5
10B
330
43
100
AcDbEntity
  8
1
 62
     2
100
AcDbMText
 10
665.9548652802187
 20
186.049258851752
 30
0.0
 40
2.5
 41
0.0
 71
     9
 72
     1
  1
200
  7
CONVERTER_11
 73
     1
 44
1.32052821128451
  0
MTEXT
  5
10C
330
43
100
AcDbEntity
  8
1
 62
     2
100
AcDbMText
 10
665.9548652802187
 20
176.049258851752
 30
0.0
 40
2.5
 41
0.0
 71
     9
 72
     1
  1
250
  7
CONVERTER_11
 73
     1
 44
1.32052821128451
  0
MTEXT
  5
10D
330
43
100
AcDbEntity
  8
1
 62
     2
100
AcDbMText
 10
665.9548652802187
 20
166.049258851752
 30
0.0
 40
2.5
 41
0.0
 71
     9
 72
     1
  1
250
  7
CONVERTER_11
 73
     1
 44
1.32052821128451
  0
MTEXT
  5
10E
330
43
100
AcDbEntity
  8
1
 62
     2
100
AcDbMText
 10
589.5104208357734
 20
164.799258851752
 30
0.0
 40
2.5
 41
0.0
 71
     4
 72
     1
  1
IEC112
  7
CONVERTER_11
 73
     1
 44
1.32052821128451
  0
MTEXT
  5
10F
330
43
100
AcDbEntity
  8
1
 62
     2
100
AcDbMText
 10
589.5104208357734
 20
174.799258851752
 30
0.0
 40
2.5
 41
0.0
 71
     4
 72
     1
  1
IEC100
  7
CONVERTER_11
 73
     1
 44
1.32052821128451
  0
TEXT
  5
110
330
43
100
AcDbEntity
  8
1
 62
     2
100
AcDbText
 10
589.5104208357734
 20
201.0492588517529
 30
0.0
 40
2.5
  1
El.Motor
 41
0.9
  7
CONVERTER_11
100
AcDbText
  0
MTEXT
  5
111
330
43
100
AcDbEntity
  8
1
 62
     2
100
AcDbMText
 10
628.06597639133
 20
201.0492588517529
 30
0.0
 40
2.5
 41
0.0
 71
     8
 72
     1
  1
L
  7
CONVERTER_11
 73
     1
 44
1.32052821128451
  0
MTEXT
  5
112
330
43
100
AcDbEntity
  8
1
 62
     2
100
AcDbMText
 10
646.2881986135517
 20
201.0492588517529
 30
0.0
 40
2.5
 41
0.0
 71
     8
 72
     1
  1
B
  7
CONVERTER_11
 73
     1
 44
1.32052821128451
  0
MTEXT
  5
113
330
43
100
AcDbEntity
  8
1
 62
     2
100
AcDbMText
 10
654.06597639133
 20
201.0492588517529
 30
0.0
 40
2.5
 41
0.0
 71
     8
 72
     1
  1
C
  7
CONVERTER_11
 73
     1
 44
1.32052821128451
  0
MTEXT
  5
114
330
43
100
AcDbEntity
  8
1
 62
     2
100
AcDbMText
 10
648.1770875024413
 20
196.0492588517529
 30
0.0
 40
2.5
 41
0.0
 71
     9
 72
     1
  1
12
  7
CONVERTER_11
 73
     1
 44
1.32052821128451
  0
MTEXT
  5
115
330
43
100
AcDbEntity
  8
1
 62
     2
100
AcDbMText
 10
589.5104208357734
 20
194.7992588517529
 30
0.0
 40
2.5
 41
0.0
 71
     4
 72
     1
  1
IEC80
  7
CONVERTER_11
 73
     1
 44
1.32052821128451
  0
MTEXT
  5
116
330
43
100
AcDbEntity
  8
1
 62
     2
100
AcDbMText
 10
589.5104208357734
 20
184.799258851752
 30
0.0
 40
2.5
 41
0.0
 71
     4
 72
     1
  1
IEC90
  7
CONVERTER_11
 73
     1
 44
1.32052821128451
  0
MTEXT
  5
117
330
43
100
AcDbEntity
  8
1
 62
     2
100
AcDbMText
 10
648.1770875024413
 20
186.049258851752
 30
0.0
 40
2.5
 41
0.0
 71
     9
 72
     1
  1
15
  7
CONVERTER_11
 73
     1
 44
1.32052821128451
  0
MTEXT
  5
118
330
43
100
AcDbEntity
  8
1
 62
     2
100
AcDbMText
 10
648.1770875024413
 20
176.049258851752
 30
0.0
 40
2.5
 41
0.0
 71
     9
 72
     1
  1
25
  7
CONVERTER_11
 73
     1
 44
1.32052821128451
  0
MTEXT
  5
119
330
43
100
AcDbEntity
  8
1
 62
     2
100
AcDbMText
 10
631.06597639133
 20
176.049258851752
 30
0.0
 40
2.5
 41
0.0
 71
     9
 72
     1
  1
397
  7
CONVERTER_11
 73
     1
 44
1.32052821128451
  0
MTEXT
  5
11A
330
43
100
AcDbEntity
  8
1
 62
     2
100
AcDbMText
 10
631.0635847963749
 20
186.049258851752
 30
0.0
 40
2.5
 41
0.0
 71
     9
 72
     1
  1
387
  7
CONVERTER_11
 73
     1
 44
1.32052821128451
  0
MTEXT
  5
11B
330
43
100
AcDbEntity
  8
1
 62
     2
100
AcDbMText
 10
631.06597639133
 20
196.0492588517529
 30
0.0
 40
2.5
 41
0.0
 71
     9
 72
     1
  1
384
  7
CONVERTER_11
 73
     1
 44
1.32052821128451
  0
MTEXT
  5
11C
330
43
100
AcDbEntity
  8
1
 62
     2
100
AcDbMText
 10
631.06597639133
 20
166.049258851752
 30
0.0
 40
2.5
 41
0.0
 71
     9
 72
     1
  1
397
  7
CONVERTER_11
 73
     1
 44
1.32052821128451
  0
MTEXT
  5
11D
330
43
100
AcDbEntity
  8
1
 62
     2
100
AcDbMText
 10
637.7326430579969
 20
201.0492588517529
 30
0.0
 40
2.5
 41
0.0
 71
     8
 72
     1
  1
A
  7
CONVERTER_11
 73
     1
 44
1.32052821128451
  0
MTEXT
  5
11E
330
43
100
AcDbEntity
  8
1
 62
     2
100
AcDbMText
 10
640.399309724663
 20
196.0492588517529
 30
0.0
 40
2.5
 41
0.0
 71
     9
 72
     1
  1
99
  7
CONVERTER_11
 73
     1
 44
1.32052821128451
  0
MTEXT
  5
11F
330
43
100
AcDbEntity
  8
1
 62
     2
100
AcDbMText
 10
640.399309724663
 20
186.049258851752
 30
0.0
 40
2.5
 41
0.0
 71
     9
 72
     1
  1
102
  7
CONVERTER_11
 73
     1
 44
1.32052821128451
  0
MTEXT
  5
120
330
43
100
AcDbEntity
  8
1
 62
     2
100
AcDbMText
 10
640.3996420485655
 20
176.049258851752
 30
0.0
 40
2.5
 41
0.0
 71
     9
 72
     1
  1
112
  7
CONVERTER_11
 73
     1
 44
1.32052821128451
  0
MTEXT
  5
121
330
43
100
AcDbEntity
  8
1
 62
     2
100
AcDbMText
 10
640.399309724663
 20
166.049258851752
 30
0.0
 40
2.5
 41
0.0
 71
     9
 72
     1
  1
112
  7
CONVERTER_11
 73
     1
 44
1.32052821128451
  0
TEXT
  5
122
330
43
100
AcDbEntity
  8
1
 62
     2
100
AcDbText
 10
606.7723255976798
 20
201.0492588517529
 30
0.0
 40
2.5
  1
Flansch
 41
0.9
  7
CONVERTER_11
100
AcDbText
  0
TEXT
  5
123
330
43
100
AcDbEntity
  8
1
 62
     2
100
AcDbText
 10
611.1341509305939
 20
196.0492588517529
 30
0.0
 40
2.5
  1
B5
 41
0.9
  7
CONVERTER_11
100
AcDbText
  0
TEXT
  5
124
330
43
100
AcDbEntity
  8
1
 62
     2
100
AcDbText
 10
611.1341509305939
 20
186.049258851752
 30
0.0
 40
2.5
  1
B5
 41
0.9
  7
CONVERTER_11
100
AcDbText
  0
TEXT
  5
125
330
43
100
AcDbEntity
  8
1
 62
     2
100
AcDbText
 10
611.1341509305939
 20
176.049258851752
 30
0.0
 40
2.5
  1
B5
 41
0.9
  7
CONVERTER_11
100
AcDbText
  0
TEXT
  5
126
330
43
100
AcDbEntity
  8
1
 62
     2
100
AcDbText
 10
611.1341509305939
 20
166.049258851752
 30
0.0
 40
2.5
  1
B5
 41
0.9
  7
CONVERTER_11
100
AcDbText
  0
TEXT
  5
127
330
43
100
AcDbEntity
  8
1
 62
     2
100
AcDbText
 10
611.1341509305939
 20
156.049258851752
 30
0.0
 40
2.5
  1
B5
 41
0.9
  7
CONVERTER_11
100
AcDbText
  0
TEXT
  5
128
330
43
100
AcDbEntity
  8
1
 62
     2
100
AcDbText
 10
611.1341509305939
 20
191.049258851752
 30
0.0
 40
2.5
  1
B14
 41
0.9
  7
CONVERTER_11
100
AcDbText
  0
MTEXT
  5
129
330
43
100
AcDbEntity
  8
1
 62
     2
100
AcDbMText
 10
628.06597639133
 20
191.8947065271891
 30
0.0
 40
2.5
 41
0.0
 71
     5
 72
     1
  1
--
  7
CONVERTER_11
 73
     1
 44
1.32052821128451
  0
TEXT
  5
12A
330
43
100
AcDbEntity
  8
1
 62
     2
100
AcDbText
 10
611.1341509305939
 20
181.049258851752
 30
0.0
 40
2.5
  1
B14
 41
0.9
  7
CONVERTER_11
100
AcDbText
  0
TEXT
  5
12B
330
43
100
AcDbEntity
  8
1
 62
     2
100
AcDbText
 10
611.1341509305939
 20
171.049258851752
 30
0.0
 40
2.5
  1
B14
 41
0.9
  7
CONVERTER_11
100
AcDbText
  0
TEXT
  5
12C
330
43
100
AcDbEntity
  8
1
 62
     2
100
AcDbText
 10
611.1341509305939
 20
161.049258851752
 30
0.0
 40
2.5
  1
B14
 41
0.9
  7
CONVERTER_11
100
AcDbText
  0
TEXT
  5
12D
330
43
100
AcDbEntity
  8
1
 62
     2
100
AcDbText
 10
611.1341509305939
 20
151.049258851752
 30
0.0
 40
2.5
  1
B14
 41
0.9
  7
CONVERTER_11
100
AcDbText
  0
MTEXT
  5
12E
330
43
100
AcDbEntity
  8
1
 62
     2
100
AcDbMText
 10
648.1770875024413
 20
166.049258851752
 30
0.0
 40
2.5
 41
0.0
 71
     9
 72
     1
  1
25
  7
CONVERTER_11
 73
     1
 44
1.32052821128451
  0
MTEXT
  5
12F
330
43
100
AcDbEntity
  8
1
 62
     2
100
AcDbMText
 10
637.7326430579969
 20
191.8947065271891
 30
0.0
 40
2.5
 41
0.0
 71
     5
 72
     1
  1
--
  7
CONVERTER_11
 73
     1
 44
1.32052821128451
  0
MTEXT
  5
130
330
43
100
AcDbEntity
  8
1
 62
     2
100
AcDbMText
 10
654.06597639133
 20
191.8947065271891
 30
0.0
 40
2.5
 41
0.0
 71
     5
 72
     1
  1
--
  7
CONVERTER_11
 73
     1
 44
1.32052821128451
  0
MTEXT
  5
131
330
43
100
AcDbEntity
  8
1
 62
     2
100
AcDbMText
 10
646.2881986135517
 20
191.8947065271891
 30
0.0
 40
2.5
 41
0.0
 71
     5
 72
     1
  1
--
  7
CONVERTER_11
 73
     1
 44
1.32052821128451
  0
MTEXT
  5
132
330
43
100
AcDbEntity
  8
1
 62
     2
100
AcDbMText
 10
662.9548652802187
 20
191.8947065271891
 30
0.0
 40
2.5
 41
0.0
 71
     5
 72
     1
  1
--
  7
CONVERTER_11
 73
     1
 44
1.32052821128451
  0
MTEXT
  5
133
330
43
100
AcDbEntity
  8
1
 62
     2
100
AcDbMText
 10
628.06597639133
 20
181.8947065271891
 30
0.0
 40
2.5
 41
0.0
 71
     5
 72
     1
  1
--
  7
CONVERTER_11
 73
     1
 44
1.32052821128451
  0
MTEXT
  5
134
330
43
100
AcDbEntity
  8
1
 62
     2
100
AcDbMText
 10
637.7326430579969
 20
181.8947065271891
 30
0.0
 40
2.5
 41
0.0
 71
     5
 72
     1
  1
--
  7
CONVERTER_11
 73
     1
 44
1.32052821128451
  0
MTEXT
  5
135
330
43
100
AcDbEntity
  8
1
 62
     2
100
AcDbMText
 10
654.06597639133
 20
181.8947065271891
 30
0.0
 40
2.5
 41
0.0
 71
     5
 72
     1
  1
--
  7
CONVERTER_11
 73
     1
 44
1.32052821128451
  0
MTEXT
  5
136
330
43
100
AcDbEntity
  8
1
 62
     2
100
AcDbMText
 10
646.2881986135517
 20
181.8947065271891
 30
0.0
 40
2.5
 41
0.0
 71
     5
 72
     1
  1
--
  7
CONVERTER_11
 73
     1
 44
1.32052821128451
  0
MTEXT
  5
137
330
43
100
AcDbEntity
  8
1
 62
     2
100
AcDbMText
 10
662.9548652802187
 20
181.8947065271891
 30
0.0
 40
2.5
 41
0.0
 71
     5
 72
     1
  1
--
  7
CONVERTER_11
 73
     1
 44
1.32052821128451
  0
MTEXT
  5
138
330
43
100
AcDbEntity
  8
1
 62
     2
100
AcDbMText
 10
631.06597639133
 20
151.049258851752
 30
0.0
 40
2.5
 41
0.0
 71
     9
 72
     1
  1
422
  7
CONVERTER_11
 73
     1
 44
1.32052821128451
  0
MTEXT
  5
139
330
43
100
AcDbEntity
  8
1
 62
     2
100
AcDbMText
 10
640.3987140608233
 20
151.049258851752
 30
0.0
 40
2.5
 41
0.0
 71
     9
 72
     1
  1
137
  7
CONVERTER_11
 73
     1
 44
1.32052821128451
  0
MTEXT
  5
13A
330
43
100
AcDbEntity
  8
1
 62
     2
100
AcDbMText
 10
655.9548652802187
 20
151.049258851752
 30
0.0
 40
2.5
 41
0.0
 71
     9
 72
     1
  1
25
  7
CONVERTER_11
 73
     1
 44
1.32052821128451
  0
MTEXT
  5
13B
330
43
100
AcDbEntity
  8
1
 62
     2
100
AcDbMText
 10
648.1770875024413
 20
151.049258851752
 30
0.0
 40
2.5
 41
0.0
 71
     9
 72
     1
  1
25
  7
CONVERTER_11
 73
     1
 44
1.32052821128451
  0
MTEXT
  5
13C
330
43
100
AcDbEntity
  8
1
 62
     2
100
AcDbMText
 10
665.9548652802187
 20
151.049258851752
 30
0.0
 40
2.5
 41
0.0
 71
     9
 72
     1
  1
200
  7
CONVERTER_11
 73
     1
 44
1.32052821128451
  0
MTEXT
  5
13D
330
43
100
AcDbEntity
  8
1
 62
     2
100
AcDbMText
 10
589.5104208357734
 20
154.799258851752
 30
0.0
 40
2.5
 41
0.0
 71
     4
 72
     1
  1
IEC132
  7
CONVERTER_11
 73
     1
 44
1.32052821128451
  0
MTEXT
  5
13E
330
43
100
AcDbEntity
  8
1
 62
     2
100
AcDbMText
 10
675.56597639133
 20
186.049258851752
 30
0.0
 40
2.5
 41
0.0
 71
     8
 72
     1
  1
24/28
  7
CONVERTER_11
 73
     1
 44
1.32052821128451
  0
MTEXT
  5
13F
330
43
100
AcDbEntity
  8
1
 62
     2
100
AcDbMText
 10
675.56597639133
 20
176.049258851752
 30
0.0
 40
2.5
 41
0.0
 71
     8
 72
     1
  1
24/28
  7
CONVERTER_11
 73
     1
 44
1.32052821128451
  0
MTEXT
  5
140
330
43
100
AcDbEntity
  8
1
 62
     2
100
AcDbMText
 10
675.56597639133
 20
166.0492588517511
 30
0.0
 40
2.5
 41
0.0
 71
     8
 72
     1
  1
24/28
  7
CONVERTER_11
 73
     1
 44
1.32052821128451
  0
MTEXT
  5
141
330
43
100
AcDbEntity
  8
1
 62
     2
100
AcDbMText
 10
585.4754109738406
 20
42.28919968015498
 30
0.0
 40
2.0
 41
0.0
 71
     4
 72
     1
  1
 R.D.
  7
CONVERTER_11
 73
     1
 44
1.32052821128451
  0
MTEXT
  5
142
330
43
100
AcDbEntity
  8
1
 62
     2
100
AcDbMText
 10
571.9754109738415
 20
42.28919968015498
 30
0.0
 40
2.0
 41
0.0
 71
     4
 72
     1
  1
 19.09.05
  7
CONVERTER_11
 73
     1
 44
1.32052821128451
  0
MTEXT
  5
143
330
43
100
AcDbEntity
  8
1
 62
     2
100
AcDbMText
 10
552.9754109738406
 20
42.28919968015498
 30
0.0
 40
2.0
 41
0.0
 71
     4
 72
     1
  1
 3746
  7
CONVERTER_11
 73
     1
 44
1.32052821128451
  0
MTEXT
  5
144
330
43
100
AcDbEntity
  8
1
 62
     2
100
AcDbMText
 10
544.9754109738415
 20
42.28919968015498
 30
0.0
 40
2.0
 41
0.0
 71
     4
 72
     1
  1
 a)
  7
CONVERTER_11
 73
     1
 44
1.32052821128451
  0
ENDBLK
  5
45
330
43
100
AcDbEntity
  8
0
100
AcDbBlockEnd
  0
BLOCK
  5
6A
330
46
100
AcDbEntity
  8
0
100
AcDbBlockBegin
  2
Top__2
 70
     0
 10
2362.38934938228
 20
635.8013985606939
 30
0.0
  3
Top__2
  1

  0
INSERT
  5
69
330
46
100
AcDbEntity
  8
0
100
AcDbBlockReference
  2
Top__1
 10
-7161.488298034974
 20
-3247.202617809235
 30
0.0
 41
4.5
 42
4.5
 43
4.5
  0
LINE
  5
145
330
46
100
AcDbEntity
  8
1
  6
Continuous
 62
     4
100
AcDbLine
 10
1968.931952932581
 20
448.219741755957
 30
0.0
 11
1843.931952932581
 21
448.219741755957
 31
0.0
  0
LINE
  5
146
330
46
100
AcDbEntity
  8
1
  6
Continuous
 62
     4
100
AcDbLine
 10
1968.931952932581
 20
323.2197417559572
 30
0.0
 11
1843.931952932581
 21
323.2197417559572
 31
0.0
  0
LINE
  5
147
330
46
100
AcDbEntity
  8
1
  6
Continuous
 62
     4
100
AcDbLine
 10
1897.431952932581
 20
954.8379177984652
 30
0.0
 11
1897.431952932581
 21
960.219741755956
 31
0.0
  0
LINE
  5
148
330
46
100
AcDbEntity
  8
1
  6
Continuous
 62
     4
100
AcDbLine
 10
2135.931952932581
 20
460.719741755957
 30
0.0
 11
2135.931952932581
 21
310.7197417559572
 31
0.0
  0
LINE
  5
149
330
46
100
AcDbEntity
  8
1
  6
Continuous
 62
     4
100
AcDbLine
 10
2160.931952932581
 20
905.219741755957
 30
0.0
 11
2138.931952932581
 21
905.2197417559565
 31
0.0
  0
LINE
  5
14A
330
46
100
AcDbEntity
  8
1
  6
Continuous
 62
     4
100
AcDbLine
 10
2135.931952932581
 20
1105.219741755956
 30
0.0
 11
2135.931952932581
 21
1152.219741755956
 31
0.0
  0
LINE
  5
14B
330
46
100
AcDbEntity
  8
1
  6
Continuous
 62
     4
100
AcDbLine
 10
1915.431952932581
 20
960.219741755956
 30
0.0
 11
1915.431952932581
 21
954.8379177984652
 31
0.0
  0
LINE
  5
14C
330
46
100
AcDbEntity
  8
1
  6
Continuous
 62
     4
100
AcDbLine
 10
1897.431952932581
 20
960.219741755956
 30
0.0
 11
1915.431952932581
 21
960.219741755956
 31
0.0
  0
LINE
  5
14D
330
46
100
AcDbEntity
  8
1
  6
DASH_CENTER
 62
     2
100
AcDbLine
 10
1897.431952932581
 20
581.719741755957
 30
0.0
 11
1897.431952932581
 21
529.719741755957
 31
0.0
  0
LINE
  5
14E
330
46
100
AcDbEntity
  8
1
  6
DASH_CENTER
 62
     2
100
AcDbLine
 10
1915.431952932581
 20
529.719741755957
 30
0.0
 11
1915.431952932581
 21
581.719741755957
 31
0.0
  0
LINE
  5
14F
330
46
100
AcDbEntity
  8
1
  6
Continuous
 62
     4
100
AcDbLine
 10
1897.431952932581
 20
176.7197417559572
 30
0.0
 11
1897.431952932581
 21
124.7197417559572
 31
0.0
  0
LINE
  5
150
330
46
100
AcDbEntity
  8
1
  6
Continuous
 62
     4
100
AcDbLine
 10
1915.431952932581
 20
124.7197417559572
 30
0.0
 11
1915.431952932581
 21
176.7197417559572
 31
0.0
  0
LINE
  5
151
330
46
100
AcDbEntity
  8
1
  6
Continuous
 62
     4
100
AcDbLine
 10
1878.431952932581
 20
110.7197417559569
 30
0.0
 11
1936.431952932581
 21
110.7197417559569
 31
0.0
  0
LINE
  5
152
330
46
100
AcDbEntity
  8
1
  6
Continuous
 62
     4
100
AcDbLine
 10
1876.431952932581
 20
110.7197417559569
 30
0.0
 11
1878.431952932581
 21
110.7197417559569
 31
0.0
  0
LINE
  5
153
330
46
100
AcDbEntity
  8
1
  6
Continuous
 62
     4
100
AcDbLine
 10
1936.431952932581
 20
210.7197417559569
 30
0.0
 11
1946.431952932581
 21
210.7197417559572
 31
0.0
  0
LINE
  5
154
330
46
100
AcDbEntity
  8
1
  6
Continuous
 62
     4
100
AcDbLine
 10
1936.431952932581
 20
210.7197417559569
 30
0.0
 11
1936.431952932581
 21
110.7197417559569
 31
0.0
  0
LINE
  5
155
330
46
100
AcDbEntity
  8
1
  6
Continuous
 62
     4
100
AcDbLine
 10
1876.431952932581
 20
210.7197417559572
 30
0.0
 11
1936.431952932581
 21
210.7197417559569
 31
0.0
  0
LINE
  5
156
330
46
100
AcDbEntity
  8
1
  6
Continuous
 62
     4
100
AcDbLine
 10
1876.431952932581
 20
210.7197417559572
 30
0.0
 11
1876.431952932581
 21
110.7197417559569
 31
0.0
  0
LINE
  5
157
330
46
100
AcDbEntity
  8
1
  6
Continuous
 62
     4
100
AcDbLine
 10
1946.431952932581
 20
210.7197417559572
 30
0.0
 11
1946.431952932581
 21
215.7197417559572
 31
0.0
  0
LINE
  5
158
330
46
100
AcDbEntity
  8
1
  6
Continuous
 62
     4
100
AcDbLine
 10
1866.431952932581
 20
210.7197417559572
 30
0.0
 11
1876.431952932581
 21
210.7197417559572
 31
0.0
  0
LINE
  5
159
330
46
100
AcDbEntity
  8
1
  6
Continuous
 62
     4
100
AcDbLine
 10
1866.431952932581
 20
210.7197417559572
 30
0.0
 11
1866.431952932581
 21
215.7197417559572
 31
0.0
  0
LINE
  5
15A
330
46
100
AcDbEntity
  8
1
  6
DASH_CENTER
 62
     2
100
AcDbLine
 10
1946.431952932581
 20
490.719741755957
 30
0.0
 11
1946.431952932581
 21
495.719741755957
 31
0.0
  0
LINE
  5
15B
330
46
100
AcDbEntity
  8
1
  6
DASH_CENTER
 62
     2
100
AcDbLine
 10
1866.431952932581
 20
490.719741755957
 30
0.0
 11
1866.431952932581
 21
495.719741755957
 31
0.0
  0
LINE
  5
15C
330
46
100
AcDbEntity
  8
1
  6
DASH_CENTER
 62
     2
100
AcDbLine
 10
1878.431952932581
 20
595.719741755957
 30
0.0
 11
1876.431952932581
 21
595.719741755957
 31
0.0
  0
LINE
  5
15D
330
46
100
AcDbEntity
  8
1
  6
DASH_CENTER
 62
     2
100
AcDbLine
 10
1936.431952932581
 20
495.719741755957
 30
0.0
 11
1946.431952932581
 21
495.719741755957
 31
0.0
  0
LINE
  5
15E
330
46
100
AcDbEntity
  8
1
  6
DASH_CENTER
 62
     2
100
AcDbLine
 10
1936.431952932581
 20
595.719741755957
 30
0.0
 11
1936.431952932581
 21
495.719741755957
 31
0.0
  0
LINE
  5
15F
330
46
100
AcDbEntity
  8
1
  6
DASH_CENTER
 62
     2
100
AcDbLine
 10
1878.431952932581
 20
595.719741755957
 30
0.0
 11
1936.431952932581
 21
595.719741755957
 31
0.0
  0
LINE
  5
160
330
46
100
AcDbEntity
  8
1
  6
DASH_CENTER
 62
     2
100
AcDbLine
 10
1876.431952932581
 20
495.719741755957
 30
0.0
 11
1936.431952932581
 21
495.719741755957
 31
0.0
  0
LINE
  5
161
330
46
100
AcDbEntity
  8
1
  6
DASH_CENTER
 62
     2
100
AcDbLine
 10
1876.431952932581
 20
495.719741755957
 30
0.0
 11
1876.431952932581
 21
595.719741755957
 31
0.0
  0
LINE
  5
162
330
46
100
AcDbEntity
  8
1
  6
DASH_CENTER
 62
     2
100
AcDbLine
 10
1866.431952932581
 20
495.719741755957
 30
0.0
 11
1876.431952932581
 21
495.719741755957
 31
0.0
  0
LINE
  5
163
330
46
100
AcDbEntity
  8
1
  6
Continuous
 62
     4
100
AcDbLine
 10
1778.931952932581
 20
860.7197417559565
 30
0.0
 11
1763.931952932582
 21
860.7197417559565
 31
0.0
  0
LINE
  5
164
330
46
100
AcDbEntity
  8
1
  6
Continuous
 62
     4
100
AcDbLine
 10
2004.431952932581
 20
1101.219741755956
 30
0.0
 11
1968.931952932581
 21
1101.219741755956
 31
0.0
  0
LINE
  5
165
330
46
100
AcDbEntity
  8
1
  6
Continuous
 62
     4
100
AcDbLine
 10
2018.431952932581
 20
1101.219741755956
 30
0.0
 11
2004.431952932581
 21
1101.219741755956
 31
0.0
  0
LINE
  5
166
330
46
100
AcDbEntity
  8
1
  6
Continuous
 62
     4
100
AcDbLine
 10
2004.431952932581
 20
831.219741755957
 30
0.0
 11
2018.431952932581
 21
831.219741755957
 31
0.0
  0
LINE
  5
167
330
46
100
AcDbEntity
  8
1
  6
Continuous
 62
     4
100
AcDbLine
 10
2033.93195293258
 20
860.7197417559565
 30
0.0
 11
2033.93195293258
 21
894.2197417559565
 31
0.0
  0
LINE
  5
168
330
46
100
AcDbEntity
  8
1
  6
Continuous
 62
     4
100
AcDbLine
 10
2033.93195293258
 20
860.7197417559565
 30
0.0
 11
2033.93195293258
 21
846.7197417559565
 31
0.0
  0
LINE
  5
169
330
46
100
AcDbEntity
  8
1
  6
Continuous
 62
     4
100
AcDbLine
 10
2004.431952932581
 20
1086.219741755956
 30
0.0
 11
2018.431952932581
 21
1086.219741755956
 31
0.0
  0
LINE
  5
16A
330
46
100
AcDbEntity
  8
1
  6
Continuous
 62
     4
100
AcDbLine
 10
2018.431952932581
 20
1086.219741755956
 30
0.0
 11
2028.93195293258
 21
1086.219741755956
 31
0.0
  0
LINE
  5
16B
330
46
100
AcDbEntity
  8
1
  6
Continuous
 62
     4
100
AcDbLine
 10
2018.431952932581
 20
1086.219741755956
 30
0.0
 11
2018.431952932581
 21
1101.219741755956
 31
0.0
  0
LINE
  5
16C
330
46
100
AcDbEntity
  8
1
  6
Continuous
 62
     4
100
AcDbLine
 10
2004.431952932581
 20
1086.219741755956
 30
0.0
 11
2004.431952932581
 21
1101.219741755956
 31
0.0
  0
LINE
  5
16D
330
46
100
AcDbEntity
  8
1
  6
Continuous
 62
     4
100
AcDbLine
 10
2033.93195293258
 20
1070.719741755956
 30
0.0
 11
2033.93195293258
 21
1081.219741755956
 31
0.0
  0
LINE
  5
16E
330
46
100
AcDbEntity
  8
1
  6
Continuous
 62
     4
100
AcDbLine
 10
2033.93195293258
 20
1056.719741755956
 30
0.0
 11
2033.93195293258
 21
1070.719741755956
 31
0.0
  0
LINE
  5
16F
330
46
100
AcDbEntity
  8
1
  6
Continuous
 62
     4
100
AcDbLine
 10
1778.931952932581
 20
1056.719741755956
 30
0.0
 11
1778.931952932581
 21
1023.219741755956
 31
0.0
  0
LINE
  5
170
330
46
100
AcDbEntity
  8
1
  6
Continuous
 62
     4
100
AcDbLine
 10
1778.931952932581
 20
1070.719741755956
 30
0.0
 11
1778.931952932581
 21
1056.719741755956
 31
0.0
  0
LINE
  5
171
330
46
100
AcDbEntity
  8
1
  6
Continuous
 62
     4
100
AcDbLine
 10
1778.931952932581
 20
1081.219741755956
 30
0.0
 11
1778.931952932581
 21
1070.719741755956
 31
0.0
  0
LINE
  5
172
330
46
100
AcDbEntity
  8
1
  6
Continuous
 62
     4
100
AcDbLine
 10
1778.931952932581
 20
860.7197417559565
 30
0.0
 11
1778.931952932581
 21
894.2197417559565
 31
0.0
  0
LINE
  5
173
330
46
100
AcDbEntity
  8
1
  6
Continuous
 62
     4
100
AcDbLine
 10
1808.431952932581
 20
831.219741755957
 30
0.0
 11
1794.431952932581
 21
831.219741755957
 31
0.0
  0
LINE
  5
174
330
46
100
AcDbEntity
  8
1
  6
DASH_CENTER
 62
     2
100
AcDbLine
 10
1801.431952932581
 20
811.0034218306438
 30
0.0
 11
1801.431952932581
 21
836.0260071780317
 31
0.0
  0
LINE
  5
175
330
46
100
AcDbEntity
  8
1
  6
DASH_CENTER
 62
     2
100
AcDbLine
 10
1758.715633007268
 20
853.7197417559565
 30
0.0
 11
1783.738218354657
 21
853.7197417559568
 31
0.0
  0
LINE
  5
176
330
46
100
AcDbEntity
  8
1
  6
DASH_CENTER
 62
     2
100
AcDbLine
 10
2011.431952932581
 20
837.1676969216777
 30
0.0
 11
2011.431952932581
 21
810.9027009777726
 31
0.0
  0
LINE
  5
177
330
46
100
AcDbEntity
  8
1
  6
DASH_CENTER
 62
     2
100
AcDbLine
 10
2027.983997766861
 20
853.7197417559568
 30
0.0
 11
2054.248993710766
 21
853.7197417559565
 31
0.0
  0
LINE
  5
178
330
46
100
AcDbEntity
  8
1
  6
DASH_CENTER
 62
     2
100
AcDbLine
 10
2011.431952932581
 20
1081.504735254737
 30
0.0
 11
2011.431952932581
 21
1106.732521116765
 31
0.0
  0
LINE
  5
179
330
46
100
AcDbEntity
  8
1
  6
DASH_CENTER
 62
     2
100
AcDbLine
 10
2029.216946431361
 20
1063.719741755956
 30
0.0
 11
2055.44473229339
 21
1063.719741755956
 31
0.0
  0
LINE
  5
17A
330
46
100
AcDbEntity
  8
1
  6
DASH_CENTER
 62
     2
100
AcDbLine
 10
1759.708795538917
 20
1063.719741755956
 30
0.0
 11
1783.993072341347
 21
1063.719741755956
 31
0.0
  0
LINE
  5
17B
330
46
100
AcDbEntity
  8
1
  6
DASH_CENTER
 62
     2
100
AcDbLine
 10
1801.431952932581
 20
1105.442899149622
 30
0.0
 11
1801.431952932581
 21
1081.158622347191
 31
0.0
  0
LINE
  5
17C
330
46
100
AcDbEntity
  8
1
  6
Continuous
 62
     4
100
AcDbLine
 10
1794.431952932581
 20
1086.219741755956
 30
0.0
 11
1808.431952932581
 21
1086.219741755956
 31
0.0
  0
LINE
  5
17D
330
46
100
AcDbEntity
  8
1
  6
Continuous
 62
     4
100
AcDbLine
 10
1794.431952932581
 20
1101.219741755956
 30
0.0
 11
1778.931952932581
 21
1101.219741755956
 31
0.0
  0
LINE
  5
17E
330
46
100
AcDbEntity
  8
1
  6
Continuous
 62
     4
100
AcDbLine
 10
1794.431952932581
 20
1101.219741755956
 30
0.0
 11
1794.431952932581
 21
1086.219741755956
 31
0.0
  0
LINE
  5
17F
330
46
100
AcDbEntity
  8
1
  6
Continuous
 62
     4
100
AcDbLine
 10
1808.431952932581
 20
1086.219741755956
 30
0.0
 11
1841.931952932581
 21
1086.219741755956
 31
0.0
  0
LINE
  5
180
330
46
100
AcDbEntity
  8
1
  6
Continuous
 62
     4
100
AcDbLine
 10
1808.431952932581
 20
1101.219741755956
 30
0.0
 11
1794.431952932581
 21
1101.219741755956
 31
0.0
  0
LINE
  5
181
330
46
100
AcDbEntity
  8
1
  6
Continuous
 62
     4
100
AcDbLine
 10
1808.431952932581
 20
1101.219741755956
 30
0.0
 11
1808.431952932581
 21
1086.219741755956
 31
0.0
  0
LINE
  5
182
330
46
100
AcDbEntity
  8
1
  6
Continuous
 62
     4
100
AcDbLine
 10
1778.931952932581
 20
1056.719741755956
 30
0.0
 11
1763.931952932582
 21
1056.719741755956
 31
0.0
  0
LINE
  5
183
330
46
100
AcDbEntity
  8
1
  6
Continuous
 62
     4
100
AcDbLine
 10
1778.931952932581
 20
1070.719741755956
 30
0.0
 11
1763.931952932582
 21
1070.719741755956
 31
0.0
  0
LINE
  5
184
330
46
100
AcDbEntity
  8
1
  6
Continuous
 62
     4
100
AcDbLine
 10
1778.931952932581
 20
846.7197417559565
 30
0.0
 11
1778.931952932581
 21
836.2197417559568
 31
0.0
  0
LINE
  5
185
330
46
100
AcDbEntity
  8
1
  6
Continuous
 62
     4
100
AcDbLine
 10
1763.931952932582
 20
846.7197417559565
 30
0.0
 11
1763.931952932582
 21
831.219741755957
 31
0.0
  0
LINE
  5
186
330
46
100
AcDbEntity
  8
1
  6
Continuous
 62
     4
100
AcDbLine
 10
1763.931952932582
 20
846.7197417559565
 30
0.0
 11
1778.931952932581
 21
846.7197417559565
 31
0.0
  0
LINE
  5
187
330
46
100
AcDbEntity
  8
1
  6
Continuous
 62
     4
100
AcDbLine
 10
1763.931952932582
 20
860.7197417559565
 30
0.0
 11
1763.931952932582
 21
846.7197417559565
 31
0.0
  0
LINE
  5
188
330
46
100
AcDbEntity
  8
1
  6
Continuous
 62
     4
100
AcDbLine
 10
1794.431952932581
 20
816.219741755957
 30
0.0
 11
1808.431952932581
 21
816.219741755957
 31
0.0
  0
LINE
  5
189
330
46
100
AcDbEntity
  8
1
  6
Continuous
 62
     4
100
AcDbLine
 10
1794.431952932581
 20
816.219741755957
 30
0.0
 11
1794.431952932581
 21
831.219741755957
 31
0.0
  0
LINE
  5
18A
330
46
100
AcDbEntity
  8
1
  6
Continuous
 62
     4
100
AcDbLine
 10
1808.431952932581
 20
816.219741755957
 30
0.0
 11
1828.931952932581
 21
816.219741755957
 31
0.0
  0
LINE
  5
18B
330
46
100
AcDbEntity
  8
1
  6
Continuous
 62
     4
100
AcDbLine
 10
1808.431952932581
 20
831.219741755957
 30
0.0
 11
1808.431952932581
 21
816.219741755957
 31
0.0
  0
LINE
  5
18C
330
46
100
AcDbEntity
  8
1
  6
Continuous
 62
     4
100
AcDbLine
 10
2004.431952932581
 20
816.219741755957
 30
0.0
 11
2018.431952932581
 21
816.219741755957
 31
0.0
  0
LINE
  5
18D
330
46
100
AcDbEntity
  8
1
  6
Continuous
 62
     4
100
AcDbLine
 10
2004.431952932581
 20
816.219741755957
 30
0.0
 11
2004.431952932581
 21
831.219741755957
 31
0.0
  0
LINE
  5
18E
330
46
100
AcDbEntity
  8
1
  6
Continuous
 62
     4
100
AcDbLine
 10
2018.431952932581
 20
831.219741755957
 30
0.0
 11
2028.93195293258
 21
831.219741755957
 31
0.0
  0
LINE
  5
18F
330
46
100
AcDbEntity
  8
1
  6
Continuous
 62
     4
100
AcDbLine
 10
2018.431952932581
 20
816.219741755957
 30
0.0
 11
2033.93195293258
 21
816.219741755957
 31
0.0
  0
LINE
  5
190
330
46
100
AcDbEntity
  8
1
  6
Continuous
 62
     4
100
AcDbLine
 10
2018.431952932581
 20
816.219741755957
 30
0.0
 11
2018.431952932581
 21
831.219741755957
 31
0.0
  0
LINE
  5
191
330
46
100
AcDbEntity
  8
1
  6
Continuous
 62
     4
100
AcDbLine
 10
2048.931952932581
 20
846.7197417559568
 30
0.0
 11
2048.931952932581
 21
860.7197417559565
 31
0.0
  0
LINE
  5
192
330
46
100
AcDbEntity
  8
1
  6
Continuous
 62
     4
100
AcDbLine
 10
2033.93195293258
 20
846.7197417559565
 30
0.0
 11
2048.931952932581
 21
846.7197417559568
 31
0.0
  0
LINE
  5
193
330
46
100
AcDbEntity
  8
1
  6
Continuous
 62
     4
100
AcDbLine
 10
2048.931952932581
 20
860.7197417559565
 30
0.0
 11
2048.931952932581
 21
896.2197417559565
 31
0.0
  0
LINE
  5
194
330
46
100
AcDbEntity
  8
1
  6
Continuous
 62
     4
100
AcDbLine
 10
2033.93195293258
 20
860.7197417559565
 30
0.0
 11
2048.931952932581
 21
860.7197417559565
 31
0.0
  0
LINE
  5
195
330
46
100
AcDbEntity
  8
1
  6
Continuous
 62
     4
100
AcDbLine
 10
2048.931952932581
 20
1056.719741755956
 30
0.0
 11
2048.931952932581
 21
1070.719741755956
 31
0.0
  0
LINE
  5
196
330
46
100
AcDbEntity
  8
1
  6
Continuous
 62
     4
100
AcDbLine
 10
2033.93195293258
 20
1056.719741755956
 30
0.0
 11
2048.931952932581
 21
1056.719741755956
 31
0.0
  0
LINE
  5
197
330
46
100
AcDbEntity
  8
1
  6
Continuous
 62
     4
100
AcDbLine
 10
2048.931952932581
 20
1070.719741755956
 30
0.0
 11
2048.931952932581
 21
1086.219741755956
 31
0.0
  0
LINE
  5
198
330
46
100
AcDbEntity
  8
1
  6
Continuous
 62
     4
100
AcDbLine
 10
2033.93195293258
 20
1070.719741755956
 30
0.0
 11
2048.931952932581
 21
1070.719741755956
 31
0.0
  0
LINE
  5
199
330
46
100
AcDbEntity
  8
1
  6
DASH_CENTER
 62
     2
100
AcDbLine
 10
2185.931952932581
 20
1030.219741755956
 30
0.0
 11
2201.482644102964
 21
1030.219741755956
 31
0.0
  0
LINE
  5
19A
330
46
100
AcDbEntity
  8
1
  6
Continuous
 62
     4
100
AcDbLine
 10
2045.93195293258
 20
1019.487690948388
 30
0.0
 11
2048.931952932581
 21
1021.219741755956
 31
0.0
  0
LINE
  5
19B
330
46
100
AcDbEntity
  8
1
  6
Continuous
 62
     4
100
AcDbLine
 10
2045.93195293258
 20
1019.487690948388
 30
0.0
 11
2045.93195293258
 21
897.9517925635256
 31
0.0
  0
LINE
  5
19C
330
46
100
AcDbEntity
  8
1
  6
Continuous
 62
     4
100
AcDbLine
 10
1783.931952932581
 20
831.219741755957
 30
0.0
 11
1794.431952932581
 21
831.219741755957
 31
0.0
  0
LINE
  5
19D
330
46
100
AcDbEntity
  8
1
  6
Continuous
 62
     4
100
AcDbLine
 10
1778.931952932581
 20
846.7197417559565
 30
0.0
 11
1778.931952932581
 21
860.7197417559565
 31
0.0
  0
LINE
  5
19E
330
46
100
AcDbEntity
  8
1
  6
Continuous
 62
     4
100
AcDbLine
 10
2033.93195293258
 20
836.2197417559568
 30
0.0
 11
2033.93195293258
 21
846.7197417559565
 31
0.0
  0
LINE
  5
19F
330
46
100
AcDbEntity
  8
1
  6
Continuous
 62
     4
100
AcDbLine
 10
1783.931952932581
 20
1086.219741755956
 30
0.0
 11
1794.431952932581
 21
1086.219741755956
 31
0.0
  0
LINE
  5
1A0
330
46
100
AcDbEntity
  8
1
  6
Continuous
 62
     4
100
AcDbLine
 10
1843.931952932581
 20
1101.219741755956
 30
0.0
 11
1843.931952932581
 21
1088.219741755956
 31
0.0
  0
LINE
  5
1A1
330
46
100
AcDbEntity
  8
1
  6
Continuous
 62
     4
100
AcDbLine
 10
2048.931952932581
 20
1021.219741755956
 30
0.0
 11
2035.93195293258
 21
1021.219741755956
 31
0.0
  0
LINE
  5
1A2
330
46
100
AcDbEntity
  8
1
  6
Continuous
 62
     4
100
AcDbLine
 10
1970.931952932581
 20
1086.219741755956
 30
0.0
 11
2004.431952932581
 21
1086.219741755956
 31
0.0
  0
LINE
  5
1A3
330
46
100
AcDbEntity
  8
1
  6
Continuous
 62
     4
100
AcDbLine
 10
1968.931952932581
 20
1101.219741755956
 30
0.0
 11
1968.931952932581
 21
1088.219741755956
 31
0.0
  0
LINE
  5
1A4
330
46
100
AcDbEntity
  8
1
  6
Continuous
 62
     4
100
AcDbLine
 10
1763.931952932582
 20
896.2197417559565
 30
0.0
 11
1776.931952932581
 21
896.2197417559565
 31
0.0
  0
LINE
  5
1A5
330
46
100
AcDbEntity
  8
1
  6
Continuous
 62
     4
100
AcDbLine
 10
2048.931952932581
 20
896.2197417559565
 30
0.0
 11
2035.93195293258
 21
896.2197417559565
 31
0.0
  0
LINE
  5
1A6
330
46
100
AcDbEntity
  8
1
  6
Continuous
 62
     4
100
AcDbLine
 10
2033.93195293258
 20
1101.219741755956
 30
0.0
 11
2048.931952932581
 21
1086.219741755956
 31
0.0
  0
LINE
  5
1A7
330
46
100
AcDbEntity
  8
1
  6
Continuous
 62
     4
100
AcDbLine
 10
1778.931952932581
 20
816.219741755957
 30
0.0
 11
1763.931952932582
 21
831.219741755957
 31
0.0
  0
LINE
  5
1A8
330
46
100
AcDbEntity
  8
1
  6
Continuous
 62
     4
100
AcDbLine
 10
2048.931952932581
 20
831.219741755957
 30
0.0
 11
2033.93195293258
 21
816.219741755957
 31
0.0
  0
LINE
  5
1A9
330
46
100
AcDbEntity
  8
1
  6
Continuous
 62
     4
100
AcDbLine
 10
1983.931952932581
 20
816.219741755957
 30
0.0
 11
2004.431952932581
 21
816.219741755957
 31
0.0
  0
LINE
  5
1AA
330
46
100
AcDbEntity
  8
1
  6
Continuous
 62
     4
100
AcDbLine
 10
1982.199902125011
 20
819.219741755957
 30
0.0
 11
1983.931952932581
 21
816.219741755957
 31
0.0
  0
LINE
  5
1AB
330
46
100
AcDbEntity
  8
1
  6
Continuous
 62
     4
100
AcDbLine
 10
1828.931952932581
 20
816.219741755957
 30
0.0
 11
1830.66400374015
 21
819.219741755957
 31
0.0
  0
LINE
  5
1AC
330
46
100
AcDbEntity
  8
1
  6
Continuous
 62
     4
100
AcDbLine
 10
1778.931952932581
 20
816.219741755957
 30
0.0
 11
1794.431952932581
 21
816.219741755957
 31
0.0
  0
LINE
  5
1AD
330
46
100
AcDbEntity
  8
1
  6
Continuous
 62
     4
100
AcDbLine
 10
1763.931952932582
 20
896.2197417559565
 30
0.0
 11
1763.931952932582
 21
860.7197417559565
 31
0.0
  0
LINE
  5
1AE
330
46
100
AcDbEntity
  8
1
  6
Continuous
 62
     4
100
AcDbLine
 10
1766.931952932581
 20
897.9517925635256
 30
0.0
 11
1763.931952932582
 21
896.2197417559565
 31
0.0
  0
LINE
  5
1AF
330
46
100
AcDbEntity
  8
1
  6
Continuous
 62
     4
100
AcDbLine
 10
1843.931952932581
 20
1101.219741755956
 30
0.0
 11
1808.431952932581
 21
1101.219741755956
 31
0.0
  0
LINE
  5
1B0
330
46
100
AcDbEntity
  8
1
  6
Continuous
 62
     4
100
AcDbLine
 10
1845.66400374015
 20
1098.219741755956
 30
0.0
 11
1843.931952932581
 21
1101.219741755956
 31
0.0
  0
LINE
  5
1B1
330
46
100
AcDbEntity
  8
1
  6
Continuous
 62
     4
100
AcDbLine
 10
1967.199902125011
 20
1098.219741755956
 30
0.0
 11
1845.66400374015
 21
1098.219741755956
 31
0.0
  0
LINE
  5
1B2
330
46
100
AcDbEntity
  8
1
  6
Continuous
 62
     4
100
AcDbLine
 10
1968.931952932581
 20
1101.219741755956
 30
0.0
 11
1967.199902125011
 21
1098.219741755956
 31
0.0
  0
LINE
  5
1B3
330
46
100
AcDbEntity
  8
1
  6
Continuous
 62
     4
100
AcDbLine
 10
2033.93195293258
 20
1101.219741755956
 30
0.0
 11
2018.431952932581
 21
1101.219741755956
 31
0.0
  0
LINE
  5
1B4
330
46
100
AcDbEntity
  8
1
  6
Continuous
 62
     4
100
AcDbLine
 10
2048.931952932581
 20
1021.219741755956
 30
0.0
 11
2048.931952932581
 21
1056.719741755956
 31
0.0
  0
LINE
  5
1B5
330
46
100
AcDbEntity
  8
1
  6
Continuous
 62
     4
100
AcDbLine
 10
2048.931952932581
 20
896.2197417559565
 30
0.0
 11
2045.93195293258
 21
897.9517925635256
 31
0.0
  0
LINE
  5
1B6
330
46
100
AcDbEntity
  8
1
  6
Continuous
 62
     4
100
AcDbLine
 10
2048.931952932581
 20
831.219741755957
 30
0.0
 11
2048.931952932581
 21
846.7197417559568
 31
0.0
  0
LINE
  5
1B7
330
46
100
AcDbEntity
  8
1
  6
Continuous
 62
     4
100
AcDbLine
 10
2033.93195293258
 20
1023.219741755956
 30
0.0
 11
2033.93195293258
 21
1056.719741755956
 31
0.0
  0
LINE
  5
1B8
330
46
100
AcDbEntity
  8
1
  6
DASH_CENTER
 62
     2
100
AcDbLine
 10
1906.431952932581
 20
1043.719741755956
 30
0.0
 11
1906.431952932581
 21
1049.614623989441
 31
0.0
  0
LINE
  5
1B9
330
46
100
AcDbEntity
  8
1
  6
DASH_CENTER
 62
     2
100
AcDbLine
 10
1906.431952932581
 20
1049.614623989441
 30
0.0
 11
1906.431952932581
 21
1104.309912307594
 31
0.0
  0
LINE
  5
1BA
330
46
100
AcDbEntity
  8
1
  6
Continuous
 62
     4
100
AcDbLine
 10
1841.809975246965
 20
819.219741755957
 30
0.0
 11
1830.66400374015
 21
819.219741755957
 31
0.0
  0
LINE
  5
1BB
330
46
100
AcDbEntity
  8
1
  6
Continuous
 62
     4
100
AcDbLine
 10
1766.931952932581
 20
1019.487690948388
 30
0.0
 11
1763.931952932582
 21
1021.219741755956
 31
0.0
  0
LINE
  5
1BC
330
46
100
AcDbEntity
  8
1
  6
Continuous
 62
     4
100
AcDbLine
 10
1766.931952932581
 20
1019.487690948388
 30
0.0
 11
1766.931952932581
 21
897.9517925635256
 31
0.0
  0
LINE
  5
1BD
330
46
100
AcDbEntity
  8
1
  6
Continuous
 62
     4
100
AcDbLine
 10
1763.931952932582
 20
1021.219741755956
 30
0.0
 11
1763.931952932582
 21
1056.719741755956
 31
0.0
  0
LINE
  5
1BE
330
46
100
AcDbEntity
  8
1
  6
Continuous
 62
     4
100
AcDbLine
 10
1763.931952932582
 20
1086.219741755956
 30
0.0
 11
1778.931952932581
 21
1101.219741755956
 31
0.0
  0
LINE
  5
1BF
330
46
100
AcDbEntity
  8
1
  6
Continuous
 62
     4
100
AcDbLine
 10
1763.931952932582
 20
1021.219741755956
 30
0.0
 11
1776.931952932581
 21
1021.219741755956
 31
0.0
  0
LINE
  5
1C0
330
46
100
AcDbEntity
  8
1
  6
Continuous
 62
     4
100
AcDbLine
 10
1763.931952932582
 20
1070.719741755956
 30
0.0
 11
1763.931952932582
 21
1086.219741755956
 31
0.0
  0
LINE
  5
1C1
330
46
100
AcDbEntity
  8
1
  6
Continuous
 62
     4
100
AcDbLine
 10
1763.931952932582
 20
1056.719741755956
 30
0.0
 11
1763.931952932582
 21
1070.719741755956
 31
0.0
  0
LINE
  5
1C2
330
46
100
AcDbEntity
  8
1
  6
DASH_CENTER
 62
     2
100
AcDbLine
 10
1906.431952932581
 20
790.2396229743714
 30
0.0
 11
1906.431952932581
 21
1043.719741755956
 31
0.0
  0
LINE
  5
1C3
330
46
100
AcDbEntity
  8
1
  6
Continuous
 62
     4
100
AcDbLine
 10
1808.431952932581
 20
285.7197417559572
 30
0.0
 11
1808.431952932581
 21
288.7197417559572
 31
0.0
  0
LINE
  5
1C4
330
46
100
AcDbEntity
  8
1
  6
Continuous
 62
     4
100
AcDbLine
 10
1794.431952932581
 20
285.7197417559572
 30
0.0
 11
1794.431952932581
 21
288.7197417559572
 31
0.0
  0
LINE
  5
1C5
330
46
100
AcDbEntity
  8
1
  6
Continuous
 62
     4
100
AcDbLine
 10
1763.931952932582
 20
288.7197417559572
 30
0.0
 11
1766.931952932581
 21
285.7197417559572
 31
0.0
  0
LINE
  5
1C6
330
46
100
AcDbEntity
  8
1
  6
Continuous
 62
     4
100
AcDbLine
 10
1766.931952932581
 20
485.719741755957
 30
0.0
 11
1763.931952932582
 21
482.719741755957
 31
0.0
  0
LINE
  5
1C7
330
46
100
AcDbEntity
  8
1
  6
Continuous
 62
     4
100
AcDbLine
 10
1778.931952932581
 20
285.7197417559572
 30
0.0
 11
1778.931952932581
 21
485.719741755957
 31
0.0
  0
LINE
  5
1C8
330
46
100
AcDbEntity
  8
1
  6
Continuous
 62
     4
100
AcDbLine
 10
1763.931952932582
 20
288.7197417559572
 30
0.0
 11
1763.931952932582
 21
482.719741755957
 31
0.0
  0
LINE
  5
1C9
330
46
100
AcDbEntity
  8
1
  6
Continuous
 62
     4
100
AcDbLine
 10
1766.931952932581
 20
485.719741755957
 30
0.0
 11
1778.931952932581
 21
485.719741755957
 31
0.0
  0
LINE
  5
1CA
330
46
100
AcDbEntity
  8
1
  6
Continuous
 62
     4
100
AcDbLine
 10
1766.931952932581
 20
285.7197417559572
 30
0.0
 11
1778.931952932581
 21
285.7197417559572
 31
0.0
  0
LINE
  5
1CB
330
46
100
AcDbEntity
  8
1
  6
Continuous
 62
     4
100
AcDbLine
 10
1843.931952932581
 20
288.7197417559572
 30
0.0
 11
1843.931952932581
 21
483.719741755957
 31
0.0
  0
LINE
  5
1CC
330
46
100
AcDbEntity
  8
1
  6
Continuous
 62
     4
100
AcDbLine
 10
1808.431952932581
 20
485.719741755957
 30
0.0
 11
1841.931952932581
 21
485.719741755957
 31
0.0
  0
LINE
  5
1CD
330
46
100
AcDbEntity
  8
1
  6
Continuous
 62
     4
100
AcDbLine
 10
1843.931952932581
 20
288.7197417559572
 30
0.0
 11
1843.931952932581
 21
287.7197417559572
 31
0.0
  0
LINE
  5
1CE
330
46
100
AcDbEntity
  8
1
  6
Continuous
 62
     4
100
AcDbLine
 10
1808.431952932581
 20
285.7197417559572
 30
0.0
 11
1841.931952932581
 21
285.7197417559572
 31
0.0
  0
LINE
  5
1CF
330
46
100
AcDbEntity
  8
1
  6
DASH_CENTER
 62
     2
100
AcDbLine
 10
1801.431952932581
 20
458.915814251351
 30
0.0
 11
1801.431952932581
 21
503.3022739843892
 31
0.0
  0
LINE
  5
1D0
330
46
100
AcDbEntity
  8
1
  6
DASH_CENTER
 62
     2
100
AcDbLine
 10
1790.810214114256
 20
470.719741755957
 30
0.0
 11
1812.541690324271
 21
470.719741755957
 31
0.0
  0
LINE
  5
1D1
330
46
100
AcDbEntity
  8
1
  6
DASH_CENTER
 62
     2
100
AcDbLine
 10
1812.541690324271
 20
300.7197417559572
 30
0.0
 11
1790.810214114256
 21
300.7197417559572
 31
0.0
  0
LINE
  5
1D2
330
46
100
AcDbEntity
  8
1
  6
Continuous
 62
     4
100
AcDbLine
 10
1808.431952932581
 20
485.719741755957
 30
0.0
 11
1808.431952932581
 21
470.719741755957
 31
0.0
  0
LINE
  5
1D3
330
46
100
AcDbEntity
  8
1
  6
Continuous
 62
     4
100
AcDbLine
 10
1794.431952932581
 20
485.719741755957
 30
0.0
 11
1794.431952932581
 21
470.719741755957
 31
0.0
  0
LINE
  5
1D4
330
46
100
AcDbEntity
  8
1
  6
Continuous
 62
     4
100
AcDbLine
 10
1808.431952932581
 20
288.7197417559572
 30
0.0
 11
1808.431952932581
 21
300.7197417559572
 31
0.0
  0
LINE
  5
1D5
330
46
100
AcDbEntity
  8
1
  6
Continuous
 62
     4
100
AcDbLine
 10
1794.431952932581
 20
288.7197417559572
 30
0.0
 11
1794.431952932581
 21
300.7197417559572
 31
0.0
  0
LINE
  5
1D6
330
46
100
AcDbEntity
  8
1
  6
Continuous
 62
     4
100
AcDbLine
 10
1778.931952932581
 20
485.719741755957
 30
0.0
 11
1794.431952932581
 21
485.719741755957
 31
0.0
  0
LINE
  5
1D7
330
46
100
AcDbEntity
  8
1
  6
Continuous
 62
     4
100
AcDbLine
 10
1778.931952932581
 20
285.7197417559572
 30
0.0
 11
1794.431952932581
 21
285.7197417559572
 31
0.0
  0
LINE
  5
1D8
330
46
100
AcDbEntity
  8
1
  6
Continuous
 62
     4
100
AcDbLine
 10
2004.431952932581
 20
288.7197417559572
 30
0.0
 11
2004.431952932581
 21
285.7197417559572
 31
0.0
  0
LINE
  5
1D9
330
46
100
AcDbEntity
  8
1
  6
Continuous
 62
     4
100
AcDbLine
 10
2018.431952932581
 20
288.7197417559572
 30
0.0
 11
2018.431952932581
 21
285.7197417559572
 31
0.0
  0
LINE
  5
1DA
330
46
100
AcDbEntity
  8
1
  6
Continuous
 62
     4
100
AcDbLine
 10
2045.93195293258
 20
285.7197417559572
 30
0.0
 11
2048.931952932581
 21
288.7197417559572
 31
0.0
  0
LINE
  5
1DB
330
46
100
AcDbEntity
  8
1
  6
Continuous
 62
     4
100
AcDbLine
 10
2048.931952932581
 20
482.719741755957
 30
0.0
 11
2045.93195293258
 21
485.719741755957
 31
0.0
  0
LINE
  5
1DC
330
46
100
AcDbEntity
  8
1
  6
Continuous
 62
     4
100
AcDbLine
 10
2033.931952932581
 20
485.719741755957
 30
0.0
 11
2033.931952932581
 21
285.7197417559572
 31
0.0
  0
LINE
  5
1DD
330
46
100
AcDbEntity
  8
1
  6
Continuous
 62
     4
100
AcDbLine
 10
2048.931952932581
 20
288.7197417559572
 30
0.0
 11
2048.931952932581
 21
482.719741755957
 31
0.0
  0
LINE
  5
1DE
330
46
100
AcDbEntity
  8
1
  6
Continuous
 62
     4
100
AcDbLine
 10
2033.931952932581
 20
485.719741755957
 30
0.0
 11
2045.93195293258
 21
485.719741755957
 31
0.0
  0
LINE
  5
1DF
330
46
100
AcDbEntity
  8
1
  6
Continuous
 62
     4
100
AcDbLine
 10
2033.931952932581
 20
285.7197417559572
 30
0.0
 11
2045.93195293258
 21
285.7197417559572
 31
0.0
  0
LINE
  5
1E0
330
46
100
AcDbEntity
  8
1
  6
Continuous
 62
     4
100
AcDbLine
 10
1968.931952932581
 20
288.7197417559572
 30
0.0
 11
1968.931952932581
 21
483.719741755957
 31
0.0
  0
LINE
  5
1E1
330
46
100
AcDbEntity
  8
1
  6
Continuous
 62
     4
100
AcDbLine
 10
1970.931952932581
 20
485.719741755957
 30
0.0
 11
2004.431952932581
 21
485.719741755957
 31
0.0
  0
LINE
  5
1E2
330
46
100
AcDbEntity
  8
1
  6
Continuous
 62
     4
100
AcDbLine
 10
1968.931952932581
 20
287.7197417559572
 30
0.0
 11
1968.931952932581
 21
288.7197417559572
 31
0.0
  0
LINE
  5
1E3
330
46
100
AcDbEntity
  8
1
  6
Continuous
 62
     4
100
AcDbLine
 10
1970.931952932581
 20
285.7197417559572
 30
0.0
 11
2004.431952932581
 21
285.7197417559572
 31
0.0
  0
LINE
  5
1E4
330
46
100
AcDbEntity
  8
1
  6
DASH_CENTER
 62
     2
100
AcDbLine
 10
2000.322215540892
 20
470.719741755957
 30
0.0
 11
2022.053691750907
 21
470.719741755957
 31
0.0
  0
LINE
  5
1E5
330
46
100
AcDbEntity
  8
1
  6
DASH_CENTER
 62
     2
100
AcDbLine
 10
2022.053691750907
 20
300.7197417559572
 30
0.0
 11
2000.322215540892
 21
300.7197417559572
 31
0.0
  0
LINE
  5
1E6
330
46
100
AcDbEntity
  8
1
  6
DASH_CENTER
 62
     2
100
AcDbLine
 10
2011.431952932581
 20
312.5236692605632
 30
0.0
 11
2011.431952932581
 21
276.8645551289073
 31
0.0
  0
LINE
  5
1E7
330
46
100
AcDbEntity
  8
1
  6
Continuous
 62
     4
100
AcDbLine
 10
2004.431952932581
 20
485.719741755957
 30
0.0
 11
2004.431952932581
 21
470.719741755957
 31
0.0
  0
LINE
  5
1E8
330
46
100
AcDbEntity
  8
1
  6
Continuous
 62
     4
100
AcDbLine
 10
2018.431952932581
 20
485.719741755957
 30
0.0
 11
2018.431952932581
 21
470.719741755957
 31
0.0
  0
LINE
  5
1E9
330
46
100
AcDbEntity
  8
1
  6
Continuous
 62
     4
100
AcDbLine
 10
2004.431952932581
 20
300.7197417559572
 30
0.0
 11
2004.431952932581
 21
288.7197417559572
 31
0.0
  0
LINE
  5
1EA
330
46
100
AcDbEntity
  8
1
  6
Continuous
 62
     4
100
AcDbLine
 10
2018.431952932581
 20
300.7197417559572
 30
0.0
 11
2018.431952932581
 21
288.7197417559572
 31
0.0
  0
LINE
  5
1EB
330
46
100
AcDbEntity
  8
1
  6
Continuous
 62
     4
100
AcDbLine
 10
2018.431952932581
 20
485.719741755957
 30
0.0
 11
2033.931952932581
 21
485.719741755957
 31
0.0
  0
LINE
  5
1EC
330
46
100
AcDbEntity
  8
1
  6
Continuous
 62
     4
100
AcDbLine
 10
2018.431952932581
 20
285.7197417559572
 30
0.0
 11
2033.931952932581
 21
285.7197417559572
 31
0.0
  0
LINE
  5
1ED
330
46
100
AcDbEntity
  8
1
  6
DASH_CENTER
 62
     2
100
AcDbLine
 10
2185.931952932581
 20
385.7197417559572
 30
0.0
 11
2206.033280210683
 21
385.7197417559572
 31
0.0
  0
LINE
  5
1EE
330
46
100
AcDbEntity
  8
1
  6
DASH_CENTER
 62
     2
100
AcDbLine
 10
1906.431952932581
 20
610.1957862294092
 30
0.0
 11
1906.431952932581
 21
104.6828733905225
 31
0.0
  0
LINE
  5
1EF
330
46
100
AcDbEntity
  8
1
  6
Continuous
 62
     4
100
AcDbLine
 10
1798.931952932581
 20
490.719741755957
 30
0.0
 11
2022.43195293258
 21
490.719741755957
 31
0.0
  0
LINE
  5
1F0
330
46
100
AcDbEntity
  8
1
  6
Continuous
 62
     4
100
AcDbLine
 10
1790.431952932581
 20
485.719741755957
 30
0.0
 11
1790.431952932581
 21
490.719741755957
 31
0.0
  0
LINE
  5
1F1
330
46
100
AcDbEntity
  8
1
  6
Continuous
 62
     4
100
AcDbLine
 10
1968.931952932581
 20
468.719741755957
 30
0.0
 11
1843.931952932581
 21
468.719741755957
 31
0.0
  0
LINE
  5
1F2
330
46
100
AcDbEntity
  8
1
  6
Continuous
 62
     4
100
AcDbLine
 10
2022.43195293258
 20
490.719741755957
 30
0.0
 11
2022.43195293258
 21
485.719741755957
 31
0.0
  0
LINE
  5
1F3
330
46
100
AcDbEntity
  8
1
  6
Continuous
 62
     4
100
AcDbLine
 10
2018.140156865082
 20
468.719741755957
 30
0.0
 11
2004.723749000083
 21
468.719741755957
 31
0.0
  0
LINE
  5
1F4
330
46
100
AcDbEntity
  8
1
  6
Continuous
 62
     4
100
AcDbLine
 10
1808.140156865081
 20
468.719741755957
 30
0.0
 11
1794.723749000082
 21
468.719741755957
 31
0.0
  0
LINE
  5
1F5
330
46
100
AcDbEntity
  8
1
  6
Continuous
 62
     4
100
AcDbLine
 10
1815.931952932581
 20
238.7197417559572
 30
0.0
 11
1781.431952932581
 21
238.7197417559572
 31
0.0
  0
LINE
  5
1F6
330
46
100
AcDbEntity
  8
1
  6
Continuous
 62
     4
100
AcDbLine
 10
2031.43195293258
 20
220.7197417559572
 30
0.0
 11
2031.43195293258
 21
238.7197417559572
 31
0.0
  0
LINE
  5
1F7
330
46
100
AcDbEntity
  8
1
  6
Continuous
 62
     4
100
AcDbLine
 10
1996.431952932581
 20
220.7197417559572
 30
0.0
 11
2031.43195293258
 21
220.7197417559572
 31
0.0
  0
LINE
  5
1F8
330
46
100
AcDbEntity
  8
1
  6
Continuous
 62
     4
100
AcDbLine
 10
1781.431952932581
 20
238.7197417559572
 30
0.0
 11
1781.431952932581
 21
220.7197417559572
 31
0.0
  0
LINE
  5
1F9
330
46
100
AcDbEntity
  8
1
  6
Continuous
 62
     4
100
AcDbLine
 10
1816.431952932581
 20
215.7197417559572
 30
0.0
 11
1816.431952932581
 21
220.7197417559572
 31
0.0
  0
LINE
  5
1FA
330
46
100
AcDbEntity
  8
1
  6
Continuous
 62
     4
100
AcDbLine
 10
1781.431952932581
 20
220.7197417559572
 30
0.0
 11
1816.431952932581
 21
220.7197417559572
 31
0.0
  0
LINE
  5
1FB
330
46
100
AcDbEntity
  8
1
  6
Continuous
 62
     4
100
AcDbLine
 10
1996.431952932581
 20
215.7197417559572
 30
0.0
 11
1816.431952932581
 21
215.7197417559572
 31
0.0
  0
LINE
  5
1FC
330
46
100
AcDbEntity
  8
1
  6
Continuous
 62
     4
100
AcDbLine
 10
1996.431952932581
 20
220.7197417559572
 30
0.0
 11
1996.431952932581
 21
215.7197417559572
 31
0.0
  0
LINE
  5
1FD
330
46
100
AcDbEntity
  8
1
  6
Continuous
 62
     4
100
AcDbLine
 10
1816.431952932581
 20
220.7197417559572
 30
0.0
 11
1996.431952932581
 21
220.7197417559572
 31
0.0
  0
LINE
  5
1FE
330
46
100
AcDbEntity
  8
1
  6
Continuous
 62
     4
100
AcDbLine
 10
1996.931952932581
 20
241.7197417559572
 30
0.0
 11
1996.931952932581
 21
238.7197417559572
 31
0.0
  0
LINE
  5
1FF
330
46
100
AcDbEntity
  8
1
  6
Continuous
 62
     4
100
AcDbLine
 10
2031.43195293258
 20
238.7197417559572
 30
0.0
 11
1996.931952932581
 21
238.7197417559572
 31
0.0
  0
LINE
  5
200
330
46
100
AcDbEntity
  8
1
  6
Continuous
 62
     4
100
AcDbLine
 10
1815.931952932581
 20
238.7197417559572
 30
0.0
 11
1815.931952932581
 21
241.7197417559572
 31
0.0
  0
LINE
  5
201
330
46
100
AcDbEntity
  8
1
  6
Continuous
 62
     4
100
AcDbLine
 10
1996.931952932581
 20
238.7197417559572
 30
0.0
 11
1815.931952932581
 21
238.7197417559572
 31
0.0
  0
LINE
  5
202
330
46
100
AcDbEntity
  8
1
  6
Continuous
 62
     4
100
AcDbLine
 10
1993.931952932581
 20
282.7197417559572
 30
0.0
 11
1993.931952932581
 21
244.7197417559572
 31
0.0
  0
LINE
  5
203
330
46
100
AcDbEntity
  8
1
  6
Continuous
 62
     4
100
AcDbLine
 10
1818.931952932581
 20
244.7197417559572
 30
0.0
 11
1818.931952932581
 21
282.7197417559572
 31
0.0
  0
LINE
  5
204
330
46
100
AcDbEntity
  8
1
  6
Continuous
 62
     4
100
AcDbLine
 10
1843.931952932581
 20
288.7197417559572
 30
0.0
 11
1968.931952932581
 21
288.7197417559572
 31
0.0
  0
LINE
  5
205
330
46
100
AcDbEntity
  8
1
  6
Continuous
 62
     4
100
AcDbLine
 10
2004.431952932581
 20
288.7197417559572
 30
0.0
 11
2018.431952932581
 21
288.7197417559572
 31
0.0
  0
LINE
  5
206
330
46
100
AcDbEntity
  8
1
  6
Continuous
 62
     4
100
AcDbLine
 10
2018.140156865082
 20
302.7197417559572
 30
0.0
 11
2004.723749000083
 21
302.7197417559572
 31
0.0
  0
LINE
  5
207
330
46
100
AcDbEntity
  8
1
  6
Continuous
 62
     4
100
AcDbLine
 10
1794.431952932581
 20
288.7197417559572
 30
0.0
 11
1808.431952932581
 21
288.7197417559572
 31
0.0
  0
LINE
  5
208
330
46
100
AcDbEntity
  8
1
  6
Continuous
 62
     4
100
AcDbLine
 10
1808.140156865081
 20
302.7197417559572
 30
0.0
 11
1794.723749000082
 21
302.7197417559572
 31
0.0
  0
LINE
  5
209
330
46
100
AcDbEntity
  8
1
  6
Continuous
 62
     4
100
AcDbLine
 10
1968.931952932581
 20
302.7197417559572
 30
0.0
 11
1843.931952932581
 21
302.7197417559572
 31
0.0
  0
LINE
  5
20A
330
46
100
AcDbEntity
  8
1
  6
Continuous
 62
     4
100
AcDbLine
 10
2160.931952932581
 20
510.7197417559568
 30
0.0
 11
2138.931952932581
 21
510.719741755957
 31
0.0
  0
LINE
  5
20B
330
46
100
AcDbEntity
  8
1
  6
Continuous
 62
     4
100
AcDbLine
 10
2185.931952932581
 20
235.7197417559573
 30
0.0
 11
2185.931952932581
 21
510.7197417559572
 31
0.0
  0
LINE
  5
20C
330
46
100
AcDbEntity
  8
1
  6
Continuous
 62
     4
100
AcDbLine
 10
2160.931952932581
 20
235.7197417559577
 30
0.0
 11
2185.931952932581
 21
235.7197417559573
 31
0.0
  0
LINE
  5
20D
330
46
100
AcDbEntity
  8
1
  6
Continuous
 62
     4
100
AcDbLine
 10
2135.931952932581
 20
310.7197417559572
 30
0.0
 11
2135.931952932581
 21
263.7197417559572
 31
0.0
  0
LINE
  5
20E
330
46
100
AcDbEntity
  8
1
  6
Continuous
 62
     4
100
AcDbLine
 10
2052.931952932581
 20
315.719741755957
 30
0.0
 11
2130.931952932581
 21
315.719741755957
 31
0.0
  0
LINE
  5
20F
330
46
100
AcDbEntity
  8
1
  6
Continuous
 62
     4
100
AcDbLine
 10
2052.931952932581
 20
326.719741755957
 30
0.0
 11
2052.931952932581
 21
315.719741755957
 31
0.0
  0
LINE
  5
210
330
46
100
AcDbEntity
  8
1
  6
Continuous
 62
     4
100
AcDbLine
 10
2130.931952932581
 20
455.719741755957
 30
0.0
 11
2052.931952932581
 21
455.719741755957
 31
0.0
  0
LINE
  5
211
330
46
100
AcDbEntity
  8
1
  6
Continuous
 62
     4
100
AcDbLine
 10
2135.931952932581
 20
507.719741755957
 30
0.0
 11
2135.931952932581
 21
460.719741755957
 31
0.0
  0
LINE
  5
212
330
46
100
AcDbEntity
  8
1
  6
Continuous
 62
     4
100
AcDbLine
 10
2048.931952932581
 20
326.719741755957
 30
0.0
 11
2052.931952932581
 21
326.719741755957
 31
0.0
  0
LINE
  5
213
330
46
100
AcDbEntity
  8
1
  6
Continuous
 62
     4
100
AcDbLine
 10
2052.931952932581
 20
444.7197417559571
 30
0.0
 11
2052.931952932581
 21
326.719741755957
 31
0.0
  0
LINE
  5
214
330
46
100
AcDbEntity
  8
1
  6
Continuous
 62
     4
100
AcDbLine
 10
2052.931952932581
 20
455.719741755957
 30
0.0
 11
2052.931952932581
 21
444.7197417559571
 31
0.0
  0
LINE
  5
215
330
46
100
AcDbEntity
  8
1
  6
Continuous
 62
     4
100
AcDbLine
 10
2052.931952932581
 20
444.7197417559571
 30
0.0
 11
2048.931952932581
 21
444.7197417559571
 31
0.0
  0
LINE
  5
216
330
46
100
AcDbEntity
  8
1
  6
Continuous
 62
     4
100
AcDbLine
 10
2119.931952932581
 20
390.7197417559571
 30
0.0
 11
2063.931952932581
 21
390.7197417559571
 31
0.0
  0
LINE
  5
217
330
46
100
AcDbEntity
  8
1
  6
Continuous
 62
     4
100
AcDbLine
 10
2063.931952932581
 20
380.7197417559572
 30
0.0
 11
2119.931952932581
 21
380.7197417559572
 31
0.0
  0
LINE
  5
218
330
46
100
AcDbEntity
  8
1
  6
Continuous
 62
     4
100
AcDbLine
 10
2185.931952932581
 20
1155.219741755956
 30
0.0
 11
2160.931952932581
 21
1155.219741755956
 31
0.0
  0
LINE
  5
219
330
46
100
AcDbEntity
  8
1
  6
Continuous
 62
     4
100
AcDbLine
 10
2160.931952932581
 20
905.219741755957
 30
0.0
 11
2160.931952932581
 21
1155.219741755956
 31
0.0
  0
LINE
  5
21A
330
46
100
AcDbEntity
  8
1
  6
Continuous
 62
     4
100
AcDbLine
 10
2130.931952932581
 20
1100.219741755956
 30
0.0
 11
2052.931952932581
 21
1100.219741755956
 31
0.0
  0
LINE
  5
21B
330
46
100
AcDbEntity
  8
1
  6
Continuous
 62
     4
100
AcDbLine
 10
2052.931952932581
 20
1100.219741755956
 30
0.0
 11
2052.931952932581
 21
1089.219741755956
 31
0.0
  0
LINE
  5
21C
330
46
100
AcDbEntity
  8
1
  6
Continuous
 62
     4
100
AcDbLine
 10
2052.931952932581
 20
960.219741755956
 30
0.0
 11
2130.931952932581
 21
960.219741755956
 31
0.0
  0
LINE
  5
21D
330
46
100
AcDbEntity
  8
1
  6
Continuous
 62
     4
100
AcDbLine
 10
2135.931952932581
 20
955.219741755956
 30
0.0
 11
2135.931952932581
 21
1105.219741755956
 31
0.0
  0
LINE
  5
21E
330
46
100
AcDbEntity
  8
1
  6
Continuous
 62
     4
100
AcDbLine
 10
2052.931952932581
 20
1089.219741755956
 30
0.0
 11
2045.931952932581
 21
1089.219741755956
 31
0.0
  0
LINE
  5
21F
330
46
100
AcDbEntity
  8
1
  6
Continuous
 62
     4
100
AcDbLine
 10
2052.931952932581
 20
1089.219741755956
 30
0.0
 11
2052.931952932581
 21
971.219741755956
 31
0.0
  0
LINE
  5
220
330
46
100
AcDbEntity
  8
1
  6
Continuous
 62
     4
100
AcDbLine
 10
2052.931952932581
 20
971.219741755956
 30
0.0
 11
2052.931952932581
 21
960.219741755956
 31
0.0
  0
LINE
  5
221
330
46
100
AcDbEntity
  8
1
  6
Continuous
 62
     4
100
AcDbLine
 10
2045.931952932581
 20
971.219741755956
 30
0.0
 11
2052.931952932581
 21
971.219741755956
 31
0.0
  0
LINE
  5
222
330
46
100
AcDbEntity
  8
1
  6
Continuous
 62
     4
100
AcDbLine
 10
2160.931952932581
 20
880.2197417559565
 30
0.0
 11
2185.931952932581
 21
880.2197417559565
 31
0.0
  0
LINE
  5
223
330
46
100
AcDbEntity
  8
1
  6
Continuous
 62
     4
100
AcDbLine
 10
2185.931952932581
 20
880.2197417559565
 30
0.0
 11
2185.931952932581
 21
1155.219741755956
 31
0.0
  0
LINE
  5
224
330
46
100
AcDbEntity
  8
1
  6
Continuous
 62
     4
100
AcDbLine
 10
2135.931952932581
 20
955.219741755956
 30
0.0
 11
2135.931952932581
 21
908.2197417559565
 31
0.0
  0
LINE
  5
225
330
46
100
AcDbEntity
  8
1
  6
Continuous
 62
     4
100
AcDbLine
 10
2138.931952932581
 20
1155.219741755956
 30
0.0
 11
2160.931952932581
 21
1155.219741755956
 31
0.0
  0
LINE
  5
226
330
46
100
AcDbEntity
  8
1
  6
Continuous
 62
     4
100
AcDbLine
 10
2160.931952932581
 20
905.219741755957
 30
0.0
 11
2160.931952932581
 21
880.2197417559565
 31
0.0
  0
LINE
  5
227
330
46
100
AcDbEntity
  8
1
  6
Continuous
 62
     4
100
AcDbLine
 10
2185.931952932581
 20
880.2197417559565
 30
0.0
 11
2185.931952932581
 21
1155.219741755956
 31
0.0
  0
LINE
  5
228
330
46
100
AcDbEntity
  8
1
  6
Continuous
 62
     4
100
AcDbLine
 10
2138.931952932581
 20
260.7197417559572
 30
0.0
 11
2160.931952932581
 21
260.7197417559565
 31
0.0
  0
LINE
  5
229
330
46
100
AcDbEntity
  8
1
  6
Continuous
 62
     4
100
AcDbLine
 10
2160.931952932581
 20
260.7197417559565
 30
0.0
 11
2160.931952932581
 21
235.7197417559577
 31
0.0
  0
LINE
  5
22A
330
46
100
AcDbEntity
  8
1
  6
Continuous
 62
     4
100
AcDbLine
 10
2185.931952932581
 20
510.7197417559572
 30
0.0
 11
2160.931952932581
 21
510.7197417559568
 31
0.0
  0
LINE
  5
22B
330
46
100
AcDbEntity
  8
1
  6
Continuous
 62
     4
100
AcDbLine
 10
2160.931952932581
 20
260.7197417559565
 30
0.0
 11
2160.931952932581
 21
510.7197417559568
 31
0.0
  0
LINE
  5
22C
330
46
100
AcDbEntity
  8
1
  6
Continuous
 62
     4
100
AcDbLine
 10
2185.931952932581
 20
235.7197417559573
 30
0.0
 11
2185.931952932581
 21
510.7197417559572
 31
0.0
  0
LINE
  5
22D
330
46
100
AcDbEntity
  8
1
  6
Continuous
 62
     4
100
AcDbLine
 10
2124.931952932581
 20
385.7197417559572
 30
0.0
 11
2185.931952932581
 21
385.7197417559572
 31
0.0
  0
LINE
  5
22E
330
46
100
AcDbEntity
  8
1
  6
DASH_CENTER
 62
     2
100
AcDbLine
 10
2058.931952932581
 20
385.7197417559572
 30
0.0
 11
2124.931952932581
 21
385.7197417559572
 31
0.0
  0
LINE
  5
22F
330
46
100
AcDbEntity
  8
1
  6
Continuous
 62
     4
100
AcDbLine
 10
2048.931952932581
 20
385.7197417559572
 30
0.0
 11
2058.931952932581
 21
385.7197417559572
 31
0.0
  0
LINE
  5
230
330
46
100
AcDbEntity
  8
1
  6
DASH_CENTER
 62
     2
100
AcDbLine
 10
1759.441627605347
 20
385.7197417559572
 30
0.0
 11
2048.931952932581
 21
385.7197417559572
 31
0.0
  0
LINE
  5
231
330
46
100
AcDbEntity
  8
1
  6
Continuous
 62
     4
100
AcDbLine
 10
2048.931952932581
 20
1030.219741755956
 30
0.0
 11
2185.931952932581
 21
1030.219741755956
 31
0.0
  0
LINE
  5
232
330
46
100
AcDbEntity
  8
1
  6
DASH_CENTER
 62
     2
100
AcDbLine
 10
1756.030765781743
 20
1030.219741755956
 30
0.0
 11
2048.931952932581
 21
1030.219741755956
 31
0.0
  0
LINE
  5
233
330
46
100
AcDbEntity
  8
1
  6
Continuous
 62
     4
100
AcDbLine
 10
1790.431952932581
 20
490.719741755957
 30
0.0
 11
1798.931952932581
 21
490.719741755957
 31
0.0
  0
LINE
  5
234
330
46
100
AcDbEntity
  8
1
  6
DASH_CENTER
 62
     2
100
AcDbLine
 10
1821.179723619799
 20
575.9719710687385
 30
0.0
 11
1838.665424224542
 21
558.4862704639971
 31
0.0
  0
LINE
  5
235
330
46
100
AcDbEntity
  8
1
  6
DASH_CENTER
 62
     2
100
AcDbLine
 10
1991.27500016539
 20
575.562788988765
 30
0.0
 11
1973.123177632849
 21
557.4109664562238
 31
0.0
  0
LINE
  5
236
330
46
100
AcDbEntity
  8
1
  6
DASH_CENTER
 62
     2
100
AcDbLine
 10
1798.931952932581
 20
926.2197417559571
 30
0.0
 11
1758.822458246698
 21
926.2197417559571
 31
0.0
  0
LINE
  5
237
330
46
100
AcDbEntity
  8
1
  6
Continuous
 62
     4
100
AcDbLine
 10
1808.431952932581
 20
831.219741755957
 30
0.0
 11
1825.191568886222
 21
831.219741755957
 31
0.0
  0
LINE
  5
238
330
46
100
AcDbEntity
  8
1
  6
Continuous
 62
     4
100
AcDbLine
 10
1828.931952932581
 20
816.219741755957
 30
0.0
 11
1828.931952932581
 21
828.1445155262913
 31
0.0
  0
LINE
  5
239
330
46
100
AcDbEntity
  8
1
  6
Continuous
 62
     4
100
AcDbLine
 10
1982.199902125011
 20
819.219741755957
 30
0.0
 11
1971.053930618196
 21
819.219741755957
 31
0.0
  0
LINE
  5
23A
330
46
100
AcDbEntity
  8
1
  6
Continuous
 62
     4
100
AcDbLine
 10
1983.931952932581
 20
816.219741755957
 30
0.0
 11
1983.931952932581
 21
828.1445155262913
 31
0.0
  0
LINE
  5
23B
330
46
100
AcDbEntity
  8
1
  6
Continuous
 62
     4
100
AcDbLine
 10
2004.431952932581
 20
831.219741755957
 30
0.0
 11
1987.672336978942
 21
831.219741755957
 31
0.0
  0
LINE
  5
23C
330
46
100
AcDbEntity
  8
1
  6
DASH_CENTER
 62
     2
100
AcDbLine
 10
2052.239454355369
 20
926.2197417559571
 30
0.0
 11
1798.931952932581
 21
926.2197417559571
 31
0.0
  0
LINE
  5
23D
330
46
100
AcDbEntity
  8
1
  6
DASH_CENTER
 62
     2
100
AcDbLine
 10
1816.431952932581
 20
1016.219741755956
 30
0.0
 11
1845.767483279105
 21
986.8842114094341
 31
0.0
  0
LINE
  5
23E
330
46
100
AcDbEntity
  8
1
  6
DASH_CENTER
 62
     2
100
AcDbLine
 10
1816.431952932581
 20
836.2197417559565
 30
0.0
 11
1845.173082924746
 21
864.9608717481201
 31
0.0
  0
LINE
  5
23F
330
46
100
AcDbEntity
  8
1
  6
DASH_CENTER
 62
     2
100
AcDbLine
 10
1998.102572946829
 20
834.5491217417084
 30
0.0
 11
1964.831584956214
 21
867.8201097323238
 31
0.0
  0
LINE
  5
240
330
46
100
AcDbEntity
  8
1
  6
DASH_CENTER
 62
     2
100
AcDbLine
 10
2000.019190554031
 20
1019.806979377405
 30
0.0
 11
1967.166705557005
 21
986.9544943803799
 31
0.0
  0
LINE
  5
241
330
46
100
AcDbEntity
  8
1
  6
DASH_CENTER
 62
     2
100
AcDbLine
 10
1801.431952932581
 20
276.8645551289073
 30
0.0
 11
1801.431952932581
 21
312.5236692605632
 31
0.0
  0
LINE
  5
242
330
46
100
AcDbEntity
  8
1
  6
DASH_CENTER
 62
     2
100
AcDbLine
 10
2011.431952932581
 20
502.6050042899641
 30
0.0
 11
2011.431952932581
 21
458.915814251351
 31
0.0
  0
ARC
  5
243
330
46
100
AcDbEntity
  8
1
  6
Continuous
 62
     4
100
AcDbCircle
 10
1801.431952932581
 20
470.719741755957
 30
0.0
 40
7.0
100
AcDbArc
 50
180.0
 51
0.0
  0
ARC
  5
244
330
46
100
AcDbEntity
  8
1
  6
Continuous
 62
     4
100
AcDbCircle
 10
1801.431952932581
 20
300.7197417559572
 30
0.0
 40
7.0
100
AcDbArc
 50
0.0
 51
180.0
  0
ARC
  5
245
330
46
100
AcDbEntity
  8
1
  6
Continuous
 62
     4
100
AcDbCircle
 10
2011.431952932581
 20
470.719741755957
 30
0.0
 40
7.0
100
AcDbArc
 50
180.0
 51
0.0
  0
ARC
  5
246
330
46
100
AcDbEntity
  8
1
  6
Continuous
 62
     4
100
AcDbCircle
 10
2011.431952932581
 20
300.7197417559572
 30
0.0
 40
7.0
100
AcDbArc
 50
0.0
 51
180.0
  0
ARC
  5
247
330
46
100
AcDbEntity
  8
1
  6
DASH_CENTER
 62
     2
100
AcDbCircle
 10
1906.431952932581
 20
490.719741755957
 30
0.0
 40
107.5
100
AcDbArc
 50
0.0
 51
180.0
  0
ARC
  5
248
330
46
100
AcDbEntity
  8
1
  6
Continuous
 62
     4
100
AcDbCircle
 10
1798.931952932581
 20
490.719741755957
 30
0.0
 40
4.0
100
AcDbArc
 50
0.0
 51
180.0
  0
ARC
  5
249
330
46
100
AcDbEntity
  8
1
  6
Continuous
 62
     2
100
AcDbCircle
 10
1798.931952932581
 20
490.719741755957
 30
0.0
 40
7.0
100
AcDbArc
 50
0.0
 51
88.13422628669316
  0
ARC
  5
24A
330
46
100
AcDbEntity
  8
1
  6
Continuous
 62
     2
100
AcDbCircle
 10
1830.417973955027
 20
566.733720733511
 30
0.0
 40
6.999999999999905
100
AcDbArc
 50
226.865773713318
 51
134.999999999996
  0
ARC
  5
24B
330
46
100
AcDbEntity
  8
1
  6
Continuous
 62
     2
100
AcDbCircle
 10
1906.431952932581
 20
598.2197417559571
 30
0.0
 40
6.999999999998527
100
AcDbArc
 50
181.8657737133175
 51
90.0
  0
ARC
  5
24C
330
46
100
AcDbEntity
  8
1
  6
Continuous
 62
     2
100
AcDbCircle
 10
1982.445931910135
 20
566.7337207335108
 30
0.0
 40
6.999999999999253
100
AcDbArc
 50
225.0000000000053
 51
136.8657737133097
  0
ARC
  5
24D
330
46
100
AcDbEntity
  8
1
  6
Continuous
 62
     2
100
AcDbCircle
 10
2013.931952932581
 20
490.719741755957
 30
0.0
 40
7.0
100
AcDbArc
 50
0.0
 51
91.86577371330685
  0
ARC
  5
24E
330
46
100
AcDbEntity
  8
1
  6
Continuous
 62
     4
100
AcDbCircle
 10
2013.931952932581
 20
490.719741755957
 30
0.0
 40
4.0
100
AcDbArc
 50
0.0
 51
180.0
  0
CIRCLE
  5
24F
330
46
100
AcDbEntity
  8
1
  6
Continuous
 62
     4
100
AcDbCircle
 10
1906.431952932581
 20
926.2197417559571
 30
0.0
 40
40.0
  0
CIRCLE
  5
250
330
46
100
AcDbEntity
  8
1
  6
Continuous
 62
     4
100
AcDbCircle
 10
1906.431952932581
 20
926.2197417559571
 30
0.0
 40
30.0
  0
CIRCLE
  5
251
330
46
100
AcDbEntity
  8
1
  6
Continuous
 62
     4
100
AcDbCircle
 10
1830.417973955027
 20
566.733720733511
 30
0.0
 40
4.0
  0
CIRCLE
  5
252
330
46
100
AcDbEntity
  8
1
  6
Continuous
 62
     4
100
AcDbCircle
 10
1906.431952932581
 20
598.2197417559571
 30
0.0
 40
3.999999999999148
  0
CIRCLE
  5
253
330
46
100
AcDbEntity
  8
1
  6
Continuous
 62
     4
100
AcDbCircle
 10
1982.445931910135
 20
566.7337207335108
 30
0.0
 40
4.000000000000114
  0
CIRCLE
  5
254
330
46
100
AcDbEntity
  8
1
  6
Continuous
 62
     4
100
AcDbCircle
 10
1906.431952932581
 20
926.2197417559571
 30
0.0
 40
90.0
  0
CIRCLE
  5
255
330
46
100
AcDbEntity
  8
1
  6
Continuous
 62
     4
100
AcDbCircle
 10
1906.431952932581
 20
926.2197417559571
 30
0.0
 40
124.9999999999991
  0
CIRCLE
  5
256
330
46
100
AcDbEntity
  8
1
  6
DASH_CENTER
 62
     2
100
AcDbCircle
 10
1906.431952932581
 20
926.2197417559571
 30
0.0
 40
107.5
  0
CIRCLE
  5
257
330
46
100
AcDbEntity
  8
1
  6
Continuous
 62
     4
100
AcDbCircle
 10
1830.417973955027
 20
1002.23372073351
 30
0.0
 40
10.0
  0
CIRCLE
  5
258
330
46
100
AcDbEntity
  8
1
  6
Continuous
 62
     4
100
AcDbCircle
 10
1830.417973955027
 20
850.2057627784027
 30
0.0
 40
10.0
  0
CIRCLE
  5
259
330
46
100
AcDbEntity
  8
1
  6
Continuous
 62
     4
100
AcDbCircle
 10
1982.445931910135
 20
850.2057627784027
 30
0.0
 40
10.0
  0
CIRCLE
  5
25A
330
46
100
AcDbEntity
  8
1
  6
Continuous
 62
     4
100
AcDbCircle
 10
1982.445931910135
 20
1002.23372073351
 30
0.0
 40
10.0
  0
ARC
  5
25B
330
46
100
AcDbEntity
  8
1
  6
Continuous
 62
     4
100
AcDbCircle
 10
2138.931952932581
 20
908.2197417559565
 30
0.0
 40
3.0
100
AcDbArc
 50
180.0
 51
270.0
  0
ARC
  5
25C
330
46
100
AcDbEntity
  8
1
  6
Continuous
 62
     4
100
AcDbCircle
 10
2138.931952932581
 20
1152.219741755956
 30
0.0
 40
3.0
100
AcDbArc
 50
90.0
 51
180.0
  0
ARC
  5
25D
330
46
100
AcDbEntity
  8
1
  6
DASH_CENTER
 62
     2
100
AcDbCircle
 10
1906.431952932581
 20
529.719741755957
 30
0.0
 40
9.0
100
AcDbArc
 50
270.0
 51
0.0
  0
ARC
  5
25E
330
46
100
AcDbEntity
  8
1
  6
DASH_CENTER
 62
     2
100
AcDbCircle
 10
1906.431952932581
 20
529.719741755957
 30
0.0
 40
9.0
100
AcDbArc
 50
180.0
 51
270.0
  0
ARC
  5
25F
330
46
100
AcDbEntity
  8
1
  6
DASH_CENTER
 62
     2
100
AcDbCircle
 10
1906.431952932581
 20
581.719741755957
 30
0.0
 40
9.0
100
AcDbArc
 50
90.0
 51
180.0
  0
ARC
  5
260
330
46
100
AcDbEntity
  8
1
  6
DASH_CENTER
 62
     2
100
AcDbCircle
 10
1906.431952932581
 20
581.719741755957
 30
0.0
 40
9.0
100
AcDbArc
 50
0.0
 51
90.0
  0
ARC
  5
261
330
46
100
AcDbEntity
  8
1
  6
Continuous
 62
     4
100
AcDbCircle
 10
1906.431952932581
 20
124.7197417559572
 30
0.0
 40
9.0
100
AcDbArc
 50
180.0
 51
270.0
  0
ARC
  5
262
330
46
100
AcDbEntity
  8
1
  6
Continuous
 62
     4
100
AcDbCircle
 10
1906.431952932581
 20
124.7197417559572
 30
0.0
 40
9.0
100
AcDbArc
 50
270.0
 51
0.0
  0
ARC
  5
263
330
46
100
AcDbEntity
  8
1
  6
Continuous
 62
     4
100
AcDbCircle
 10
1906.431952932581
 20
176.7197417559572
 30
0.0
 40
9.0
100
AcDbArc
 50
0.0
 51
90.0
  0
ARC
  5
264
330
46
100
AcDbEntity
  8
1
  6
Continuous
 62
     4
100
AcDbCircle
 10
1906.431952932581
 20
176.7197417559572
 30
0.0
 40
9.0
100
AcDbArc
 50
90.0
 51
180.0
  0
ARC
  5
265
330
46
100
AcDbEntity
  8
1
  6
Continuous
 62
     4
100
AcDbCircle
 10
1776.931952932581
 20
1023.219741755956
 30
0.0
 40
2.0
100
AcDbArc
 50
270.0
 51
0.0
  0
ARC
  5
266
330
46
100
AcDbEntity
  8
1
  6
Continuous
 62
     4
100
AcDbCircle
 10
1783.931952932581
 20
836.2197417559565
 30
0.0
 40
5.0
100
AcDbArc
 50
179.9999999999974
 51
270.0
  0
ARC
  5
267
330
46
100
AcDbEntity
  8
1
  6
Continuous
 62
     4
100
AcDbCircle
 10
2028.931952932581
 20
836.2197417559565
 30
0.0
 40
4.999999999999545
100
AcDbArc
 50
269.9999999999895
 51
0.00000000000261
  0
ARC
  5
268
330
46
100
AcDbEntity
  8
1
  6
Continuous
 62
     4
100
AcDbCircle
 10
1783.931952932581
 20
1081.219741755956
 30
0.0
 40
5.0
100
AcDbArc
 50
90.0
 51
180.0
  0
ARC
  5
269
330
46
100
AcDbEntity
  8
1
  6
Continuous
 62
     4
100
AcDbCircle
 10
2028.931952932581
 20
1081.219741755956
 30
0.0
 40
4.999999999999091
100
AcDbArc
 50
0.0
 51
90.00000000001042
  0
ARC
  5
26A
330
46
100
AcDbEntity
  8
1
  6
Continuous
 62
     4
100
AcDbCircle
 10
1841.931952932581
 20
1088.219741755956
 30
0.0
 40
2.0
100
AcDbArc
 50
270.0
 51
0.0
  0
ARC
  5
26B
330
46
100
AcDbEntity
  8
1
  6
Continuous
 62
     4
100
AcDbCircle
 10
2035.931952932581
 20
1023.219741755956
 30
0.0
 40
2.000000000000909
100
AcDbArc
 50
180.0
 51
269.999999999974
  0
ARC
  5
26C
330
46
100
AcDbEntity
  8
1
  6
Continuous
 62
     4
100
AcDbCircle
 10
1970.931952932581
 20
1088.219741755956
 30
0.0
 40
2.0
100
AcDbArc
 50
180.0
 51
270.0
  0
ARC
  5
26D
330
46
100
AcDbEntity
  8
1
  6
Continuous
 62
     4
100
AcDbCircle
 10
1776.931952932581
 20
894.2197417559565
 30
0.0
 40
2.0
100
AcDbArc
 50
0.0
 51
90.0
  0
ARC
  5
26E
330
46
100
AcDbEntity
  8
1
  6
Continuous
 62
     4
100
AcDbCircle
 10
2035.931952932581
 20
894.2197417559565
 30
0.0
 40
2.0
100
AcDbArc
 50
90.00000000002606
 51
180.0
  0
ARC
  5
26F
330
46
100
AcDbEntity
  8
1
  6
Continuous
 62
     4
100
AcDbCircle
 10
1841.931952932581
 20
287.7197417559572
 30
0.0
 40
2.0
100
AcDbArc
 50
270.0
 51
0.0
  0
ARC
  5
270
330
46
100
AcDbEntity
  8
1
  6
Continuous
 62
     4
100
AcDbCircle
 10
1841.931952932581
 20
483.719741755957
 30
0.0
 40
2.0
100
AcDbArc
 50
0.0
 51
90.0
  0
ARC
  5
271
330
46
100
AcDbEntity
  8
1
  6
Continuous
 62
     4
100
AcDbCircle
 10
1970.931952932581
 20
287.7197417559572
 30
0.0
 40
2.0
100
AcDbArc
 50
180.0
 51
270.0
  0
ARC
  5
272
330
46
100
AcDbEntity
  8
1
  6
Continuous
 62
     4
100
AcDbCircle
 10
1970.931952932581
 20
483.719741755957
 30
0.0
 40
2.0
100
AcDbArc
 50
90.0
 51
180.0
  0
ARC
  5
273
330
46
100
AcDbEntity
  8
1
  6
Continuous
 62
     4
100
AcDbCircle
 10
1996.931952932581
 20
244.7197417559572
 30
0.0
 40
3.0
100
AcDbArc
 50
180.0
 51
270.0
  0
ARC
  5
274
330
46
100
AcDbEntity
  8
1
  6
Continuous
 62
     4
100
AcDbCircle
 10
1996.931952932581
 20
282.7197417559572
 30
0.0
 40
3.0
100
AcDbArc
 50
90.0
 51
180.0
  0
ARC
  5
275
330
46
100
AcDbEntity
  8
1
  6
Continuous
 62
     4
100
AcDbCircle
 10
1815.931952932581
 20
244.7197417559572
 30
0.0
 40
3.0
100
AcDbArc
 50
270.0
 51
0.0
  0
ARC
  5
276
330
46
100
AcDbEntity
  8
1
  6
Continuous
 62
     4
100
AcDbCircle
 10
1815.931952932581
 20
282.7197417559572
 30
0.0
 40
3.0
100
AcDbArc
 50
0.0
 51
90.0
  0
ARC
  5
277
330
46
100
AcDbEntity
  8
1
  6
Continuous
 62
     4
100
AcDbCircle
 10
2138.931952932581
 20
263.7197417559572
 30
0.0
 40
3.0
100
AcDbArc
 50
180.0
 51
270.0
  0
ARC
  5
278
330
46
100
AcDbEntity
  8
1
  6
Continuous
 62
     4
100
AcDbCircle
 10
2138.931952932581
 20
507.719741755957
 30
0.0
 40
3.0
100
AcDbArc
 50
90.0
 51
180.0
  0
ARC
  5
279
330
46
100
AcDbEntity
  8
1
  6
Continuous
 62
     4
100
AcDbCircle
 10
2130.931952932581
 20
310.7197417559572
 30
0.0
 40
5.0
100
AcDbArc
 50
0.0
 51
90.0
  0
ARC
  5
27A
330
46
100
AcDbEntity
  8
1
  6
Continuous
 62
     4
100
AcDbCircle
 10
2130.931952932581
 20
460.719741755957
 30
0.0
 40
5.0
100
AcDbArc
 50
270.0
 51
0.0
  0
ARC
  5
27B
330
46
100
AcDbEntity
  8
1
  6
Continuous
 62
     4
100
AcDbCircle
 10
2119.931952932581
 20
385.7197417559572
 30
0.0
 40
5.0
100
AcDbArc
 50
270.0
 51
0.0
  0
ARC
  5
27C
330
46
100
AcDbEntity
  8
1
  6
Continuous
 62
     4
100
AcDbCircle
 10
2119.931952932581
 20
385.7197417559572
 30
0.0
 40
5.0
100
AcDbArc
 50
0.0
 51
90.0
  0
ARC
  5
27D
330
46
100
AcDbEntity
  8
1
  6
Continuous
 62
     4
100
AcDbCircle
 10
2063.931952932581
 20
385.7197417559572
 30
0.0
 40
4.999999999999886
100
AcDbArc
 50
90.0
 51
180.0
  0
ARC
  5
27E
330
46
100
AcDbEntity
  8
1
  6
Continuous
 62
     4
100
AcDbCircle
 10
2063.931952932581
 20
385.7197417559572
 30
0.0
 40
5.0
100
AcDbArc
 50
180.0
 51
270.0
  0
ARC
  5
27F
330
46
100
AcDbEntity
  8
1
  6
Continuous
 62
     4
100
AcDbCircle
 10
2130.931952932581
 20
1105.219741755956
 30
0.0
 40
5.0
100
AcDbArc
 50
270.0
 51
0.0
  0
ARC
  5
280
330
46
100
AcDbEntity
  8
1
  6
Continuous
 62
     4
100
AcDbCircle
 10
2130.931952932581
 20
955.219741755956
 30
0.0
 40
5.0
100
AcDbArc
 50
0.0
 51
90.0
  0
SOLID
  5
281
330
46
100
AcDbEntity
  8
1
 62
     2
100
AcDbTrace
 10
1916.249449719721
 20
601.4094593406503
 30
0.0
 11
1917.387533900962
 21
598.6746317715588
 31
0.0
 12
1906.431952932581
 22
595.719741755957
 32
0.0
 13
1906.431952932581
 23
595.719741755957
 33
0.0
  0
LEADER
  5
282
330
46
100
AcDbEntity
  8
1
  6
Continuous
 62
     2
100
AcDbLeader
  3
Standard
 71
     0
 76
     2
 10
1906.431952932581
 20
595.719741755957
 30
0.0
 10
2057.81415663694
 20
658.716653628791
 30
0.0
  0
SOLID
  5
283
330
46
100
AcDbEntity
  8
1
 62
     2
100
AcDbTrace
 10
1991.393280071356
 20
580.9441801565218
 30
0.0
 11
1992.96166355227
 21
578.4312753248471
 31
0.0
 12
1982.633768206773
 22
573.7312001029456
 32
0.0
 13
1982.633768206773
 23
573.7312001029456
 33
0.0
  0
LEADER
  5
284
330
46
100
AcDbEntity
  8
1
  6
Continuous
 62
     2
100
AcDbLeader
  3
Standard
 71
     0
 76
     2
 10
1982.633768206773
 20
573.7312001029456
 30
0.0
 10
2059.19650899464
 20
621.5164311198856
 30
0.0
  0
LWPOLYLINE
  5
285
330
46
100
AcDbEntity
  8
1
 62
     2
100
AcDbPolyline
 90
        4
 70
     1
 43
0.0
 10
2059.231519206177
 20
644.0273200372216
 10
2059.231519206177
 20
621.5273200372216
 10
2194.231519206177
 20
621.5273200372216
 10
2194.231519206177
 20
644.0273200372216
  0
MTEXT
  5
286
330
46
100
AcDbEntity
  8
1
 62
     2
100
AcDbMText
 10
2064.856519206177
 20
627.1523200372216
 30
0.0
 40
11.24999999999999
 41
0.0
 71
     7
 72
     1
  1
Gewinde M8x20
  7
CONVERTER_11
 73
     1
 44
1.32052821128451
  0
LWPOLYLINE
  5
287
330
46
100
AcDbEntity
  8
1
 62
     2
100
AcDbPolyline
 90
        4
 70
     1
 43
0.0
 10
2057.811050777172
 20
684.5988205805438
 10
2057.811050777172
 20
658.7238205805438
 10
2264.529800777172
 20
658.7238205805438
 10
2264.529800777172
 20
684.5988205805438
  0
MTEXT
  5
288
330
46
100
AcDbEntity
  8
1
 62
     2
100
AcDbMText
 10
2063.436050777172
 20
667.7238205805438
 30
0.0
 40
11.24999999999999
 41
0.0
 71
     7
 72
     1
  1
Zentrumgewinde M16x36
  7
CONVERTER_11
 73
     1
 44
1.32052821128451
  0
MTEXT
  5
289
330
46
100
AcDbEntity
  8
1
 62
     2
100
AcDbMText
 10
2058.994452932581
 20
1065.219741755956
 30
0.0
 40
11.24999999999998
 41
0.0
 71
     4
 72
     1
  1
Flansch\P  B14
  7
CONVERTER_11
 73
     1
 44
1.32052821128451
  0
MTEXT
  5
28A
330
46
100
AcDbEntity
  8
1
 62
     2
100
AcDbMText
 10
2058.994452932581
 20
995.219741755956
 30
0.0
 40
11.24999999999998
 41
0.0
 71
     4
 72
     1
  1
Flansch\P  B5
  7
CONVERTER_11
 73
     1
 44
1.32052821128451
  0
DIMENSION
  5
29A
330
46
100
AcDbEntity
  8
1
100
AcDbDimension
  2
*D3
 10
1732.431952932582
 20
215.7197417559572
 30
0.0
 11
1722.306952932582
 21
200.186890982186
 31
0.0
 70
    32
  1
4
 71
     5
 42
-1.0
 53
90.0
  3
ME10_DIM_10
100
AcDbAlignedDimension
 13
1781.431952932581
 23
220.7197417559572
 33
0.0
 14
1816.431952932581
 24
215.7197417559572
 34
0.0
 50
90.0
100
AcDbRotatedDimension
  0
DIMENSION
  5
2A7
330
46
100
AcDbEntity
  8
1
100
AcDbDimension
  2
*D5
 10
1897.431952932581
 20
987.126994303139
 30
0.0
 11
1881.55008254989
 21
997.251994303139
 31
0.0
 70
    32
  1
<>
 71
     5
 42
-1.0
 53
0.00013888888889
  3
ME10_DIM_11
100
AcDbAlignedDimension
 13
1915.431952932581
 23
960.219741755956
 33
0.0
 14
1897.431952932581
 24
960.219741755956
 34
0.0
100
AcDbRotatedDimension
  0
DIMENSION
  5
2B2
330
46
100
AcDbEntity
  8
1
100
AcDbDimension
  2
*D6
 10
1790.431952932581
 20
658.719741755957
 30
0.0
 11
1906.43195293258
 21
668.844741755957
 31
0.0
 70
    32
  1
<>
 71
     5
 42
-1.0
 53
0.00013888888889
  3
ME10_DIM_12
100
AcDbAlignedDimension
 13
2022.43195293258
 23
490.719741755957
 33
0.0
 14
1790.431952932581
 24
490.719741755957
 34
0.0
100
AcDbRotatedDimension
  0
DIMENSION
  5
2BE
330
46
100
AcDbEntity
  8
1
100
AcDbDimension
  2
*D7
 10
1732.431952932582
 20
238.7197417559572
 30
0.0
 11
1722.306952932582
 21
229.950005280915
 31
0.0
 70
    32
  1
<>
 71
     5
 42
-1.0
 53
90.0
  3
ME10_DIM_13
100
AcDbAlignedDimension
 13
1781.431952932581
 23
220.7197417559572
 33
0.0
 14
1781.431952932581
 24
238.7197417559572
 34
0.0
 50
90.0
100
AcDbRotatedDimension
  0
DIMENSION
  5
2CB
330
46
100
AcDbEntity
  8
1
100
AcDbDimension
  2
*D8
 10
1637.931952932582
 20
385.7197417559572
 30
0.0
 11
1627.806952932582
 21
303.7399387493219
 31
0.0
 70
    32
  1
<>
 71
     5
 42
-1.0
 53
90.0
  3
ME10_DIM_14
100
AcDbAlignedDimension
 13
1781.431952932581
 23
220.7197417559572
 33
0.0
 14
1759.441627605347
 24
385.7197417559572
 34
0.0
 50
90.0
100
AcDbRotatedDimension
  0
DIMENSION
  5
2D9
330
46
100
AcDbEntity
  8
1
100
AcDbDimension
  2
*D9
 10
1637.931952932581
 20
490.719741755957
 30
0.0
 11
1627.806952932581
 21
441.8565729101759
 31
0.0
 70
    32
  1
<>
 71
     5
 42
-1.0
 53
90.0
  3
ME10_DIM_15
100
AcDbAlignedDimension
 13
1759.441627605347
 23
385.7197417559572
 33
0.0
 14
1790.431952932581
 24
490.719741755957
 34
0.0
 50
90.0
100
AcDbRotatedDimension
  0
DIMENSION
  5
2E6
330
46
100
AcDbEntity
  8
1
100
AcDbDimension
  2
*D10
 10
1794.431952932581
 20
784.719741755957
 30
0.0
 11
1779.533307821171
 21
794.844741755957
 31
0.0
 70
    32
  1
<>
 71
     5
 42
-1.0
 53
0.00013888888889
  3
ME10_DIM_16
100
AcDbAlignedDimension
 13
1808.431952932581
 23
816.219741755957
 33
0.0
 14
1794.431952932581
 24
816.219741755957
 34
0.0
100
AcDbRotatedDimension
  0
DIMENSION
  5
2F3
330
46
100
AcDbEntity
  8
1
100
AcDbDimension
  2
*D11
 10
1732.431952932582
 20
1070.719741755956
 30
0.0
 11
1722.306952932582
 21
1085.009068414702
 31
0.0
 70
    32
  1
<>
 71
     5
 42
-1.0
 53
90.0
  3
ME10_DIM_17
100
AcDbAlignedDimension
 13
1763.931952932582
 23
1056.719741755956
 33
0.0
 14
1763.931952932582
 24
1070.719741755956
 34
0.0
 50
90.0
100
AcDbRotatedDimension
  0
DIMENSION
  5
300
330
46
100
AcDbEntity
  8
1
100
AcDbDimension
  2
*D12
 10
1574.931952932582
 20
595.719741755957
 30
0.0
 11
1564.806952932582
 21
550.6035779678599
 31
0.0
 70
    32
  1
100
 71
     5
 42
-1.0
 53
90.0
  3
ME10_DIM_18
100
AcDbAlignedDimension
 13
1866.431952932581
 23
495.719741755957
 33
0.0
 14
1878.431952932581
 24
595.719741755957
 34
0.0
 50
90.0
100
AcDbRotatedDimension
  0
DIMENSION
  5
30B
330
46
100
AcDbEntity
  8
1
100
AcDbDimension
  2
*D13
 10
2048.931952932581
 20
690.219741755957
 30
0.0
 11
1906.431952932581
 21
700.344741755957
 31
0.0
 70
    32
  1
<>
 71
     5
 42
-1.0
 53
0.00013888888889
  3
ME10_DIM_19
100
AcDbAlignedDimension
 13
1763.931952932582
 23
831.219741755957
 33
0.0
 14
2048.931952932581
 24
831.219741755957
 34
0.0
100
AcDbRotatedDimension
  0
DIMENSION
  5
317
330
46
100
AcDbEntity
  8
1
100
AcDbDimension
  2
*D14
 10
1983.931952932581
 20
721.719741755957
 30
0.0
 11
2016.784324242162
 21
731.844741755957
 31
0.0
 70
    32
  1
<>
 71
     5
 42
-1.0
 53
0.00013888888889
  3
ME10_DIM_20
100
AcDbAlignedDimension
 13
2048.931952932581
 23
831.219741755957
 33
0.0
 14
1983.931952932581
 24
816.219741755957
 34
0.0
100
AcDbRotatedDimension
  0
DIMENSION
  5
324
330
46
100
AcDbEntity
  8
1
100
AcDbDimension
  2
*D15
 10
1828.931952932581
 20
721.719741755957
 30
0.0
 11
1906.431952932581
 21
731.844741755957
 31
0.0
 70
    32
  1
<>
 71
     5
 42
-1.0
 53
0.00013888888889
  3
ME10_DIM_21
100
AcDbAlignedDimension
 13
1983.931952932581
 23
816.219741755957
 33
0.0
 14
1828.931952932581
 24
816.219741755957
 34
0.0
100
AcDbRotatedDimension
  0
DIMENSION
  5
330
330
46
100
AcDbEntity
  8
1
100
AcDbDimension
  2
*D16
 10
1763.931952932582
 20
721.719741755957
 30
0.0
 11
1795.990025723201
 21
731.844741755957
 31
0.0
 70
    32
  1
<>
 71
     5
 42
-1.0
 53
0.00013888888889
  3
ME10_DIM_22
100
AcDbAlignedDimension
 13
1828.931952932581
 23
816.219741755957
 33
0.0
 14
1763.931952932582
 24
831.219741755957
 34
0.0
100
AcDbRotatedDimension
  0
DIMENSION
  5
33B
330
46
100
AcDbEntity
  8
1
100
AcDbDimension
  2
*D17
 10
2048.931952932581
 20
1218.219741755956
 30
0.0
 11
1977.101272528292
 21
1228.907241755956
 31
0.0
 70
    32
  1
<>
 71
     5
 42
-1.0
 53
0.00013888888889
  3
ME10_DIM_23
100
AcDbAlignedDimension
 13
1906.431952932581
 23
1104.309912307594
 33
0.0
 14
2048.931952932581
 24
1086.219741755956
 34
0.0
100
AcDbRotatedDimension
  0
DIMENSION
  5
348
330
46
100
AcDbEntity
  8
1
100
AcDbDimension
  2
*D18
 10
1574.931952932582
 20
110.7197417559569
 30
0.0
 11
1564.806952932582
 21
169.5216917816653
 31
0.0
 70
    32
  1
100
 71
     5
 42
-1.0
 53
90.0
  3
ME10_DIM_24
100
AcDbAlignedDimension
 13
1866.431952932581
 23
210.7197417559572
 33
0.0
 14
1878.431952932581
 24
110.7197417559569
 34
0.0
 50
90.0
100
AcDbRotatedDimension
  0
DIMENSION
  5
353
330
46
100
AcDbEntity
  8
1
100
AcDbDimension
  2
*D19
 10
1543.431952932582
 20
595.719741755957
 30
0.0
 11
1533.306952932582
 21
352.9539118411209
 31
0.0
 70
    32
  1
476
 71
     5
 42
-1.0
 53
90.0
  3
ME10_DIM_25
100
AcDbAlignedDimension
 13
1878.431952932581
 23
110.7197417559569
 33
0.0
 14
1878.431952932581
 24
595.719741755957
 34
0.0
 50
90.0
100
AcDbRotatedDimension
  0
DIMENSION
  5
35E
330
46
100
AcDbEntity
  8
1
100
AcDbDimension
  2
*D20
 10
1936.431952932581
 20
79.21974175595693
 30
0.0
 11
1906.431952932581
 21
91.03224175595693
 31
0.0
 70
    32
  1
<>
 71
     5
 42
-1.0
 53
0.00013888888889
  3
ME10_DIM_26
100
AcDbAlignedDimension
 13
1876.431952932581
 23
110.7197417559569
 33
0.0
 14
1936.431952932581
 24
110.7197417559569
 34
0.0
100
AcDbRotatedDimension
  0
DIMENSION
  5
369
330
46
100
AcDbEntity
  8
1
100
AcDbDimension
  2
*D21
 10
1876.431952932581
 20
627.219741755957
 30
0.0
 11
1906.431952932581
 21
639.032241755957
 31
0.0
 70
    32
  1
<>
 71
     5
 42
-1.0
 53
0.00013888888889
  3
ME10_DIM_27
100
AcDbAlignedDimension
 13
1936.431952932581
 23
595.719741755957
 33
0.0
 14
1876.431952932581
 24
595.719741755957
 34
0.0
100
AcDbRotatedDimension
  0
DIMENSION
  5
374
330
46
100
AcDbEntity
  8
1
100
AcDbDimension
  2
*D22
 10
1700.931952932581
 20
1101.219741755956
 30
0.0
 11
1690.244452932581
 21
1082.414699633502
 31
0.0
 70
    32
  1
<>
 71
     5
 42
-1.0
 53
90.0
  3
ME10_DIM_28
100
AcDbAlignedDimension
 13
1759.708795538917
 23
1063.719741755956
 33
0.0
 14
1778.931952932581
 24
1101.219741755956
 34
0.0
 50
90.0
100
AcDbRotatedDimension
  0
DIMENSION
  5
37F
330
46
100
AcDbEntity
  8
1
100
AcDbDimension
  2
*D23
 10
1700.931952932582
 20
1063.719741755956
 30
0.0
 11
1690.806952932582
 21
958.7197417559564
 31
0.0
 70
    32
  1
<>
 71
     5
 42
-1.0
 53
90.0
  3
ME10_DIM_29
100
AcDbAlignedDimension
 13
1758.715633007268
 23
853.7197417559565
 33
0.0
 14
1759.708795538917
 24
1063.719741755956
 34
0.0
 50
90.0
100
AcDbRotatedDimension
  0
DIMENSION
  5
38A
330
46
100
AcDbEntity
  8
1
100
AcDbDimension
  2
*D24
 10
1700.931952932582
 20
853.7197417559565
 30
0.0
 11
1690.244452932582
 21
833.8741703948011
 31
0.0
 70
    32
  1
<>
 71
     5
 42
-1.0
 53
90.0
  3
ME10_DIM_30
100
AcDbAlignedDimension
 13
1778.931952932581
 23
816.219741755957
 33
0.0
 14
1758.715633007268
 24
853.7197417559565
 34
0.0
 50
90.0
100
AcDbRotatedDimension
  0
DIMENSION
  5
396
330
46
100
AcDbEntity
  8
1
100
AcDbDimension
  2
*D25
 10
1669.431952932581
 20
816.219741755957
 30
0.0
 11
1659.306952932581
 21
854.6291206443791
 31
0.0
 70
    32
  1
<>
 71
     5
 42
-1.0
 53
90.0
  3
ME10_DIM_31
100
AcDbAlignedDimension
 13
1763.931952932582
 23
896.2197417559565
 33
0.0
 14
1778.931952932581
 24
816.219741755957
 34
0.0
 50
90.0
100
AcDbRotatedDimension
  0
DIMENSION
  5
3A3
330
46
100
AcDbEntity
  8
1
100
AcDbDimension
  2
*D26
 10
1669.431952932582
 20
896.2197417559565
 30
0.0
 11
1659.306952932582
 21
958.7197417559564
 31
0.0
 70
    32
  1
<>
 71
     5
 42
-1.0
 53
90.0
  3
ME10_DIM_32
100
AcDbAlignedDimension
 13
1763.931952932582
 23
1021.219741755956
 33
0.0
 14
1763.931952932582
 24
896.2197417559565
 34
0.0
 50
90.0
100
AcDbRotatedDimension
  0
DIMENSION
  5
3AF
330
46
100
AcDbEntity
  8
1
100
AcDbDimension
  2
*D27
 10
1669.431952932582
 20
1021.219741755956
 30
0.0
 11
1659.306952932582
 21
1069.442855727512
 31
0.0
 70
    32
  1
<>
 71
     5
 42
-1.0
 53
90.0
  3
ME10_DIM_33
100
AcDbAlignedDimension
 13
1778.931952932581
 23
1101.219741755956
 33
0.0
 14
1763.931952932582
 24
1021.219741755956
 34
0.0
 50
90.0
100
AcDbRotatedDimension
  0
DIMENSION
  5
3BA
330
46
100
AcDbEntity
  8
1
100
AcDbDimension
  2
*D28
 10
1637.931952932581
 20
1101.219741755956
 30
0.0
 11
1627.806952932581
 21
958.7197417559564
 31
0.0
 70
    32
  1
<>
 71
     5
 42
-1.0
 53
90.0
  3
ME10_DIM_34
100
AcDbAlignedDimension
 13
1778.931952932581
 23
816.219741755957
 33
0.0
 14
1778.931952932581
 24
1101.219741755956
 34
0.0
 50
90.0
100
AcDbRotatedDimension
  0
DIMENSION
  5
3C5
330
46
100
AcDbEntity
  8
1
100
AcDbDimension
  2
*D29
 10
1763.931952932582
 20
753.219741755957
 30
0.0
 11
1783.190356243842
 21
763.907241755957
 31
0.0
 70
    32
  1
<>
 71
     5
 42
-1.0
 53
0.00013888888889
  3
ME10_DIM_35
100
AcDbAlignedDimension
 13
1801.431952932581
 23
811.0034218306438
 33
0.0
 14
1763.931952932582
 24
846.7197417559565
 34
0.0
100
AcDbRotatedDimension
  0
DIMENSION
  5
3D0
330
46
100
AcDbEntity
  8
1
100
AcDbDimension
  2
*D30
 10
1801.431952932581
 20
753.219741755957
 30
0.0
 11
1906.431952932581
 21
763.344741755957
 31
0.0
 70
    32
  1
<>
 71
     5
 42
-1.0
 53
0.00013888888889
  3
ME10_DIM_36
100
AcDbAlignedDimension
 13
2011.431952932581
 23
810.9027009777726
 33
0.0
 14
1801.431952932581
 24
811.0034218306438
 34
0.0
100
AcDbRotatedDimension
  0
DIMENSION
  5
3DB
330
46
100
AcDbEntity
  8
1
100
AcDbDimension
  2
*D31
 10
2011.431952932581
 20
753.219741755957
 30
0.0
 11
2030.498255827192
 21
763.907241755957
 31
0.0
 70
    32
  1
<>
 71
     5
 42
-1.0
 53
0.00013888888889
  3
ME10_DIM_37
100
AcDbAlignedDimension
 13
2048.931952932581
 23
846.7197417559568
 33
0.0
 14
2011.431952932581
 24
810.9027009777726
 34
0.0
100
AcDbRotatedDimension
  0
DIMENSION
  5
3E6
330
46
100
AcDbEntity
  8
1
100
AcDbDimension
  2
*D32
 10
2185.931952932581
 20
1186.719741755956
 30
0.0
 11
2173.696741874602
 21
1196.844741755956
 31
0.0
 70
    32
  1
B
 71
     5
 42
-1.0
 53
0.00013888888889
  3
ME10_DIM_38
100
AcDbAlignedDimension
 13
2160.931952932581
 23
1155.219741755956
 33
0.0
 14
2185.931952932581
 24
1155.219741755956
 34
0.0
100
AcDbRotatedDimension
  0
DIMENSION
  5
3F1
330
46
100
AcDbEntity
  8
1
100
AcDbDimension
  2
*D33
 10
2160.931952932581
 20
1186.719741755956
 30
0.0
 11
2145.436143156062
 21
1196.844741755956
 31
0.0
 70
    32
  1
C
 71
     5
 42
-1.0
 53
0.00013888888889
  3
ME10_DIM_39
100
AcDbAlignedDimension
 13
2135.931952932581
 23
1152.219741755956
 33
0.0
 14
2160.931952932581
 24
1155.219741755956
 34
0.0
100
AcDbRotatedDimension
  0
DIMENSION
  5
3FC
330
46
100
AcDbEntity
  8
1
100
AcDbDimension
  2
*D34
 10
2185.931952932581
 20
1218.219741755956
 30
0.0
 11
2120.247348646071
 21
1228.344741755956
 31
0.0
 70
    32
  1
A
 71
     5
 42
-1.0
 53
0.00013888888889
  3
ME10_DIM_40
100
AcDbAlignedDimension
 13
2048.931952932581
 23
1086.219741755956
 33
0.0
 14
2185.931952932581
 24
1155.219741755956
 34
0.0
100
AcDbRotatedDimension
  0
DIMENSION
  5
40A
330
46
100
AcDbEntity
  8
1
100
AcDbDimension
  2
*D35
 10
1700.931952932581
 20
285.7197417559572
 30
0.0
 11
1690.806952932581
 21
268.0201195697909
 31
0.0
 70
    32
  1
15
 71
     5
 42
-1.0
 53
90.0
  3
ME10_DIM_41
100
AcDbAlignedDimension
 13
1790.810214114256
 23
300.7197417559572
 33
0.0
 14
1766.931952932581
 24
285.7197417559572
 34
0.0
 50
90.0
100
AcDbRotatedDimension
  0
DIMENSION
  5
415
330
46
100
AcDbEntity
  8
1
100
AcDbDimension
  2
*D36
 10
1700.931952932582
 20
300.7197417559572
 30
0.0
 11
1690.806952932582
 21
385.4986359824709
 31
0.0
 70
    32
  1
170
 71
     5
 42
-1.0
 53
90.0
  3
ME10_DIM_42
100
AcDbAlignedDimension
 13
1790.810214114256
 23
470.719741755957
 33
0.0
 14
1790.810214114256
 24
300.7197417559572
 34
0.0
 50
90.0
100
AcDbRotatedDimension
  0
DIMENSION
  5
422
330
46
100
AcDbEntity
  8
1
100
AcDbDimension
  2
*D37
 10
1700.931952932582
 20
470.719741755957
 30
0.0
 11
1690.806952932582
 21
510.9148899906029
 31
0.0
 70
    32
  1
15
 71
     5
 42
-1.0
 53
90.0
  3
ME10_DIM_43
100
AcDbAlignedDimension
 13
1766.931952932581
 23
485.719741755957
 33
0.0
 14
1790.810214114256
 24
470.719741755957
 34
0.0
 50
90.0
100
AcDbRotatedDimension
  0
DIMENSION
  5
42E
330
46
100
AcDbEntity
  8
1
100
AcDbDimension
  2
*D38
 10
1669.431952932581
 20
485.719741755957
 30
0.0
 11
1659.306952932581
 21
383.9110884633809
 31
0.0
 70
    32
  1
200
 71
     5
 42
-1.0
 53
90.0
  3
ME10_DIM_44
100
AcDbAlignedDimension
 13
1766.931952932581
 23
285.7197417559572
 33
0.0
 14
1766.931952932581
 24
485.719741755957
 34
0.0
 50
90.0
100
AcDbRotatedDimension
  0
DIMENSION
  5
43D
330
46
100
AcDbEntity
  8
1
100
AcDbDimension
  2
*D39
 10
1574.931952932582
 20
210.7197417559572
 30
0.0
 11
1564.806952932582
 21
353.7476856006659
 31
0.0
 70
    32
  1
276
 71
     5
 42
-1.0
 53
90.0
  3
ME10_DIM_45
100
AcDbAlignedDimension
 13
1866.431952932581
 23
495.719741755957
 33
0.0
 14
1866.431952932581
 24
210.7197417559572
 34
0.0
 50
90.0
100
AcDbRotatedDimension
  0
DIMENSION
  5
448
330
46
100
AcDbEntity
  8
1
100
AcDbDimension
  2
*D40
 10
1732.431952932582
 20
288.7197417559572
 30
0.0
 11
1722.306952932582
 21
264.0512507720649
 31
0.0
 70
    32
  1
50
 71
     5
 42
-1.0
 53
90.0
  3
ME10_DIM_46
100
AcDbAlignedDimension
 13
1781.431952932581
 23
238.7197417559572
 33
0.0
 14
1843.931952932581
 24
288.7197417559572
 34
0.0
 50
90.0
100
AcDbRotatedDimension
  0
DIMENSION
  5
453
330
46
100
AcDbEntity
  8
1
100
AcDbDimension
  2
*D41
 10
1996.431952932581
 20
47.71974175595693
 30
0.0
 11
1906.431952932581
 21
59.53224175595693
 31
0.0
 70
    32
  1
<>
 71
     5
 42
-1.0
 53
0.00013888888889
  3
ME10_DIM_47
100
AcDbAlignedDimension
 13
1816.431952932581
 23
215.7197417559572
 33
0.0
 14
1996.431952932581
 24
215.7197417559572
 34
0.0
100
AcDbRotatedDimension
  0
DIMENSION
  5
45E
330
46
100
AcDbEntity
  8
1
100
AcDbDimension
  2
*D42
 10
2031.43195293258
 20
16.21974175595693
 30
0.0
 11
1906.43195293258
 21
26.34474175595693
 31
0.0
 70
    32
  1
<>
 71
     5
 42
-1.0
 53
0.00013888888889
  3
ME10_DIM_48
100
AcDbAlignedDimension
 13
1781.431952932581
 23
220.7197417559572
 33
0.0
 14
2031.43195293258
 24
220.7197417559572
 34
0.0
100
AcDbRotatedDimension
  0
DIMENSION
  5
46B
330
46
100
AcDbEntity
  8
1
100
AcDbDimension
  2
*D43
 10
1763.931952932582
 20
1155.219741755956
 30
0.0
 11
1813.066927792461
 21
1165.344741755956
 31
0.0
 70
    32
  1
<>
 71
     5
 42
-1.0
 53
0.00013888888889
  3
ME10_DIM_49
100
AcDbAlignedDimension
 13
1778.931952932581
 23
1101.219741755956
 33
0.0
 14
1763.931952932582
 24
1086.219741755956
 34
0.0
100
AcDbRotatedDimension
  0
DIMENSION
  5
478
330
46
100
AcDbEntity
  8
1
100
AcDbDimension
  2
*D44
 10
1763.931952932582
 20
987.9796759979222
 30
0.0
 11
1747.202678323661
 21
998.1046759979222
 31
0.0
 70
    32
  1
<>
 71
     5
 42
-1.0
 53
0.00013888888889
  3
ME10_DIM_50
100
AcDbAlignedDimension
 13
1778.931952932581
 23
1023.219741755956
 33
0.0
 14
1763.931952932582
 24
1021.219741755956
 34
0.0
100
AcDbRotatedDimension
  0
DIMENSION
  5
485
330
46
100
AcDbEntity
  8
1
100
AcDbDimension
  2
*D45
 10
1873.031952932582
 20
1101.219741755956
 30
0.0
 11
1862.906952932582
 21
1119.502843799972
 31
0.0
 70
    32
  1
<>
 71
     5
 42
-1.0
 53
90.0
  3
ME10_DIM_51
100
AcDbAlignedDimension
 13
1841.931952932581
 23
1086.219741755956
 33
0.0
 14
1843.931952932581
 24
1101.219741755956
 34
0.0
 50
90.0
100
AcDbRotatedDimension
  0
DIMENSION
  5
49B
330
46
100
AcDbEntity
  8
1
100
AcDbDimension
  2
*D46
 10
2114.032941597189
 20
485.719741755957
 30
0.0
 11
2103.907941597189
 21
385.7197417559571
 31
0.0
 70
    32
  1
<>
 71
     5
 42
-1.0
 53
90.0
  3
ME10_DIM_52
100
AcDbAlignedDimension
 13
2045.93195293258
 23
285.7197417559572
 33
0.0
 14
2045.93195293258
 24
485.719741755957
 34
0.0
 50
90.0
100
AcDbRotatedDimension
  0
DIMENSION
  5
4A7
330
46
100
AcDbEntity
  8
1
100
AcDbDimension
  2
*D48
 10
1606.431952932582
 20
595.719741755957
 30
0.0
 11
1596.306952932582
 21
551.640762548658
 31
0.0
 70
    32
  1
102
 71
     5
 42
-1.0
 53
90.0
  3
ME10_DIM_53
100
AcDbAlignedDimension
 13
1790.431952932581
 23
490.719741755957
 33
0.0
 14
1876.431952932581
 24
595.719741755957
 34
0.0
 50
90.0
100
AcDbRotatedDimension
  0
DIMENSION
  5
4B2
330
46
100
AcDbEntity
  8
1
100
AcDbDimension
  2
*D49
 10
1606.431952932582
 20
220.7197417559571
 30
0.0
 11
1596.306952932582
 21
165.719741755957
 31
0.0
 70
    32
  1
106
 71
     5
 42
-1.0
 53
90.0
  3
ME10_DIM_54
100
AcDbAlignedDimension
 13
1876.431952932581
 23
110.7197417559569
 33
0.0
 14
1781.431952932581
 24
220.7197417559572
 34
0.0
 50
90.0
100
AcDbRotatedDimension
  0
DIMENSION
  5
4BE
330
46
100
AcDbEntity
  8
1
100
AcDbDimension
  2
*D50
 10
1606.431952932582
 20
490.719741755957
 30
0.0
 11
1596.306952932582
 21
355.7197417559571
 31
0.0
 70
    32
  1
268
 71
     5
 42
-1.0
 53
90.0
  3
ME10_DIM_55
100
AcDbAlignedDimension
 13
1781.431952932581
 23
220.7197417559572
 33
0.0
 14
1790.431952932581
 24
490.719741755957
 34
0.0
 50
90.0
100
AcDbRotatedDimension
  0
DIMENSION
  5
4C9
330
46
100
AcDbEntity
  8
1
100
AcDbDimension
  2
*D51
 10
2062.931952932581
 20
185.7197417559572
 30
0.0
 11
2052.806952932581
 21
153.5515255832654
 31
0.0
 70
    32
  1
<>
 71
     5
 42
-1.0
 53
90.0
  3
ME10_DIM_56
100
AcDbAlignedDimension
 13
1906.431952932581
 23
115.7197417559572
 33
0.0
 14
1906.431952932581
 24
185.7197417559572
 34
0.0
 50
90.0
100
AcDbRotatedDimension
  0
DIMENSION
  5
4D6
330
46
100
AcDbEntity
  8
1
100
AcDbDimension
  2
*D52
 10
2062.931952932581
 20
115.7197417559572
 30
0.0
 11
2052.806952932581
 21
94.54627315774798
 31
0.0
 70
    32
  1
<>
 71
     5
 42
-1.0
 53
90.0
  3
ME10_DIM_57
100
AcDbAlignedDimension
 13
1936.431952932581
 23
110.7197417559569
 33
0.0
 14
1906.431952932581
 24
115.7197417559572
 34
0.0
 50
90.0
100
AcDbRotatedDimension
  0
DIMENSION
  5
4E1
330
46
100
AcDbEntity
  8
1
100
AcDbDimension
  2
*D53
 10
1763.931952932582
 20
1218.219741755956
 30
0.0
 11
1836.412639777332
 21
1228.907241755956
 31
0.0
 70
    32
  1
<>
 71
     5
 42
-1.0
 53
0.00013888888889
  3
ME10_DIM_58
100
AcDbAlignedDimension
 13
1906.431952932581
 23
1104.309912307594
 33
0.0
 14
1763.931952932582
 24
1086.219741755956
 34
0.0
100
AcDbRotatedDimension
  0
DIMENSION
  5
4EC
330
46
100
AcDbEntity
  8
1
100
AcDbDimension
  2
*D54
 10
2185.931952932581
 20
1249.719741755956
 30
0.0
 11
1975.872550844872
 21
1259.844741755956
 31
0.0
 70
    32
  1
L
 71
     5
 42
-1.0
 53
0.00013888888889
  3
ME10_DIM_59
100
AcDbAlignedDimension
 13
1763.931952932582
 23
1086.219741755956
 33
0.0
 14
2185.931952932581
 24
1155.219741755956
 34
0.0
100
AcDbRotatedDimension
  0
DIMENSION
  5
4F7
330
46
100
AcDbEntity
  8
1
100
AcDbDimension
  2
*D55
 10
2217.43195293258
 20
1101.219741755956
 30
0.0
 11
2207.30695293258
 21
1066.229961938882
 31
0.0
 70
    32
  1
<>
 71
     5
 42
-1.0
 53
90.0
  3
ME10_DIM_60
100
AcDbAlignedDimension
 13
2201.482644102964
 23
1030.219741755956
 33
0.0
 14
2033.93195293258
 24
1101.219741755956
 34
0.0
 50
90.0
100
AcDbRotatedDimension
  0
DIMENSION
  5
502
330
46
100
AcDbEntity
  8
1
100
AcDbDimension
  2
*D56
 10
2217.43195293258
 20
926.2197417559571
 30
0.0
 11
2207.30695293258
 21
864.0959895082201
 31
0.0
 70
    32
  1
<>
 71
     5
 42
-1.0
 53
90.0
  3
ME10_DIM_61
100
AcDbAlignedDimension
 13
2033.93195293258
 23
816.219741755957
 33
0.0
 14
2052.239454355369
 24
926.2197417559571
 34
0.0
 50
90.0
100
AcDbRotatedDimension
  0
DIMENSION
  5
50D
330
46
100
AcDbEntity
  8
1
100
AcDbDimension
  2
*D57
 10
2217.43195293258
 20
1030.219741755956
 30
0.0
 11
2207.30695293258
 21
976.983675865692
 31
0.0
 70
    32
  1
<>
 71
     5
 42
-1.0
 53
90.0
  3
ME10_DIM_62
100
AcDbAlignedDimension
 13
2052.239454355369
 23
926.2197417559571
 33
0.0
 14
2201.482644102964
 24
1030.219741755956
 34
0.0
 50
90.0
100
AcDbRotatedDimension
  0
DIMENSION
  5
51E
330
46
100
AcDbEntity
  8
1
100
AcDbDimension
  2
*D58
 10
2079.565416577222
 20
485.719741755957
 30
0.0
 11
2069.440416577222
 21
497.3055310482112
 31
0.0
 70
    32
  1
<>
 71
     5
 42
-1.0
 53
90.0
  3
ME10_DIM_63
100
AcDbAlignedDimension
 13
2022.053691750907
 23
470.719741755957
 33
0.0
 14
2033.931952932581
 24
485.719741755957
 34
0.0
 50
90.0
100
AcDbRotatedDimension
  0
DIMENSION
  5
52F
330
46
100
AcDbEntity
  8
1
100
AcDbDimension
  2
*D59
 10
2079.565416577222
 20
300.7197417559572
 30
0.0
 11
2068.545156187093
 21
273.0428033208927
 31
0.0
 70
    32
  1
<>
 71
     5
 42
-1.0
 53
90.0
  3
ME10_DIM_64
100
AcDbAlignedDimension
 13
2045.93195293258
 23
285.7197417559572
 33
0.0
 14
2022.053691750907
 24
300.7197417559572
 34
0.0
 50
90.0
100
AcDbRotatedDimension
  0
DIMENSION
  5
53E
330
46
100
AcDbEntity
  8
1
100
AcDbDimension
  2
*D60
 10
2079.565416577222
 20
470.719741755957
 30
0.0
 11
2069.440416577222
 21
385.7197417559571
 31
0.0
 70
    32
  1
<>
 71
     5
 42
-1.0
 53
90.0
  3
ME10_DIM_65
100
AcDbAlignedDimension
 13
2022.053691750907
 23
300.7197417559572
 33
0.0
 14
2022.053691750907
 24
470.719741755957
 34
0.0
 50
90.0
100
AcDbRotatedDimension
  0
INSERT
  5
546
330
46
100
AcDbEntity
  8
1
100
AcDbBlockReference
  2
*D61
 10
0.0
 20
0.0
 30
0.0
  0
INSERT
  5
54F
330
46
100
AcDbEntity
  8
1
100
AcDbBlockReference
  2
*D62
 10
0.0
 20
0.0
 30
0.0
  0
INSERT
  5
557
330
46
100
AcDbEntity
  8
1
100
AcDbBlockReference
  2
*D63
 10
0.0
 20
0.0
 30
0.0
  0
INSERT
  5
55E
330
46
100
AcDbEntity
  8
1
100
AcDbBlockReference
  2
*D64
 10
0.0
 20
0.0
 30
0.0
  0
INSERT
  5
566
330
46
100
AcDbEntity
  8
1
100
AcDbBlockReference
  2
*D65
 10
0.0
 20
0.0
 30
0.0
  0
ENDBLK
  5
6B
330
46
100
AcDbEntity
  8
0
100
AcDbBlockEnd
  0
BLOCK
  5
293
330
28B
100
AcDbEntity
  8
0
100
AcDbBlockBegin
  2
*D3
 70
     1
 10
0.0
 20
0.0
 30
0.0
  3
*D3
  1

  0
LINE
  5
28C
330
28B
100
AcDbEntity
  8
1
  6
Continuous
 62
     2
100
AcDbLine
 10
1732.431952932582
 20
215.7197417559572
 30
0.0
 11
1732.431952932582
 21
196.811890982186
 31
0.0
  0
LINE
  5
28D
330
28B
100
AcDbEntity
  8
1
  6
Continuous
 62
     2
100
AcDbLine
 10
1732.431952932582
 20
215.7197417559572
 30
0.0
 11
1732.431952932582
 21
220.7197417559572
 31
0.0
  0
LINE
  5
28E
330
28B
100
AcDbEntity
  8
1
  6
Continuous
 62
     2
100
AcDbLine
 10
1781.431952932581
 20
220.7197417559572
 30
0.0
 11
1727.931952932582
 21
220.7197417559572
 31
0.0
  0
LINE
  5
28F
330
28B
100
AcDbEntity
  8
1
  6
Continuous
 62
     2
100
AcDbLine
 10
1816.431952932581
 20
215.7197417559572
 30
0.0
 11
1727.931952932582
 21
215.7197417559572
 31
0.0
  0
SOLID
  5
290
330
28B
100
AcDbEntity
  8
1
 62
     2
100
AcDbTrace
 10
1733.468716351083
 20
207.8447417559572
 30
0.0
 11
1731.395189514081
 21
207.8447417559572
 31
0.0
 12
1732.431952932582
 22
215.7197417559572
 32
0.0
 13
1732.431952932582
 23
215.7197417559572
 33
0.0
  0
LINE
  5
291
330
28B
100
AcDbEntity
  8
1
 62
     2
100
AcDbLine
 10
1729.64771998166
 20
223.5039747068792
 30
0.0
 11
1735.216185883504
 21
217.9355088050352
 31
0.0
  0
MTEXT
  5
292
330
28B
100
AcDbEntity
  8
1
 62
     2
100
AcDbMText
 10
1727.931952932582
 20
196.811890982186
 30
0.0
 40
11.25
 41
0.0
 71
     7
 72
     1
  1
4
  7
CONVERTER_11
 11
0.0
 21
1.0
 31
0.0
 73
     1
 44
0.60024009603842
  0
ENDBLK
  5
294
330
28B
100
AcDbEntity
  8
0
100
AcDbBlockEnd
  0
BLOCK
  5
296
330
295
100
AcDbEntity
  8
0
100
AcDbBlockBegin
  2
_OBLIQUE
 70
     0
 10
0.0
 20
0.0
 30
0.0
  3
_OBLIQUE
  1

  0
LINE
  5
298
330
295
100
AcDbEntity
  8
0
  6
ByBlock
 62
     0
370
    -2
100
AcDbLine
 10
-0.5
 20
-0.5
 30
0.0
 11
0.5
 21
0.5
 31
0.0
  0
ENDBLK
  5
297
330
295
100
AcDbEntity
  8
0
100
AcDbBlockEnd
  0
BLOCK
  5
2A4
330
29B
100
AcDbEntity
  8
0
100
AcDbBlockBegin
  2
*D5
 70
     1
 10
0.0
 20
0.0
 30
0.0
  3
*D5
  1

  0
LINE
  5
29C
330
29B
100
AcDbEntity
  8
1
  6
Continuous
 62
     2
100
AcDbLine
 10
1897.431952932581
 20
987.126994303139
 30
0.0
 11
1874.80008254989
 21
987.126994303139
 31
0.0
  0
LINE
  5
29D
330
29B
100
AcDbEntity
  8
1
  6
Continuous
 62
     2
100
AcDbLine
 10
1897.431952932581
 20
987.126994303139
 30
0.0
 11
1915.431952932581
 21
987.126994303139
 31
0.0
  0
LINE
  5
29E
330
29B
100
AcDbEntity
  8
1
  6
Continuous
 62
     2
100
AcDbLine
 10
1931.181952932581
 20
987.126994303139
 30
0.0
 11
1915.431952932581
 21
987.126994303139
 31
0.0
  0
LINE
  5
29F
330
29B
100
AcDbEntity
  8
1
  6
Continuous
 62
     2
100
AcDbLine
 10
1915.431952932581
 20
960.219741755956
 30
0.0
 11
1915.431952932581
 21
991.626994303139
 31
0.0
  0
LINE
  5
2A0
330
29B
100
AcDbEntity
  8
1
  6
Continuous
 62
     2
100
AcDbLine
 10
1897.431952932581
 20
960.219741755956
 30
0.0
 11
1897.431952932581
 21
991.626994303139
 31
0.0
  0
SOLID
  5
2A1
330
29B
100
AcDbEntity
  8
1
 62
     2
100
AcDbTrace
 10
1889.556952932581
 20
986.0902308846382
 30
0.0
 11
1889.556952932581
 21
988.1637577216397
 31
0.0
 12
1897.431952932581
 22
987.126994303139
 32
0.0
 13
1897.431952932581
 23
987.126994303139
 33
0.0
  0
SOLID
  5
2A2
330
29B
100
AcDbEntity
  8
1
 62
     2
100
AcDbTrace
 10
1923.306952932581
 20
988.1637577216397
 30
0.0
 11
1923.306952932581
 21
986.0902308846382
 31
0.0
 12
1915.431952932581
 22
987.126994303139
 32
0.0
 13
1915.431952932581
 23
987.126994303139
 33
0.0
  0
MTEXT
  5
2A3
330
29B
100
AcDbEntity
  8
1
 62
     2
100
AcDbMText
 10
1874.80008254989
 20
991.626994303139
 30
0.0
 40
11.25
 41
0.0
 71
     7
 72
     1
  1
18
  7
CONVERTER_11
 11
0.9999999999970619
 21
2.424068405545306E-6
 31
0.0
 73
     1
 44
0.60024009603842
  0
ENDBLK
  5
2A5
330
29B
100
AcDbEntity
  8
0
100
AcDbBlockEnd
  0
BLOCK
  5
2AF
330
2A8
100
AcDbEntity
  8
0
100
AcDbBlockBegin
  2
*D6
 70
     1
 10
0.0
 20
0.0
 30
0.0
  3
*D6
  1

  0
LINE
  5
2A9
330
2A8
100
AcDbEntity
  8
1
  6
Continuous
 62
     2
100
AcDbLine
 10
1790.431952932581
 20
658.719741755957
 30
0.0
 11
2022.43195293258
 21
658.719741755957
 31
0.0
  0
LINE
  5
2AA
330
2A8
100
AcDbEntity
  8
1
  6
Continuous
 62
     2
100
AcDbLine
 10
1790.431952932581
 20
490.719741755957
 30
0.0
 11
1790.431952932581
 21
663.219741755957
 31
0.0
  0
LINE
  5
2AB
330
2A8
100
AcDbEntity
  8
1
  6
Continuous
 62
     2
100
AcDbLine
 10
2022.43195293258
 20
490.719741755957
 30
0.0
 11
2022.43195293258
 21
663.219741755957
 31
0.0
  0
SOLID
  5
2AC
330
2A8
100
AcDbEntity
  8
1
 62
     2
100
AcDbTrace
 10
1798.306952932581
 20
659.7565051744577
 30
0.0
 11
1798.306952932581
 21
657.6829783374562
 31
0.0
 12
1790.431952932581
 22
658.719741755957
 32
0.0
 13
1790.431952932581
 23
658.719741755957
 33
0.0
  0
SOLID
  5
2AD
330
2A8
100
AcDbEntity
  8
1
 62
     2
100
AcDbTrace
 10
2014.55695293258
 20
657.6829783374562
 30
0.0
 11
2014.55695293258
 21
659.7565051744577
 31
0.0
 12
2022.43195293258
 22
658.719741755957
 32
0.0
 13
2022.43195293258
 23
658.719741755957
 33
0.0
  0
MTEXT
  5
2AE
330
2A8
100
AcDbEntity
  8
1
 62
     2
100
AcDbMText
 10
1880.669452932634
 20
663.219697031895
 30
0.0
 40
11.25
 41
0.0
 71
     7
 72
     1
  1
\C2;\U+00f8\C2;232
  7
CONVERTER_11
 11
0.9999999999970619
 21
2.424068405545306E-6
 31
0.0
 73
     1
 44
0.60024009603842
  0
ENDBLK
  5
2B0
330
2A8
100
AcDbEntity
  8
0
100
AcDbBlockEnd
  0
BLOCK
  5
2BB
330
2B3
100
AcDbEntity
  8
0
100
AcDbBlockBegin
  2
*D7
 70
     1
 10
0.0
 20
0.0
 30
0.0
  3
*D7
  1

  0
LINE
  5
2B4
330
2B3
100
AcDbEntity
  8
1
  6
Continuous
 62
     2
100
AcDbLine
 10
1732.431952932582
 20
238.7197417559572
 30
0.0
 11
1732.431952932582
 21
254.4697417559572
 31
0.0
  0
LINE
  5
2B5
330
2B3
100
AcDbEntity
  8
1
  6
Continuous
 62
     2
100
AcDbLine
 10
1732.431952932582
 20
220.7197417559572
 30
0.0
 11
1732.431952932582
 21
238.7197417559572
 31
0.0
  0
LINE
  5
2B6
330
2B3
100
AcDbEntity
  8
1
  6
Continuous
 62
     2
100
AcDbLine
 10
1781.431952932581
 20
238.7197417559572
 30
0.0
 11
1727.931952932582
 21
238.7197417559572
 31
0.0
  0
LINE
  5
2B7
330
2B3
100
AcDbEntity
  8
1
  6
Continuous
 62
     2
100
AcDbLine
 10
1781.431952932581
 20
220.7197417559572
 30
0.0
 11
1727.931952932582
 21
220.7197417559572
 31
0.0
  0
SOLID
  5
2B8
330
2B3
100
AcDbEntity
  8
1
 62
     2
100
AcDbTrace
 10
1731.395189514081
 20
246.5947417559572
 30
0.0
 11
1733.468716351083
 21
246.5947417559572
 31
0.0
 12
1732.431952932582
 22
238.7197417559572
 32
0.0
 13
1732.431952932582
 23
238.7197417559572
 33
0.0
  0
LINE
  5
2B9
330
2B3
100
AcDbEntity
  8
1
 62
     2
100
AcDbLine
 10
1735.216185883504
 20
217.9355088050352
 30
0.0
 11
1729.64771998166
 21
223.5039747068792
 31
0.0
  0
MTEXT
  5
2BA
330
2B3
100
AcDbEntity
  8
1
 62
     2
100
AcDbMText
 10
1727.931952932582
 20
223.200005280915
 30
0.0
 40
11.25
 41
0.0
 71
     7
 72
     1
  1
18
  7
CONVERTER_11
 11
0.0
 21
1.0
 31
0.0
 73
     1
 44
0.60024009603842
  0
ENDBLK
  5
2BC
330
2B3
100
AcDbEntity
  8
0
100
AcDbBlockEnd
  0
BLOCK
  5
2C8
330
2BF
100
AcDbEntity
  8
0
100
AcDbBlockBegin
  2
*D8
 70
     1
 10
0.0
 20
0.0
 30
0.0
  3
*D8
  1

  0
LINE
  5
2C0
330
2BF
100
AcDbEntity
  8
1
  6
Continuous
 62
     2
100
AcDbLine
 10
1637.931952932582
 20
220.7197417559572
 30
0.0
 11
1637.931952932582
 21
385.7197417559572
 31
0.0
  0
LINE
  5
2C1
330
2BF
100
AcDbEntity
  8
1
  6
Continuous
 62
     2
100
AcDbLine
 10
1781.431952932581
 20
220.7197417559572
 30
0.0
 11
1633.431952932582
 21
220.7197417559572
 31
0.0
  0
LINE
  5
2C2
330
2BF
100
AcDbEntity
  8
1
  6
Continuous
 62
     2
100
AcDbLine
 10
1649.05943670706
 20
385.7197417559572
 30
0.0
 11
1633.431952932582
 21
385.7197417559572
 31
0.0
  0
LINE
  5
2C3
330
2BF
100
AcDbEntity
  8
1
  6
Continuous
 62
     2
100
AcDbLine
 10
1680.32665330861
 20
385.7197417559572
 30
0.0
 11
1673.931952932582
 21
385.7197417559572
 31
0.0
  0
LINE
  5
2C4
330
2BF
100
AcDbEntity
  8
1
  6
Continuous
 62
     2
100
AcDbLine
 10
1759.441627605347
 20
385.7197417559572
 30
0.0
 11
1705.431952932582
 21
385.7197417559572
 31
0.0
  0
SOLID
  5
2C5
330
2BF
100
AcDbEntity
  8
1
 62
     2
100
AcDbTrace
 10
1638.968716351083
 20
377.8447417559572
 30
0.0
 11
1636.895189514081
 21
377.8447417559572
 31
0.0
 12
1637.931952932582
 22
385.7197417559572
 32
0.0
 13
1637.931952932582
 23
385.7197417559572
 33
0.0
  0
SOLID
  5
2C6
330
2BF
100
AcDbEntity
  8
1
 62
     2
100
AcDbTrace
 10
1636.895189514081
 20
228.5947417559572
 30
0.0
 11
1638.968716351083
 21
228.5947417559572
 31
0.0
 12
1637.931952932582
 22
220.7197417559572
 32
0.0
 13
1637.931952932582
 23
220.7197417559572
 33
0.0
  0
MTEXT
  5
2C7
330
2BF
100
AcDbEntity
  8
1
 62
     2
100
AcDbMText
 10
1633.431952932582
 20
291.9274387493219
 30
0.0
 40
11.25
 41
0.0
 71
     7
 72
     1
  1
165
  7
CONVERTER_11
 11
0.0
 21
1.0
 31
0.0
 73
     1
 44
0.60024009603842
  0
ENDBLK
  5
2C9
330
2BF
100
AcDbEntity
  8
0
100
AcDbBlockEnd
  0
BLOCK
  5
2D6
330
2CC
100
AcDbEntity
  8
0
100
AcDbBlockBegin
  2
*D9
 70
     1
 10
0.0
 20
0.0
 30
0.0
  3
*D9
  1

  0
LINE
  5
2CD
330
2CC
100
AcDbEntity
  8
1
  6
Continuous
 62
     2
100
AcDbLine
 10
1637.931952932581
 20
385.7197417559572
 30
0.0
 11
1637.931952932581
 21
490.719741755957
 31
0.0
  0
LINE
  5
2CE
330
2CC
100
AcDbEntity
  8
1
  6
Continuous
 62
     2
100
AcDbLine
 10
1649.67251938553
 20
385.7197417559572
 30
0.0
 11
1633.431952932581
 21
385.7197417559572
 31
0.0
  0
LINE
  5
2CF
330
2CC
100
AcDbEntity
  8
1
  6
Continuous
 62
     2
100
AcDbLine
 10
1681.55281866553
 20
385.7197417559572
 30
0.0
 11
1673.931952932582
 21
385.7197417559572
 31
0.0
  0
LINE
  5
2D0
330
2CC
100
AcDbEntity
  8
1
  6
Continuous
 62
     2
100
AcDbLine
 10
1759.441627605347
 20
385.7197417559572
 30
0.0
 11
1705.431952932582
 21
385.7197417559572
 31
0.0
  0
LINE
  5
2D1
330
2CC
100
AcDbEntity
  8
1
  6
Continuous
 62
     2
100
AcDbLine
 10
1696.431952932582
 20
490.719741755957
 30
0.0
 11
1633.431952932581
 21
490.719741755957
 31
0.0
  0
LINE
  5
2D2
330
2CC
100
AcDbEntity
  8
1
  6
Continuous
 62
     2
100
AcDbLine
 10
1790.431952932581
 20
490.719741755957
 30
0.0
 11
1705.431952932582
 21
490.719741755957
 31
0.0
  0
SOLID
  5
2D3
330
2CC
100
AcDbEntity
  8
1
 62
     2
100
AcDbTrace
 10
1638.968716351082
 20
482.844741755957
 30
0.0
 11
1636.89518951408
 21
482.844741755957
 31
0.0
 12
1637.931952932581
 22
490.719741755957
 32
0.0
 13
1637.931952932581
 23
490.719741755957
 33
0.0
  0
SOLID
  5
2D4
330
2CC
100
AcDbEntity
  8
1
 62
     2
100
AcDbTrace
 10
1636.89518951408
 20
393.5947417559572
 30
0.0
 11
1638.968716351082
 21
393.5947417559572
 31
0.0
 12
1637.931952932581
 22
385.7197417559572
 32
0.0
 13
1637.931952932581
 23
385.7197417559572
 33
0.0
  0
MTEXT
  5
2D5
330
2CC
100
AcDbEntity
  8
1
 62
     2
100
AcDbMText
 10
1633.431952932581
 20
430.0440729101759
 30
0.0
 40
11.25
 41
0.0
 71
     7
 72
     1
  1
105
  7
CONVERTER_11
 11
0.0
 21
1.0
 31
0.0
 73
     1
 44
0.60024009603842
  0
ENDBLK
  5
2D7
330
2CC
100
AcDbEntity
  8
0
100
AcDbBlockEnd
  0
BLOCK
  5
2E3
330
2DA
100
AcDbEntity
  8
0
100
AcDbBlockBegin
  2
*D10
 70
     1
 10
0.0
 20
0.0
 30
0.0
  3
*D10
  1

  0
LINE
  5
2DB
330
2DA
100
AcDbEntity
  8
1
  6
Continuous
 62
     2
100
AcDbLine
 10
1824.181952932581
 20
784.719741755957
 30
0.0
 11
1808.431952932581
 21
784.719741755957
 31
0.0
  0
LINE
  5
2DC
330
2DA
100
AcDbEntity
  8
1
  6
Continuous
 62
     2
100
AcDbLine
 10
1794.431952932581
 20
784.719741755957
 30
0.0
 11
1808.431952932581
 21
784.719741755957
 31
0.0
  0
LINE
  5
2DD
330
2DA
100
AcDbEntity
  8
1
  6
Continuous
 62
     2
100
AcDbLine
 10
1794.431952932581
 20
784.719741755957
 30
0.0
 11
1772.783307821171
 21
784.719741755957
 31
0.0
  0
LINE
  5
2DE
330
2DA
100
AcDbEntity
  8
1
  6
Continuous
 62
     2
100
AcDbLine
 10
1794.431952932581
 20
816.219741755957
 30
0.0
 11
1794.431952932581
 21
780.219741755957
 31
0.0
  0
LINE
  5
2DF
330
2DA
100
AcDbEntity
  8
1
  6
Continuous
 62
     2
100
AcDbLine
 10
1808.431952932581
 20
816.219741755957
 30
0.0
 11
1808.431952932581
 21
780.219741755957
 31
0.0
  0
SOLID
  5
2E0
330
2DA
100
AcDbEntity
  8
1
 62
     2
100
AcDbTrace
 10
1786.556952932581
 20
783.6829783374562
 30
0.0
 11
1786.556952932581
 21
785.7565051744577
 31
0.0
 12
1794.431952932581
 22
784.719741755957
 32
0.0
 13
1794.431952932581
 23
784.719741755957
 33
0.0
  0
SOLID
  5
2E1
330
2DA
100
AcDbEntity
  8
1
 62
     2
100
AcDbTrace
 10
1816.306952932581
 20
785.7565051744577
 30
0.0
 11
1816.306952932581
 21
783.6829783374562
 31
0.0
 12
1808.431952932581
 22
784.719741755957
 32
0.0
 13
1808.431952932581
 23
784.719741755957
 33
0.0
  0
MTEXT
  5
2E2
330
2DA
100
AcDbEntity
  8
1
 62
     2
100
AcDbMText
 10
1772.783307821171
 20
789.219741755957
 30
0.0
 40
11.25
 41
0.0
 71
     7
 72
     1
  1
14
  7
CONVERTER_11
 11
0.9999999999970619
 21
2.424068405545306E-6
 31
0.0
 73
     1
 44
0.60024009603842
  0
ENDBLK
  5
2E4
330
2DA
100
AcDbEntity
  8
0
100
AcDbBlockEnd
  0
BLOCK
  5
2F0
330
2E7
100
AcDbEntity
  8
0
100
AcDbBlockBegin
  2
*D11
 70
     1
 10
0.0
 20
0.0
 30
0.0
  3
*D11
  1

  0
LINE
  5
2E8
330
2E7
100
AcDbEntity
  8
1
  6
Continuous
 62
     2
100
AcDbLine
 10
1732.431952932582
 20
1040.969741755956
 30
0.0
 11
1732.431952932582
 21
1056.719741755956
 31
0.0
  0
LINE
  5
2E9
330
2E7
100
AcDbEntity
  8
1
  6
Continuous
 62
     2
100
AcDbLine
 10
1732.431952932582
 20
1056.719741755956
 30
0.0
 11
1732.431952932582
 21
1070.719741755956
 31
0.0
  0
LINE
  5
2EA
330
2E7
100
AcDbEntity
  8
1
  6
Continuous
 62
     2
100
AcDbLine
 10
1732.431952932582
 20
1070.719741755956
 30
0.0
 11
1732.431952932582
 21
1091.759068414702
 31
0.0
  0
LINE
  5
2EB
330
2E7
100
AcDbEntity
  8
1
  6
Continuous
 62
     2
100
AcDbLine
 10
1763.931952932582
 20
1056.719741755956
 30
0.0
 11
1727.931952932582
 21
1056.719741755956
 31
0.0
  0
LINE
  5
2EC
330
2E7
100
AcDbEntity
  8
1
  6
Continuous
 62
     2
100
AcDbLine
 10
1763.931952932582
 20
1070.719741755956
 30
0.0
 11
1727.931952932582
 21
1070.719741755956
 31
0.0
  0
SOLID
  5
2ED
330
2E7
100
AcDbEntity
  8
1
 62
     2
100
AcDbTrace
 10
1731.395189514081
 20
1078.594741755956
 30
0.0
 11
1733.468716351083
 21
1078.594741755956
 31
0.0
 12
1732.431952932582
 22
1070.719741755956
 32
0.0
 13
1732.431952932582
 23
1070.719741755956
 33
0.0
  0
SOLID
  5
2EE
330
2E7
100
AcDbEntity
  8
1
 62
     2
100
AcDbTrace
 10
1733.468716351083
 20
1048.844741755956
 30
0.0
 11
1731.395189514081
 21
1048.844741755956
 31
0.0
 12
1732.431952932582
 22
1056.719741755956
 32
0.0
 13
1732.431952932582
 23
1056.719741755956
 33
0.0
  0
MTEXT
  5
2EF
330
2E7
100
AcDbEntity
  8
1
 62
     2
100
AcDbMText
 10
1727.931952932582
 20
1078.259068414702
 30
0.0
 40
11.25
 41
0.0
 71
     7
 72
     1
  1
14
  7
CONVERTER_11
 11
0.0
 21
1.0
 31
0.0
 73
     1
 44
0.60024009603842
  0
ENDBLK
  5
2F1
330
2E7
100
AcDbEntity
  8
0
100
AcDbBlockEnd
  0
BLOCK
  5
2FD
330
2F4
100
AcDbEntity
  8
0
100
AcDbBlockBegin
  2
*D12
 70
     1
 10
0.0
 20
0.0
 30
0.0
  3
*D12
  1

  0
LINE
  5
2F5
330
2F4
100
AcDbEntity
  8
1
  6
Continuous
 62
     2
100
AcDbLine
 10
1574.931952932582
 20
495.719741755957
 30
0.0
 11
1574.931952932582
 21
595.719741755957
 31
0.0
  0
LINE
  5
2F6
330
2F4
100
AcDbEntity
  8
1
  6
Continuous
 62
     2
100
AcDbLine
 10
1601.931952932582
 20
495.719741755957
 30
0.0
 11
1570.431952932582
 21
495.719741755957
 31
0.0
  0
LINE
  5
2F7
330
2F4
100
AcDbEntity
  8
1
  6
Continuous
 62
     2
100
AcDbLine
 10
1696.431952932582
 20
495.719741755957
 30
0.0
 11
1610.931952932582
 21
495.719741755957
 31
0.0
  0
LINE
  5
2F8
330
2F4
100
AcDbEntity
  8
1
  6
Continuous
 62
     2
100
AcDbLine
 10
1866.431952932581
 20
495.719741755957
 30
0.0
 11
1705.431952932582
 21
495.719741755957
 31
0.0
  0
LINE
  5
2F9
330
2F4
100
AcDbEntity
  8
1
  6
Continuous
 62
     2
100
AcDbLine
 10
1878.431952932581
 20
595.719741755957
 30
0.0
 11
1570.431952932582
 21
595.719741755957
 31
0.0
  0
SOLID
  5
2FA
330
2F4
100
AcDbEntity
  8
1
 62
     2
100
AcDbTrace
 10
1575.968716351083
 20
587.844741755957
 30
0.0
 11
1573.895189514081
 21
587.844741755957
 31
0.0
 12
1574.931952932582
 22
595.719741755957
 32
0.0
 13
1574.931952932582
 23
595.719741755957
 33
0.0
  0
SOLID
  5
2FB
330
2F4
100
AcDbEntity
  8
1
 62
     2
100
AcDbTrace
 10
1573.895189514081
 20
503.594741755957
 30
0.0
 11
1575.968716351083
 21
503.594741755957
 31
0.0
 12
1574.931952932582
 22
495.719741755957
 32
0.0
 13
1574.931952932582
 23
495.719741755957
 33
0.0
  0
MTEXT
  5
2FC
330
2F4
100
AcDbEntity
  8
1
 62
     2
100
AcDbMText
 10
1570.431952932582
 20
538.7910779678599
 30
0.0
 40
11.25
 41
0.0
 71
     7
 72
     1
  1
100
  7
CONVERTER_11
 11
0.0
 21
1.0
 31
0.0
 73
     1
 44
0.60024009603842
  0
ENDBLK
  5
2FE
330
2F4
100
AcDbEntity
  8
0
100
AcDbBlockEnd
  0
BLOCK
  5
308
330
301
100
AcDbEntity
  8
0
100
AcDbBlockBegin
  2
*D13
 70
     1
 10
0.0
 20
0.0
 30
0.0
  3
*D13
  1

  0
LINE
  5
302
330
301
100
AcDbEntity
  8
1
  6
Continuous
 62
     2
100
AcDbLine
 10
1763.931952932582
 20
690.219741755957
 30
0.0
 11
2048.931952932581
 21
690.219741755957
 31
0.0
  0
LINE
  5
303
330
301
100
AcDbEntity
  8
1
  6
Continuous
 62
     2
100
AcDbLine
 10
1763.931952932582
 20
831.219741755957
 30
0.0
 11
1763.931952932582
 21
685.719741755957
 31
0.0
  0
LINE
  5
304
330
301
100
AcDbEntity
  8
1
  6
Continuous
 62
     2
100
AcDbLine
 10
2048.931952932581
 20
831.219741755957
 30
0.0
 11
2048.931952932581
 21
685.719741755957
 31
0.0
  0
SOLID
  5
305
330
301
100
AcDbEntity
  8
1
 62
     2
100
AcDbTrace
 10
2041.056952932581
 20
689.1829783374562
 30
0.0
 11
2041.056952932581
 21
691.2565051744577
 31
0.0
 12
2048.931952932581
 22
690.219741755957
 32
0.0
 13
2048.931952932581
 23
690.219741755957
 33
0.0
  0
SOLID
  5
306
330
301
100
AcDbEntity
  8
1
 62
     2
100
AcDbTrace
 10
1771.806952932582
 20
691.2565051744577
 30
0.0
 11
1771.806952932582
 21
689.1829783374562
 31
0.0
 12
1763.931952932582
 22
690.219741755957
 32
0.0
 13
1763.931952932582
 23
690.219741755957
 33
0.0
  0
MTEXT
  5
307
330
301
100
AcDbEntity
  8
1
 62
     2
100
AcDbMText
 10
1892.931952932581
 20
694.719741755957
 30
0.0
 40
11.25
 41
0.0
 71
     7
 72
     1
  1
285
  7
CONVERTER_11
 11
0.9999999999970619
 21
2.424068405545306E-6
 31
0.0
 73
     1
 44
0.60024009603842
  0
ENDBLK
  5
309
330
301
100
AcDbEntity
  8
0
100
AcDbBlockEnd
  0
BLOCK
  5
314
330
30C
100
AcDbEntity
  8
0
100
AcDbBlockBegin
  2
*D14
 70
     1
 10
0.0
 20
0.0
 30
0.0
  3
*D14
  1

  0
LINE
  5
30D
330
30C
100
AcDbEntity
  8
1
  6
Continuous
 62
     2
100
AcDbLine
 10
1983.931952932581
 20
721.719741755957
 30
0.0
 11
2048.931952932581
 21
721.719741755957
 31
0.0
  0
LINE
  5
30E
330
30C
100
AcDbEntity
  8
1
  6
Continuous
 62
     2
100
AcDbLine
 10
1983.931952932581
 20
748.719741755957
 30
0.0
 11
1983.931952932581
 21
717.219741755957
 31
0.0
  0
LINE
  5
30F
330
30C
100
AcDbEntity
  8
1
  6
Continuous
 62
     2
100
AcDbLine
 10
1983.931952932581
 20
816.219741755957
 30
0.0
 11
1983.931952932581
 21
757.719741755957
 31
0.0
  0
LINE
  5
310
330
30C
100
AcDbEntity
  8
1
  6
Continuous
 62
     2
100
AcDbLine
 10
2048.931952932581
 20
831.219741755957
 30
0.0
 11
2048.931952932581
 21
717.219741755957
 31
0.0
  0
SOLID
  5
311
330
30C
100
AcDbEntity
  8
1
 62
     2
100
AcDbTrace
 10
1991.806952932581
 20
722.7565051744577
 30
0.0
 11
1991.806952932581
 21
720.6829783374562
 31
0.0
 12
1983.931952932581
 22
721.719741755957
 32
0.0
 13
1983.931952932581
 23
721.719741755957
 33
0.0
  0
SOLID
  5
312
330
30C
100
AcDbEntity
  8
1
 62
     2
100
AcDbTrace
 10
2041.056952932581
 20
720.6829783374562
 30
0.0
 11
2041.056952932581
 21
722.7565051744577
 31
0.0
 12
2048.931952932581
 22
721.719741755957
 32
0.0
 13
2048.931952932581
 23
721.719741755957
 33
0.0
  0
MTEXT
  5
313
330
30C
100
AcDbEntity
  8
1
 62
     2
100
AcDbMText
 10
2008.346824242162
 20
726.219741755957
 30
0.0
 40
11.25
 41
0.0
 71
     7
 72
     1
  1
65
  7
CONVERTER_11
 11
0.9999999999970619
 21
2.424068405545306E-6
 31
0.0
 73
     1
 44
0.60024009603842
  0
ENDBLK
  5
315
330
30C
100
AcDbEntity
  8
0
100
AcDbBlockEnd
  0
BLOCK
  5
321
330
318
100
AcDbEntity
  8
0
100
AcDbBlockBegin
  2
*D15
 70
     1
 10
0.0
 20
0.0
 30
0.0
  3
*D15
  1

  0
LINE
  5
319
330
318
100
AcDbEntity
  8
1
  6
Continuous
 62
     2
100
AcDbLine
 10
1828.931952932581
 20
721.719741755957
 30
0.0
 11
1983.931952932581
 21
721.719741755957
 31
0.0
  0
LINE
  5
31A
330
318
100
AcDbEntity
  8
1
  6
Continuous
 62
     2
100
AcDbLine
 10
1828.931952932581
 20
748.719741755957
 30
0.0
 11
1828.931952932581
 21
717.219741755957
 31
0.0
  0
LINE
  5
31B
330
318
100
AcDbEntity
  8
1
  6
Continuous
 62
     2
100
AcDbLine
 10
1828.931952932581
 20
816.219741755957
 30
0.0
 11
1828.931952932581
 21
757.719741755957
 31
0.0
  0
LINE
  5
31C
330
318
100
AcDbEntity
  8
1
  6
Continuous
 62
     2
100
AcDbLine
 10
1983.931952932581
 20
748.719741755957
 30
0.0
 11
1983.931952932581
 21
717.219741755957
 31
0.0
  0
LINE
  5
31D
330
318
100
AcDbEntity
  8
1
  6
Continuous
 62
     2
100
AcDbLine
 10
1983.931952932581
 20
816.219741755957
 30
0.0
 11
1983.931952932581
 21
757.719741755957
 31
0.0
  0
SOLID
  5
31E
330
318
100
AcDbEntity
  8
1
 62
     2
100
AcDbTrace
 10
1836.806952932581
 20
722.7565051744577
 30
0.0
 11
1836.806952932581
 21
720.6829783374562
 31
0.0
 12
1828.931952932581
 22
721.719741755957
 32
0.0
 13
1828.931952932581
 23
721.719741755957
 33
0.0
  0
SOLID
  5
31F
330
318
100
AcDbEntity
  8
1
 62
     2
100
AcDbTrace
 10
1976.056952932581
 20
720.6829783374562
 30
0.0
 11
1976.056952932581
 21
722.7565051744577
 31
0.0
 12
1983.931952932581
 22
721.719741755957
 32
0.0
 13
1983.931952932581
 23
721.719741755957
 33
0.0
  0
MTEXT
  5
320
330
318
100
AcDbEntity
  8
1
 62
     2
100
AcDbMText
 10
1894.619452932581
 20
726.219741755957
 30
0.0
 40
11.25
 41
0.0
 71
     7
 72
     1
  1
155
  7
CONVERTER_11
 11
0.9999999999970619
 21
2.424068405545306E-6
 31
0.0
 73
     1
 44
0.60024009603842
  0
ENDBLK
  5
322
330
318
100
AcDbEntity
  8
0
100
AcDbBlockEnd
  0
BLOCK
  5
32D
330
325
100
AcDbEntity
  8
0
100
AcDbBlockBegin
  2
*D16
 70
     1
 10
0.0
 20
0.0
 30
0.0
  3
*D16
  1

  0
LINE
  5
326
330
325
100
AcDbEntity
  8
1
  6
Continuous
 62
     2
100
AcDbLine
 10
1763.931952932582
 20
721.719741755957
 30
0.0
 11
1828.931952932581
 21
721.719741755957
 31
0.0
  0
LINE
  5
327
330
325
100
AcDbEntity
  8
1
  6
Continuous
 62
     2
100
AcDbLine
 10
1763.931952932582
 20
831.219741755957
 30
0.0
 11
1763.931952932582
 21
717.219741755957
 31
0.0
  0
LINE
  5
328
330
325
100
AcDbEntity
  8
1
  6
Continuous
 62
     2
100
AcDbLine
 10
1828.931952932581
 20
748.719741755957
 30
0.0
 11
1828.931952932581
 21
717.219741755957
 31
0.0
  0
LINE
  5
329
330
325
100
AcDbEntity
  8
1
  6
Continuous
 62
     2
100
AcDbLine
 10
1828.931952932581
 20
816.219741755957
 30
0.0
 11
1828.931952932581
 21
757.719741755957
 31
0.0
  0
SOLID
  5
32A
330
325
100
AcDbEntity
  8
1
 62
     2
100
AcDbTrace
 10
1771.806952932582
 20
722.7565051744577
 30
0.0
 11
1771.806952932582
 21
720.6829783374562
 31
0.0
 12
1763.931952932582
 22
721.719741755957
 32
0.0
 13
1763.931952932582
 23
721.719741755957
 33
0.0
  0
SOLID
  5
32B
330
325
100
AcDbEntity
  8
1
 62
     2
100
AcDbTrace
 10
1821.056952932581
 20
720.6829783374562
 30
0.0
 11
1821.056952932581
 21
722.7565051744577
 31
0.0
 12
1828.931952932581
 22
721.719741755957
 32
0.0
 13
1828.931952932581
 23
721.719741755957
 33
0.0
  0
MTEXT
  5
32C
330
325
100
AcDbEntity
  8
1
 62
     2
100
AcDbMText
 10
1787.552525723201
 20
726.219741755957
 30
0.0
 40
11.25
 41
0.0
 71
     7
 72
     1
  1
65
  7
CONVERTER_11
 11
0.9999999999970619
 21
2.424068405545306E-6
 31
0.0
 73
     1
 44
0.60024009603842
  0
ENDBLK
  5
32E
330
325
100
AcDbEntity
  8
0
100
AcDbBlockEnd
  0
BLOCK
  5
338
330
331
100
AcDbEntity
  8
0
100
AcDbBlockBegin
  2
*D17
 70
     1
 10
0.0
 20
0.0
 30
0.0
  3
*D17
  1

  0
LINE
  5
332
330
331
100
AcDbEntity
  8
1
  6
Continuous
 62
     2
100
AcDbLine
 10
1906.431952932581
 20
1218.219741755956
 30
0.0
 11
2048.931952932581
 21
1218.219741755956
 31
0.0
  0
LINE
  5
333
330
331
100
AcDbEntity
  8
1
  6
Continuous
 62
     2
100
AcDbLine
 10
1906.431952932581
 20
1104.309912307594
 30
0.0
 11
1906.431952932581
 21
1222.719741755956
 31
0.0
  0
LINE
  5
334
330
331
100
AcDbEntity
  8
1
  6
Continuous
 62
     2
100
AcDbLine
 10
2048.931952932581
 20
1086.219741755956
 30
0.0
 11
2048.931952932581
 21
1222.719741755956
 31
0.0
  0
SOLID
  5
335
330
331
100
AcDbEntity
  8
1
 62
     2
100
AcDbTrace
 10
2041.056952932581
 20
1217.182978337455
 30
0.0
 11
2041.056952932581
 21
1219.256505174457
 31
0.0
 12
2048.931952932581
 22
1218.219741755956
 32
0.0
 13
2048.931952932581
 23
1218.219741755956
 33
0.0
  0
SOLID
  5
336
330
331
100
AcDbEntity
  8
1
 62
     2
100
AcDbTrace
 10
1914.306952932581
 20
1219.256505174457
 30
0.0
 11
1914.306952932581
 21
1217.182978337455
 31
0.0
 12
1906.431952932581
 22
1218.219741755956
 32
0.0
 13
1906.431952932581
 23
1218.219741755956
 33
0.0
  0
MTEXT
  5
337
330
331
100
AcDbEntity
  8
1
 62
     2
100
AcDbMText
 10
1958.257522528292
 20
1223.844741755956
 30
0.0
 40
11.25
 41
0.0
 71
     7
 72
     1
  1
142,5
  7
CONVERTER_11
 11
0.9999999999970619
 21
2.424068405545306E-6
 31
0.0
 73
     1
 44
0.60024009603842
  0
ENDBLK
  5
339
330
331
100
AcDbEntity
  8
0
100
AcDbBlockEnd
  0
BLOCK
  5
345
330
33C
100
AcDbEntity
  8
0
100
AcDbBlockBegin
  2
*D18
 70
     1
 10
0.0
 20
0.0
 30
0.0
  3
*D18
  1

  0
LINE
  5
33D
330
33C
100
AcDbEntity
  8
1
  6
Continuous
 62
     2
100
AcDbLine
 10
1574.931952932582
 20
110.7197417559569
 30
0.0
 11
1574.931952932582
 21
210.7197417559572
 31
0.0
  0
LINE
  5
33E
330
33C
100
AcDbEntity
  8
1
  6
Continuous
 62
     2
100
AcDbLine
 10
1878.431952932581
 20
110.7197417559569
 30
0.0
 11
1570.431952932582
 21
110.7197417559569
 31
0.0
  0
LINE
  5
33F
330
33C
100
AcDbEntity
  8
1
  6
Continuous
 62
     2
100
AcDbLine
 10
1601.931952932582
 20
210.7197417559572
 30
0.0
 11
1570.431952932582
 21
210.7197417559572
 31
0.0
  0
LINE
  5
340
330
33C
100
AcDbEntity
  8
1
  6
Continuous
 62
     2
100
AcDbLine
 10
1727.931952932582
 20
210.7197417559572
 30
0.0
 11
1610.931952932582
 21
210.7197417559572
 31
0.0
  0
LINE
  5
341
330
33C
100
AcDbEntity
  8
1
  6
Continuous
 62
     2
100
AcDbLine
 10
1866.431952932581
 20
210.7197417559572
 30
0.0
 11
1736.931952932582
 21
210.7197417559572
 31
0.0
  0
SOLID
  5
342
330
33C
100
AcDbEntity
  8
1
 62
     2
100
AcDbTrace
 10
1573.895189514081
 20
118.5947417559569
 30
0.0
 11
1575.968716351083
 21
118.5947417559569
 31
0.0
 12
1574.931952932582
 22
110.7197417559569
 32
0.0
 13
1574.931952932582
 23
110.7197417559569
 33
0.0
  0
SOLID
  5
343
330
33C
100
AcDbEntity
  8
1
 62
     2
100
AcDbTrace
 10
1575.968716351083
 20
202.8447417559572
 30
0.0
 11
1573.895189514081
 21
202.8447417559572
 31
0.0
 12
1574.931952932582
 22
210.7197417559572
 32
0.0
 13
1574.931952932582
 23
210.7197417559572
 33
0.0
  0
MTEXT
  5
344
330
33C
100
AcDbEntity
  8
1
 62
     2
100
AcDbMText
 10
1570.431952932582
 20
157.7091917816653
 30
0.0
 40
11.25
 41
0.0
 71
     7
 72
     1
  1
100
  7
CONVERTER_11
 11
0.0
 21
1.0
 31
0.0
 73
     1
 44
0.60024009603842
  0
ENDBLK
  5
346
330
33C
100
AcDbEntity
  8
0
100
AcDbBlockEnd
  0
BLOCK
  5
350
330
349
100
AcDbEntity
  8
0
100
AcDbBlockBegin
  2
*D19
 70
     1
 10
0.0
 20
0.0
 30
0.0
  3
*D19
  1

  0
LINE
  5
34A
330
349
100
AcDbEntity
  8
1
  6
Continuous
 62
     2
100
AcDbLine
 10
1543.431952932582
 20
110.7197417559569
 30
0.0
 11
1543.431952932582
 21
595.719741755957
 31
0.0
  0
LINE
  5
34B
330
349
100
AcDbEntity
  8
1
  6
Continuous
 62
     2
100
AcDbLine
 10
1878.431952932581
 20
110.7197417559569
 30
0.0
 11
1538.931952932582
 21
110.7197417559569
 31
0.0
  0
LINE
  5
34C
330
349
100
AcDbEntity
  8
1
  6
Continuous
 62
     2
100
AcDbLine
 10
1878.431952932581
 20
595.719741755957
 30
0.0
 11
1538.931952932582
 21
595.719741755957
 31
0.0
  0
SOLID
  5
34D
330
349
100
AcDbEntity
  8
1
 62
     2
100
AcDbTrace
 10
1544.468716351083
 20
587.844741755957
 30
0.0
 11
1542.395189514081
 21
587.844741755957
 31
0.0
 12
1543.431952932582
 22
595.719741755957
 32
0.0
 13
1543.431952932582
 23
595.719741755957
 33
0.0
  0
SOLID
  5
34E
330
349
100
AcDbEntity
  8
1
 62
     2
100
AcDbTrace
 10
1542.395189514081
 20
118.5947417559569
 30
0.0
 11
1544.468716351083
 21
118.5947417559569
 31
0.0
 12
1543.431952932582
 22
110.7197417559569
 32
0.0
 13
1543.431952932582
 23
110.7197417559569
 33
0.0
  0
MTEXT
  5
34F
330
349
100
AcDbEntity
  8
1
 62
     2
100
AcDbMText
 10
1538.931952932582
 20
339.4539118411209
 30
0.0
 40
11.25
 41
0.0
 71
     7
 72
     1
  1
476
  7
CONVERTER_11
 11
0.0
 21
1.0
 31
0.0
 73
     1
 44
0.60024009603842
  0
ENDBLK
  5
351
330
349
100
AcDbEntity
  8
0
100
AcDbBlockEnd
  0
BLOCK
  5
35B
330
354
100
AcDbEntity
  8
0
100
AcDbBlockBegin
  2
*D20
 70
     1
 10
0.0
 20
0.0
 30
0.0
  3
*D20
  1

  0
LINE
  5
355
330
354
100
AcDbEntity
  8
1
  6
Continuous
 62
     2
100
AcDbLine
 10
1876.431952932581
 20
79.21974175595693
 30
0.0
 11
1936.431952932581
 21
79.21974175595693
 31
0.0
  0
LINE
  5
356
330
354
100
AcDbEntity
  8
1
  6
Continuous
 62
     2
100
AcDbLine
 10
1876.431952932581
 20
110.7197417559569
 30
0.0
 11
1876.431952932581
 21
74.71974175595693
 31
0.0
  0
LINE
  5
357
330
354
100
AcDbEntity
  8
1
  6
Continuous
 62
     2
100
AcDbLine
 10
1936.431952932581
 20
110.7197417559569
 30
0.0
 11
1936.431952932581
 21
74.71974175595693
 31
0.0
  0
SOLID
  5
358
330
354
100
AcDbEntity
  8
1
 62
     2
100
AcDbTrace
 10
1928.556952932581
 20
78.18297833745619
 30
0.0
 11
1928.556952932581
 21
80.25650517445767
 31
0.0
 12
1936.431952932581
 22
79.21974175595693
 32
0.0
 13
1936.431952932581
 23
79.21974175595693
 33
0.0
  0
SOLID
  5
359
330
354
100
AcDbEntity
  8
1
 62
     2
100
AcDbTrace
 10
1884.306952932581
 20
80.25650517445767
 30
0.0
 11
1884.306952932581
 21
78.18297833745619
 31
0.0
 12
1876.431952932581
 22
79.21974175595693
 32
0.0
 13
1876.431952932581
 23
79.21974175595693
 33
0.0
  0
MTEXT
  5
35A
330
354
100
AcDbEntity
  8
1
 62
     2
100
AcDbMText
 10
1872.231952932635
 20
87.09469703189485
 30
0.0
 40
11.25
 41
0.0
 71
     7
 72
     1
  1
\C2;\U+00f8\C2;60\C2;-j5
  7
CONVERTER_11
 11
0.9999999999970619
 21
2.424068405545306E-6
 31
0.0
 73
     1
 44
0.60024009603842
  0
ENDBLK
  5
35C
330
354
100
AcDbEntity
  8
0
100
AcDbBlockEnd
  0
BLOCK
  5
366
330
35F
100
AcDbEntity
  8
0
100
AcDbBlockBegin
  2
*D21
 70
     1
 10
0.0
 20
0.0
 30
0.0
  3
*D21
  1

  0
LINE
  5
360
330
35F
100
AcDbEntity
  8
1
  6
Continuous
 62
     2
100
AcDbLine
 10
1876.431952932581
 20
627.219741755957
 30
0.0
 11
1936.431952932581
 21
627.219741755957
 31
0.0
  0
LINE
  5
361
330
35F
100
AcDbEntity
  8
1
  6
Continuous
 62
     2
100
AcDbLine
 10
1876.431952932581
 20
595.719741755957
 30
0.0
 11
1876.431952932581
 21
631.719741755957
 31
0.0
  0
LINE
  5
362
330
35F
100
AcDbEntity
  8
1
  6
Continuous
 62
     2
100
AcDbLine
 10
1936.431952932581
 20
595.719741755957
 30
0.0
 11
1936.431952932581
 21
631.719741755957
 31
0.0
  0
SOLID
  5
363
330
35F
100
AcDbEntity
  8
1
 62
     2
100
AcDbTrace
 10
1884.306952932581
 20
628.2565051744577
 30
0.0
 11
1884.306952932581
 21
626.1829783374562
 31
0.0
 12
1876.431952932581
 22
627.219741755957
 32
0.0
 13
1876.431952932581
 23
627.219741755957
 33
0.0
  0
SOLID
  5
364
330
35F
100
AcDbEntity
  8
1
 62
     2
100
AcDbTrace
 10
1928.556952932581
 20
626.1829783374562
 30
0.0
 11
1928.556952932581
 21
628.2565051744577
 31
0.0
 12
1936.431952932581
 22
627.219741755957
 32
0.0
 13
1936.431952932581
 23
627.219741755957
 33
0.0
  0
MTEXT
  5
365
330
35F
100
AcDbEntity
  8
1
 62
     2
100
AcDbMText
 10
1872.231952932635
 20
635.094697031895
 30
0.0
 40
11.25
 41
0.0
 71
     7
 72
     1
  1
\C2;\U+00f8\C2;60\C2;-j5
  7
CONVERTER_11
 11
0.9999999999970619
 21
2.424068405545306E-6
 31
0.0
 73
     1
 44
0.60024009603842
  0
ENDBLK
  5
367
330
35F
100
AcDbEntity
  8
0
100
AcDbBlockEnd
  0
BLOCK
  5
371
330
36A
100
AcDbEntity
  8
0
100
AcDbBlockBegin
  2
*D22
 70
     1
 10
0.0
 20
0.0
 30
0.0
  3
*D22
  1

  0
LINE
  5
36B
330
36A
100
AcDbEntity
  8
1
  6
Continuous
 62
     2
100
AcDbLine
 10
1700.931952932581
 20
1063.719741755956
 30
0.0
 11
1700.931952932581
 21
1101.219741755956
 31
0.0
  0
LINE
  5
36C
330
36A
100
AcDbEntity
  8
1
  6
Continuous
 62
     2
100
AcDbLine
 10
1759.708795538917
 20
1063.719741755956
 30
0.0
 11
1696.431952932581
 21
1063.719741755956
 31
0.0
  0
LINE
  5
36D
330
36A
100
AcDbEntity
  8
1
  6
Continuous
 62
     2
100
AcDbLine
 10
1778.931952932581
 20
1101.219741755956
 30
0.0
 11
1696.431952932581
 21
1101.219741755956
 31
0.0
  0
SOLID
  5
36E
330
36A
100
AcDbEntity
  8
1
 62
     2
100
AcDbTrace
 10
1701.968716351082
 20
1093.344741755956
 30
0.0
 11
1699.89518951408
 21
1093.344741755956
 31
0.0
 12
1700.931952932581
 22
1101.219741755956
 32
0.0
 13
1700.931952932581
 23
1101.219741755956
 33
0.0
  0
SOLID
  5
36F
330
36A
100
AcDbEntity
  8
1
 62
     2
100
AcDbTrace
 10
1699.89518951408
 20
1071.594741755956
 30
0.0
 11
1701.968716351082
 21
1071.594741755956
 31
0.0
 12
1700.931952932581
 22
1063.719741755956
 32
0.0
 13
1700.931952932581
 23
1063.719741755956
 33
0.0
  0
MTEXT
  5
370
330
36A
100
AcDbEntity
  8
1
 62
     2
100
AcDbMText
 10
1695.306952932581
 20
1066.945949633502
 30
0.0
 40
11.25
 41
0.0
 71
     7
 72
     1
  1
37,5
  7
CONVERTER_11
 11
0.0
 21
1.0
 31
0.0
 73
     1
 44
0.60024009603842
  0
ENDBLK
  5
372
330
36A
100
AcDbEntity
  8
0
100
AcDbBlockEnd
  0
BLOCK
  5
37C
330
375
100
AcDbEntity
  8
0
100
AcDbBlockBegin
  2
*D23
 70
     1
 10
0.0
 20
0.0
 30
0.0
  3
*D23
  1

  0
LINE
  5
376
330
375
100
AcDbEntity
  8
1
  6
Continuous
 62
     2
100
AcDbLine
 10
1700.931952932582
 20
853.7197417559565
 30
0.0
 11
1700.931952932582
 21
1063.719741755956
 31
0.0
  0
LINE
  5
377
330
375
100
AcDbEntity
  8
1
  6
Continuous
 62
     2
100
AcDbLine
 10
1758.715633007268
 20
853.7197417559565
 30
0.0
 11
1696.431952932582
 21
853.7197417559565
 31
0.0
  0
LINE
  5
378
330
375
100
AcDbEntity
  8
1
  6
Continuous
 62
     2
100
AcDbLine
 10
1759.708795538917
 20
1063.719741755956
 30
0.0
 11
1696.431952932582
 21
1063.719741755956
 31
0.0
  0
SOLID
  5
379
330
375
100
AcDbEntity
  8
1
 62
     2
100
AcDbTrace
 10
1701.968716351083
 20
1055.844741755956
 30
0.0
 11
1699.895189514081
 21
1055.844741755956
 31
0.0
 12
1700.931952932582
 22
1063.719741755956
 32
0.0
 13
1700.931952932582
 23
1063.719741755956
 33
0.0
  0
SOLID
  5
37A
330
375
100
AcDbEntity
  8
1
 62
     2
100
AcDbTrace
 10
1699.895189514081
 20
861.5947417559565
 30
0.0
 11
1701.968716351083
 21
861.5947417559565
 31
0.0
 12
1700.931952932582
 22
853.7197417559565
 32
0.0
 13
1700.931952932582
 23
853.7197417559565
 33
0.0
  0
MTEXT
  5
37B
330
375
100
AcDbEntity
  8
1
 62
     2
100
AcDbMText
 10
1696.431952932582
 20
946.9072417559564
 30
0.0
 40
11.25
 41
0.0
 71
     7
 72
     1
  1
210
  7
CONVERTER_11
 11
0.0
 21
1.0
 31
0.0
 73
     1
 44
0.60024009603842
  0
ENDBLK
  5
37D
330
375
100
AcDbEntity
  8
0
100
AcDbBlockEnd
  0
BLOCK
  5
387
330
380
100
AcDbEntity
  8
0
100
AcDbBlockBegin
  2
*D24
 70
     1
 10
0.0
 20
0.0
 30
0.0
  3
*D24
  1

  0
LINE
  5
381
330
380
100
AcDbEntity
  8
1
  6
Continuous
 62
     2
100
AcDbLine
 10
1700.931952932582
 20
816.219741755957
 30
0.0
 11
1700.931952932582
 21
853.7197417559565
 31
0.0
  0
LINE
  5
382
330
380
100
AcDbEntity
  8
1
  6
Continuous
 62
     2
100
AcDbLine
 10
1778.931952932581
 20
816.219741755957
 30
0.0
 11
1696.431952932582
 21
816.219741755957
 31
0.0
  0
LINE
  5
383
330
380
100
AcDbEntity
  8
1
  6
Continuous
 62
     2
100
AcDbLine
 10
1758.715633007268
 20
853.7197417559565
 30
0.0
 11
1696.431952932582
 21
853.7197417559565
 31
0.0
  0
SOLID
  5
384
330
380
100
AcDbEntity
  8
1
 62
     2
100
AcDbTrace
 10
1701.968716351083
 20
845.8447417559565
 30
0.0
 11
1699.895189514081
 21
845.8447417559565
 31
0.0
 12
1700.931952932582
 22
853.7197417559565
 32
0.0
 13
1700.931952932582
 23
853.7197417559565
 33
0.0
  0
SOLID
  5
385
330
380
100
AcDbEntity
  8
1
 62
     2
100
AcDbTrace
 10
1699.895189514081
 20
824.094741755957
 30
0.0
 11
1701.968716351083
 21
824.094741755957
 31
0.0
 12
1700.931952932582
 22
816.219741755957
 32
0.0
 13
1700.931952932582
 23
816.219741755957
 33
0.0
  0
MTEXT
  5
386
330
380
100
AcDbEntity
  8
1
 62
     2
100
AcDbMText
 10
1695.306952932582
 20
818.4054203948011
 30
0.0
 40
11.25
 41
0.0
 71
     7
 72
     1
  1
37,5
  7
CONVERTER_11
 11
0.0
 21
1.0
 31
0.0
 73
     1
 44
0.60024009603842
  0
ENDBLK
  5
388
330
380
100
AcDbEntity
  8
0
100
AcDbBlockEnd
  0
BLOCK
  5
393
330
38B
100
AcDbEntity
  8
0
100
AcDbBlockBegin
  2
*D25
 70
     1
 10
0.0
 20
0.0
 30
0.0
  3
*D25
  1

  0
LINE
  5
38C
330
38B
100
AcDbEntity
  8
1
  6
Continuous
 62
     2
100
AcDbLine
 10
1669.431952932581
 20
816.219741755957
 30
0.0
 11
1669.431952932581
 21
896.2197417559565
 31
0.0
  0
LINE
  5
38D
330
38B
100
AcDbEntity
  8
1
  6
Continuous
 62
     2
100
AcDbLine
 10
1778.931952932581
 20
816.219741755957
 30
0.0
 11
1664.931952932581
 21
816.219741755957
 31
0.0
  0
LINE
  5
38E
330
38B
100
AcDbEntity
  8
1
  6
Continuous
 62
     2
100
AcDbLine
 10
1696.431952932582
 20
896.2197417559565
 30
0.0
 11
1664.931952932581
 21
896.2197417559565
 31
0.0
  0
LINE
  5
38F
330
38B
100
AcDbEntity
  8
1
  6
Continuous
 62
     2
100
AcDbLine
 10
1763.931952932582
 20
896.2197417559565
 30
0.0
 11
1705.431952932582
 21
896.2197417559565
 31
0.0
  0
SOLID
  5
390
330
38B
100
AcDbEntity
  8
1
 62
     2
100
AcDbTrace
 10
1668.39518951408
 20
824.094741755957
 30
0.0
 11
1670.468716351082
 21
824.094741755957
 31
0.0
 12
1669.431952932581
 22
816.219741755957
 32
0.0
 13
1669.431952932581
 23
816.219741755957
 33
0.0
  0
SOLID
  5
391
330
38B
100
AcDbEntity
  8
1
 62
     2
100
AcDbTrace
 10
1670.468716351082
 20
888.3447417559565
 30
0.0
 11
1668.39518951408
 21
888.3447417559565
 31
0.0
 12
1669.431952932581
 22
896.2197417559565
 32
0.0
 13
1669.431952932581
 23
896.2197417559565
 33
0.0
  0
MTEXT
  5
392
330
38B
100
AcDbEntity
  8
1
 62
     2
100
AcDbMText
 10
1664.931952932581
 20
846.1916206443791
 30
0.0
 40
11.25
 41
0.0
 71
     7
 72
     1
  1
80
  7
CONVERTER_11
 11
0.0
 21
1.0
 31
0.0
 73
     1
 44
0.60024009603842
  0
ENDBLK
  5
394
330
38B
100
AcDbEntity
  8
0
100
AcDbBlockEnd
  0
BLOCK
  5
3A0
330
397
100
AcDbEntity
  8
0
100
AcDbBlockBegin
  2
*D26
 70
     1
 10
0.0
 20
0.0
 30
0.0
  3
*D26
  1

  0
LINE
  5
398
330
397
100
AcDbEntity
  8
1
  6
Continuous
 62
     2
100
AcDbLine
 10
1669.431952932582
 20
896.2197417559565
 30
0.0
 11
1669.431952932582
 21
1021.219741755956
 31
0.0
  0
LINE
  5
399
330
397
100
AcDbEntity
  8
1
  6
Continuous
 62
     2
100
AcDbLine
 10
1696.431952932582
 20
896.2197417559565
 30
0.0
 11
1664.931952932582
 21
896.2197417559565
 31
0.0
  0
LINE
  5
39A
330
397
100
AcDbEntity
  8
1
  6
Continuous
 62
     2
100
AcDbLine
 10
1763.931952932582
 20
896.2197417559565
 30
0.0
 11
1705.431952932582
 21
896.2197417559565
 31
0.0
  0
LINE
  5
39B
330
397
100
AcDbEntity
  8
1
  6
Continuous
 62
     2
100
AcDbLine
 10
1696.431952932582
 20
1021.219741755956
 30
0.0
 11
1664.931952932582
 21
1021.219741755956
 31
0.0
  0
LINE
  5
39C
330
397
100
AcDbEntity
  8
1
  6
Continuous
 62
     2
100
AcDbLine
 10
1763.931952932582
 20
1021.219741755956
 30
0.0
 11
1705.431952932582
 21
1021.219741755956
 31
0.0
  0
SOLID
  5
39D
330
397
100
AcDbEntity
  8
1
 62
     2
100
AcDbTrace
 10
1668.395189514081
 20
904.0947417559565
 30
0.0
 11
1670.468716351083
 21
904.0947417559565
 31
0.0
 12
1669.431952932582
 22
896.2197417559565
 32
0.0
 13
1669.431952932582
 23
896.2197417559565
 33
0.0
  0
SOLID
  5
39E
330
397
100
AcDbEntity
  8
1
 62
     2
100
AcDbTrace
 10
1670.468716351083
 20
1013.344741755956
 30
0.0
 11
1668.395189514081
 21
1013.344741755956
 31
0.0
 12
1669.431952932582
 22
1021.219741755956
 32
0.0
 13
1669.431952932582
 23
1021.219741755956
 33
0.0
  0
MTEXT
  5
39F
330
397
100
AcDbEntity
  8
1
 62
     2
100
AcDbMText
 10
1664.931952932582
 20
946.9072417559564
 30
0.0
 40
11.25
 41
0.0
 71
     7
 72
     1
  1
125
  7
CONVERTER_11
 11
0.0
 21
1.0
 31
0.0
 73
     1
 44
0.60024009603842
  0
ENDBLK
  5
3A1
330
397
100
AcDbEntity
  8
0
100
AcDbBlockEnd
  0
BLOCK
  5
3AC
330
3A4
100
AcDbEntity
  8
0
100
AcDbBlockBegin
  2
*D27
 70
     1
 10
0.0
 20
0.0
 30
0.0
  3
*D27
  1

  0
LINE
  5
3A5
330
3A4
100
AcDbEntity
  8
1
  6
Continuous
 62
     2
100
AcDbLine
 10
1669.431952932582
 20
1021.219741755956
 30
0.0
 11
1669.431952932582
 21
1101.219741755956
 31
0.0
  0
LINE
  5
3A6
330
3A4
100
AcDbEntity
  8
1
  6
Continuous
 62
     2
100
AcDbLine
 10
1696.431952932582
 20
1021.219741755956
 30
0.0
 11
1664.931952932582
 21
1021.219741755956
 31
0.0
  0
LINE
  5
3A7
330
3A4
100
AcDbEntity
  8
1
  6
Continuous
 62
     2
100
AcDbLine
 10
1763.931952932582
 20
1021.219741755956
 30
0.0
 11
1705.431952932582
 21
1021.219741755956
 31
0.0
  0
LINE
  5
3A8
330
3A4
100
AcDbEntity
  8
1
  6
Continuous
 62
     2
100
AcDbLine
 10
1778.931952932581
 20
1101.219741755956
 30
0.0
 11
1664.931952932582
 21
1101.219741755956
 31
0.0
  0
SOLID
  5
3A9
330
3A4
100
AcDbEntity
  8
1
 62
     2
100
AcDbTrace
 10
1668.395189514081
 20
1029.094741755956
 30
0.0
 11
1670.468716351083
 21
1029.094741755956
 31
0.0
 12
1669.431952932582
 22
1021.219741755956
 32
0.0
 13
1669.431952932582
 23
1021.219741755956
 33
0.0
  0
SOLID
  5
3AA
330
3A4
100
AcDbEntity
  8
1
 62
     2
100
AcDbTrace
 10
1670.468716351083
 20
1093.344741755956
 30
0.0
 11
1668.395189514081
 21
1093.344741755956
 31
0.0
 12
1669.431952932582
 22
1101.219741755956
 32
0.0
 13
1669.431952932582
 23
1101.219741755956
 33
0.0
  0
MTEXT
  5
3AB
330
3A4
100
AcDbEntity
  8
1
 62
     2
100
AcDbMText
 10
1664.931952932582
 20
1061.005355727512
 30
0.0
 40
11.25
 41
0.0
 71
     7
 72
     1
  1
80
  7
CONVERTER_11
 11
0.0
 21
1.0
 31
0.0
 73
     1
 44
0.60024009603842
  0
ENDBLK
  5
3AD
330
3A4
100
AcDbEntity
  8
0
100
AcDbBlockEnd
  0
BLOCK
  5
3B7
330
3B0
100
AcDbEntity
  8
0
100
AcDbBlockBegin
  2
*D28
 70
     1
 10
0.0
 20
0.0
 30
0.0
  3
*D28
  1

  0
LINE
  5
3B1
330
3B0
100
AcDbEntity
  8
1
  6
Continuous
 62
     2
100
AcDbLine
 10
1637.931952932581
 20
816.219741755957
 30
0.0
 11
1637.931952932581
 21
1101.219741755956
 31
0.0
  0
LINE
  5
3B2
330
3B0
100
AcDbEntity
  8
1
  6
Continuous
 62
     2
100
AcDbLine
 10
1778.931952932581
 20
816.219741755957
 30
0.0
 11
1633.431952932581
 21
816.219741755957
 31
0.0
  0
LINE
  5
3B3
330
3B0
100
AcDbEntity
  8
1
  6
Continuous
 62
     2
100
AcDbLine
 10
1778.931952932581
 20
1101.219741755956
 30
0.0
 11
1633.431952932581
 21
1101.219741755956
 31
0.0
  0
SOLID
  5
3B4
330
3B0
100
AcDbEntity
  8
1
 62
     2
100
AcDbTrace
 10
1638.968716351082
 20
1093.344741755956
 30
0.0
 11
1636.89518951408
 21
1093.344741755956
 31
0.0
 12
1637.931952932581
 22
1101.219741755956
 32
0.0
 13
1637.931952932581
 23
1101.219741755956
 33
0.0
  0
SOLID
  5
3B5
330
3B0
100
AcDbEntity
  8
1
 62
     2
100
AcDbTrace
 10
1636.89518951408
 20
824.094741755957
 30
0.0
 11
1638.968716351082
 21
824.094741755957
 31
0.0
 12
1637.931952932581
 22
816.219741755957
 32
0.0
 13
1637.931952932581
 23
816.219741755957
 33
0.0
  0
MTEXT
  5
3B6
330
3B0
100
AcDbEntity
  8
1
 62
     2
100
AcDbMText
 10
1633.431952932581
 20
945.2197417559564
 30
0.0
 40
11.25
 41
0.0
 71
     7
 72
     1
  1
285
  7
CONVERTER_11
 11
0.0
 21
1.0
 31
0.0
 73
     1
 44
0.60024009603842
  0
ENDBLK
  5
3B8
330
3B0
100
AcDbEntity
  8
0
100
AcDbBlockEnd
  0
BLOCK
  5
3C2
330
3BB
100
AcDbEntity
  8
0
100
AcDbBlockBegin
  2
*D29
 70
     1
 10
0.0
 20
0.0
 30
0.0
  3
*D29
  1

  0
LINE
  5
3BC
330
3BB
100
AcDbEntity
  8
1
  6
Continuous
 62
     2
100
AcDbLine
 10
1763.931952932582
 20
753.219741755957
 30
0.0
 11
1801.431952932581
 21
753.219741755957
 31
0.0
  0
LINE
  5
3BD
330
3BB
100
AcDbEntity
  8
1
  6
Continuous
 62
     2
100
AcDbLine
 10
1763.931952932582
 20
846.7197417559565
 30
0.0
 11
1763.931952932582
 21
748.719741755957
 31
0.0
  0
LINE
  5
3BE
330
3BB
100
AcDbEntity
  8
1
  6
Continuous
 62
     2
100
AcDbLine
 10
1801.431952932581
 20
811.0034218306438
 30
0.0
 11
1801.431952932581
 21
748.719741755957
 31
0.0
  0
SOLID
  5
3BF
330
3BB
100
AcDbEntity
  8
1
 62
     2
100
AcDbTrace
 10
1771.806952932582
 20
754.2565051744577
 30
0.0
 11
1771.806952932582
 21
752.1829783374562
 31
0.0
 12
1763.931952932582
 22
753.219741755957
 32
0.0
 13
1763.931952932582
 23
753.219741755957
 33
0.0
  0
SOLID
  5
3C0
330
3BB
100
AcDbEntity
  8
1
 62
     2
100
AcDbTrace
 10
1793.556952932581
 20
752.1829783374562
 30
0.0
 11
1793.556952932581
 21
754.2565051744577
 31
0.0
 12
1801.431952932581
 22
753.219741755957
 32
0.0
 13
1801.431952932581
 23
753.219741755957
 33
0.0
  0
MTEXT
  5
3C1
330
3BB
100
AcDbEntity
  8
1
 62
     2
100
AcDbMText
 10
1767.721606243842
 20
758.844741755957
 30
0.0
 40
11.25
 41
0.0
 71
     7
 72
     1
  1
37,5
  7
CONVERTER_11
 11
0.9999999999970619
 21
2.424068405545306E-6
 31
0.0
 73
     1
 44
0.60024009603842
  0
ENDBLK
  5
3C3
330
3BB
100
AcDbEntity
  8
0
100
AcDbBlockEnd
  0
BLOCK
  5
3CD
330
3C6
100
AcDbEntity
  8
0
100
AcDbBlockBegin
  2
*D30
 70
     1
 10
0.0
 20
0.0
 30
0.0
  3
*D30
  1

  0
LINE
  5
3C7
330
3C6
100
AcDbEntity
  8
1
  6
Continuous
 62
     2
100
AcDbLine
 10
1801.431952932581
 20
753.219741755957
 30
0.0
 11
2011.431952932581
 21
753.219741755957
 31
0.0
  0
LINE
  5
3C8
330
3C6
100
AcDbEntity
  8
1
  6
Continuous
 62
     2
100
AcDbLine
 10
1801.431952932581
 20
811.0034218306438
 30
0.0
 11
1801.431952932581
 21
748.719741755957
 31
0.0
  0
LINE
  5
3C9
330
3C6
100
AcDbEntity
  8
1
  6
Continuous
 62
     2
100
AcDbLine
 10
2011.431952932581
 20
810.9027009777726
 30
0.0
 11
2011.431952932581
 21
748.719741755957
 31
0.0
  0
SOLID
  5
3CA
330
3C6
100
AcDbEntity
  8
1
 62
     2
100
AcDbTrace
 10
1809.306952932581
 20
754.2565051744577
 30
0.0
 11
1809.306952932581
 21
752.1829783374562
 31
0.0
 12
1801.431952932581
 22
753.219741755957
 32
0.0
 13
1801.431952932581
 23
753.219741755957
 33
0.0
  0
SOLID
  5
3CB
330
3C6
100
AcDbEntity
  8
1
 62
     2
100
AcDbTrace
 10
2003.556952932581
 20
752.1829783374562
 30
0.0
 11
2003.556952932581
 21
754.2565051744577
 31
0.0
 12
2011.431952932581
 22
753.219741755957
 32
0.0
 13
2011.431952932581
 23
753.219741755957
 33
0.0
  0
MTEXT
  5
3CC
330
3C6
100
AcDbEntity
  8
1
 62
     2
100
AcDbMText
 10
1894.619452932581
 20
757.719741755957
 30
0.0
 40
11.25
 41
0.0
 71
     7
 72
     1
  1
210
  7
CONVERTER_11
 11
0.9999999999970619
 21
2.424068405545306E-6
 31
0.0
 73
     1
 44
0.60024009603842
  0
ENDBLK
  5
3CE
330
3C6
100
AcDbEntity
  8
0
100
AcDbBlockEnd
  0
BLOCK
  5
3D8
330
3D1
100
AcDbEntity
  8
0
100
AcDbBlockBegin
  2
*D31
 70
     1
 10
0.0
 20
0.0
 30
0.0
  3
*D31
  1

  0
LINE
  5
3D2
330
3D1
100
AcDbEntity
  8
1
  6
Continuous
 62
     2
100
AcDbLine
 10
2011.431952932581
 20
753.219741755957
 30
0.0
 11
2048.931952932581
 21
753.219741755957
 31
0.0
  0
LINE
  5
3D3
330
3D1
100
AcDbEntity
  8
1
  6
Continuous
 62
     2
100
AcDbLine
 10
2011.431952932581
 20
810.9027009777726
 30
0.0
 11
2011.431952932581
 21
748.719741755957
 31
0.0
  0
LINE
  5
3D4
330
3D1
100
AcDbEntity
  8
1
  6
Continuous
 62
     2
100
AcDbLine
 10
2048.931952932581
 20
846.7197417559568
 30
0.0
 11
2048.931952932581
 21
748.719741755957
 31
0.0
  0
SOLID
  5
3D5
330
3D1
100
AcDbEntity
  8
1
 62
     2
100
AcDbTrace
 10
2019.306952932581
 20
754.2565051744577
 30
0.0
 11
2019.306952932581
 21
752.1829783374562
 31
0.0
 12
2011.431952932581
 22
753.219741755957
 32
0.0
 13
2011.431952932581
 23
753.219741755957
 33
0.0
  0
SOLID
  5
3D6
330
3D1
100
AcDbEntity
  8
1
 62
     2
100
AcDbTrace
 10
2041.056952932581
 20
752.1829783374562
 30
0.0
 11
2041.056952932581
 21
754.2565051744577
 31
0.0
 12
2048.931952932581
 22
753.219741755957
 32
0.0
 13
2048.931952932581
 23
753.219741755957
 33
0.0
  0
MTEXT
  5
3D7
330
3D1
100
AcDbEntity
  8
1
 62
     2
100
AcDbMText
 10
2015.029505827192
 20
758.844741755957
 30
0.0
 40
11.25
 41
0.0
 71
     7
 72
     1
  1
37,5
  7
CONVERTER_11
 11
0.9999999999970619
 21
2.424068405545306E-6
 31
0.0
 73
     1
 44
0.60024009603842
  0
ENDBLK
  5
3D9
330
3D1
100
AcDbEntity
  8
0
100
AcDbBlockEnd
  0
BLOCK
  5
3E3
330
3DC
100
AcDbEntity
  8
0
100
AcDbBlockBegin
  2
*D32
 70
     1
 10
0.0
 20
0.0
 30
0.0
  3
*D32
  1

  0
LINE
  5
3DD
330
3DC
100
AcDbEntity
  8
1
  6
Continuous
 62
     2
100
AcDbLine
 10
2160.931952932581
 20
1186.719741755956
 30
0.0
 11
2185.931952932581
 21
1186.719741755956
 31
0.0
  0
LINE
  5
3DE
330
3DC
100
AcDbEntity
  8
1
  6
Continuous
 62
     2
100
AcDbLine
 10
2160.931952932581
 20
1155.219741755956
 30
0.0
 11
2160.931952932581
 21
1191.219741755956
 31
0.0
  0
LINE
  5
3DF
330
3DC
100
AcDbEntity
  8
1
  6
Continuous
 62
     2
100
AcDbLine
 10
2185.931952932581
 20
1155.219741755956
 30
0.0
 11
2185.931952932581
 21
1191.219741755956
 31
0.0
  0
SOLID
  5
3E0
330
3DC
100
AcDbEntity
  8
1
 62
     2
100
AcDbTrace
 10
2178.056952932581
 20
1185.682978337455
 30
0.0
 11
2178.056952932581
 21
1187.756505174457
 31
0.0
 12
2185.931952932581
 22
1186.719741755956
 32
0.0
 13
2185.931952932581
 23
1186.719741755956
 33
0.0
  0
SOLID
  5
3E1
330
3DC
100
AcDbEntity
  8
1
 62
     2
100
AcDbTrace
 10
2168.806952932581
 20
1187.756505174457
 30
0.0
 11
2168.806952932581
 21
1185.682978337455
 31
0.0
 12
2160.931952932581
 22
1186.719741755956
 32
0.0
 13
2160.931952932581
 23
1186.719741755956
 33
0.0
  0
MTEXT
  5
3E2
330
3DC
100
AcDbEntity
  8
1
 62
     2
100
AcDbMText
 10
2170.040491874602
 20
1191.219741755956
 30
0.0
 40
11.25
 41
0.0
 71
     7
 72
     1
  1
B
  7
CONVERTER_11
 11
0.9999999999970619
 21
2.424068405545306E-6
 31
0.0
 73
     1
 44
0.60024009603842
  0
ENDBLK
  5
3E4
330
3DC
100
AcDbEntity
  8
0
100
AcDbBlockEnd
  0
BLOCK
  5
3EE
330
3E7
100
AcDbEntity
  8
0
100
AcDbBlockBegin
  2
*D33
 70
     1
 10
0.0
 20
0.0
 30
0.0
  3
*D33
  1

  0
LINE
  5
3E8
330
3E7
100
AcDbEntity
  8
1
  6
Continuous
 62
     2
100
AcDbLine
 10
2135.931952932581
 20
1186.719741755956
 30
0.0
 11
2160.931952932581
 21
1186.719741755956
 31
0.0
  0
LINE
  5
3E9
330
3E7
100
AcDbEntity
  8
1
  6
Continuous
 62
     2
100
AcDbLine
 10
2135.931952932581
 20
1152.219741755956
 30
0.0
 11
2135.931952932581
 21
1191.219741755956
 31
0.0
  0
LINE
  5
3EA
330
3E7
100
AcDbEntity
  8
1
  6
Continuous
 62
     2
100
AcDbLine
 10
2160.931952932581
 20
1155.219741755956
 30
0.0
 11
2160.931952932581
 21
1191.219741755956
 31
0.0
  0
SOLID
  5
3EB
330
3E7
100
AcDbEntity
  8
1
 62
     2
100
AcDbTrace
 10
2153.056952932581
 20
1185.682978337455
 30
0.0
 11
2153.056952932581
 21
1187.756505174457
 31
0.0
 12
2160.931952932581
 22
1186.719741755956
 32
0.0
 13
2160.931952932581
 23
1186.719741755956
 33
0.0
  0
SOLID
  5
3EC
330
3E7
100
AcDbEntity
  8
1
 62
     2
100
AcDbTrace
 10
2143.806952932581
 20
1187.756505174457
 30
0.0
 11
2143.806952932581
 21
1185.682978337455
 31
0.0
 12
2135.931952932581
 22
1186.719741755956
 32
0.0
 13
2135.931952932581
 23
1186.719741755956
 33
0.0
  0
MTEXT
  5
3ED
330
3E7
100
AcDbEntity
  8
1
 62
     2
100
AcDbMText
 10
2142.061143156062
 20
1191.219741755956
 30
0.0
 40
11.25
 41
0.0
 71
     7
 72
     1
  1
C
  7
CONVERTER_11
 11
0.9999999999970619
 21
2.424068405545306E-6
 31
0.0
 73
     1
 44
0.60024009603842
  0
ENDBLK
  5
3EF
330
3E7
100
AcDbEntity
  8
0
100
AcDbBlockEnd
  0
BLOCK
  5
3F9
330
3F2
100
AcDbEntity
  8
0
100
AcDbBlockBegin
  2
*D34
 70
     1
 10
0.0
 20
0.0
 30
0.0
  3
*D34
  1

  0
LINE
  5
3F3
330
3F2
100
AcDbEntity
  8
1
  6
Continuous
 62
     2
100
AcDbLine
 10
2048.931952932581
 20
1218.219741755956
 30
0.0
 11
2185.931952932581
 21
1218.219741755956
 31
0.0
  0
LINE
  5
3F4
330
3F2
100
AcDbEntity
  8
1
  6
Continuous
 62
     2
100
AcDbLine
 10
2048.931952932581
 20
1086.219741755956
 30
0.0
 11
2048.931952932581
 21
1222.719741755956
 31
0.0
  0
LINE
  5
3F5
330
3F2
100
AcDbEntity
  8
1
  6
Continuous
 62
     2
100
AcDbLine
 10
2185.931952932581
 20
1155.219741755956
 30
0.0
 11
2185.931952932581
 21
1222.719741755956
 31
0.0
  0
SOLID
  5
3F6
330
3F2
100
AcDbEntity
  8
1
 62
     2
100
AcDbTrace
 10
2178.056952932581
 20
1217.182978337455
 30
0.0
 11
2178.056952932581
 21
1219.256505174457
 31
0.0
 12
2185.931952932581
 22
1218.219741755956
 32
0.0
 13
2185.931952932581
 23
1218.219741755956
 33
0.0
  0
SOLID
  5
3F7
330
3F2
100
AcDbEntity
  8
1
 62
     2
100
AcDbTrace
 10
2056.806952932581
 20
1219.256505174457
 30
0.0
 11
2056.806952932581
 21
1217.182978337455
 31
0.0
 12
2048.931952932581
 22
1218.219741755956
 32
0.0
 13
2048.931952932581
 23
1218.219741755956
 33
0.0
  0
MTEXT
  5
3F8
330
3F2
100
AcDbEntity
  8
1
 62
     2
100
AcDbMText
 10
2115.747348646071
 20
1222.719741755956
 30
0.0
 40
11.25
 41
0.0
 71
     7
 72
     1
  1
A
  7
CONVERTER_11
 11
0.9999999999970619
 21
2.424068405545306E-6
 31
0.0
 73
     1
 44
0.60024009603842
  0
ENDBLK
  5
3FA
330
3F2
100
AcDbEntity
  8
0
100
AcDbBlockEnd
  0
BLOCK
  5
407
330
3FD
100
AcDbEntity
  8
0
100
AcDbBlockBegin
  2
*D35
 70
     1
 10
0.0
 20
0.0
 30
0.0
  3
*D35
  1

  0
LINE
  5
3FE
330
3FD
100
AcDbEntity
  8
1
  6
Continuous
 62
     2
100
AcDbLine
 10
1700.931952932581
 20
316.4697417559572
 30
0.0
 11
1700.931952932581
 21
300.7197417559572
 31
0.0
  0
LINE
  5
3FF
330
3FD
100
AcDbEntity
  8
1
  6
Continuous
 62
     2
100
AcDbLine
 10
1700.931952932581
 20
285.7197417559572
 30
0.0
 11
1700.931952932581
 21
300.7197417559572
 31
0.0
  0
LINE
  5
400
330
3FD
100
AcDbEntity
  8
1
  6
Continuous
 62
     2
100
AcDbLine
 10
1700.931952932581
 20
285.7197417559572
 30
0.0
 11
1700.931952932581
 21
261.2701195697909
 31
0.0
  0
LINE
  5
401
330
3FD
100
AcDbEntity
  8
1
  6
Continuous
 62
     2
100
AcDbLine
 10
1727.931952932582
 20
285.7197417559572
 30
0.0
 11
1696.431952932581
 21
285.7197417559572
 31
0.0
  0
LINE
  5
402
330
3FD
100
AcDbEntity
  8
1
  6
Continuous
 62
     2
100
AcDbLine
 10
1766.931952932581
 20
285.7197417559572
 30
0.0
 11
1736.931952932582
 21
285.7197417559572
 31
0.0
  0
LINE
  5
403
330
3FD
100
AcDbEntity
  8
1
  6
Continuous
 62
     2
100
AcDbLine
 10
1790.810214114256
 20
300.7197417559572
 30
0.0
 11
1696.431952932581
 21
300.7197417559572
 31
0.0
  0
SOLID
  5
404
330
3FD
100
AcDbEntity
  8
1
 62
     2
100
AcDbTrace
 10
1701.968716351082
 20
277.8447417559572
 30
0.0
 11
1699.89518951408
 21
277.8447417559572
 31
0.0
 12
1700.931952932581
 22
285.7197417559572
 32
0.0
 13
1700.931952932581
 23
285.7197417559572
 33
0.0
  0
SOLID
  5
405
330
3FD
100
AcDbEntity
  8
1
 62
     2
100
AcDbTrace
 10
1699.89518951408
 20
308.5947417559572
 30
0.0
 11
1701.968716351082
 21
308.5947417559572
 31
0.0
 12
1700.931952932581
 22
300.7197417559572
 32
0.0
 13
1700.931952932581
 23
300.7197417559572
 33
0.0
  0
MTEXT
  5
406
330
3FD
100
AcDbEntity
  8
1
 62
     2
100
AcDbMText
 10
1696.431952932581
 20
261.2701195697909
 30
0.0
 40
11.25
 41
0.0
 71
     7
 72
     1
  1
15
  7
CONVERTER_11
 11
0.0
 21
1.0
 31
0.0
 73
     1
 44
0.60024009603842
  0
ENDBLK
  5
408
330
3FD
100
AcDbEntity
  8
0
100
AcDbBlockEnd
  0
BLOCK
  5
412
330
40B
100
AcDbEntity
  8
0
100
AcDbBlockBegin
  2
*D36
 70
     1
 10
0.0
 20
0.0
 30
0.0
  3
*D36
  1

  0
LINE
  5
40C
330
40B
100
AcDbEntity
  8
1
  6
Continuous
 62
     2
100
AcDbLine
 10
1700.931952932582
 20
300.7197417559572
 30
0.0
 11
1700.931952932582
 21
470.719741755957
 31
0.0
  0
LINE
  5
40D
330
40B
100
AcDbEntity
  8
1
  6
Continuous
 62
     2
100
AcDbLine
 10
1790.810214114256
 20
300.7197417559572
 30
0.0
 11
1696.431952932582
 21
300.7197417559572
 31
0.0
  0
LINE
  5
40E
330
40B
100
AcDbEntity
  8
1
  6
Continuous
 62
     2
100
AcDbLine
 10
1790.810214114256
 20
470.719741755957
 30
0.0
 11
1696.431952932582
 21
470.719741755957
 31
0.0
  0
SOLID
  5
40F
330
40B
100
AcDbEntity
  8
1
 62
     2
100
AcDbTrace
 10
1699.895189514081
 20
308.5947417559572
 30
0.0
 11
1701.968716351083
 21
308.5947417559572
 31
0.0
 12
1700.931952932582
 22
300.7197417559572
 32
0.0
 13
1700.931952932582
 23
300.7197417559572
 33
0.0
  0
SOLID
  5
410
330
40B
100
AcDbEntity
  8
1
 62
     2
100
AcDbTrace
 10
1701.968716351083
 20
462.844741755957
 30
0.0
 11
1699.895189514081
 21
462.844741755957
 31
0.0
 12
1700.931952932582
 22
470.719741755957
 32
0.0
 13
1700.931952932582
 23
470.719741755957
 33
0.0
  0
MTEXT
  5
411
330
40B
100
AcDbEntity
  8
1
 62
     2
100
AcDbMText
 10
1696.431952932582
 20
373.6861359824709
 30
0.0
 40
11.25
 41
0.0
 71
     7
 72
     1
  1
170
  7
CONVERTER_11
 11
0.0
 21
1.0
 31
0.0
 73
     1
 44
0.60024009603842
  0
ENDBLK
  5
413
330
40B
100
AcDbEntity
  8
0
100
AcDbBlockEnd
  0
BLOCK
  5
41F
330
416
100
AcDbEntity
  8
0
100
AcDbBlockBegin
  2
*D37
 70
     1
 10
0.0
 20
0.0
 30
0.0
  3
*D37
  1

  0
LINE
  5
417
330
416
100
AcDbEntity
  8
1
  6
Continuous
 62
     2
100
AcDbLine
 10
1700.931952932582
 20
454.969741755957
 30
0.0
 11
1700.931952932582
 21
470.719741755957
 31
0.0
  0
LINE
  5
418
330
416
100
AcDbEntity
  8
1
  6
Continuous
 62
     2
100
AcDbLine
 10
1700.931952932582
 20
470.719741755957
 30
0.0
 11
1700.931952932582
 21
485.719741755957
 31
0.0
  0
LINE
  5
419
330
416
100
AcDbEntity
  8
1
  6
Continuous
 62
     2
100
AcDbLine
 10
1700.931952932582
 20
485.719741755957
 30
0.0
 11
1700.931952932582
 21
517.6648899906029
 31
0.0
  0
LINE
  5
41A
330
416
100
AcDbEntity
  8
1
  6
Continuous
 62
     2
100
AcDbLine
 10
1790.810214114256
 20
470.719741755957
 30
0.0
 11
1696.431952932582
 21
470.719741755957
 31
0.0
  0
LINE
  5
41B
330
416
100
AcDbEntity
  8
1
  6
Continuous
 62
     2
100
AcDbLine
 10
1766.931952932581
 20
485.719741755957
 30
0.0
 11
1696.431952932582
 21
485.719741755957
 31
0.0
  0
SOLID
  5
41C
330
416
100
AcDbEntity
  8
1
 62
     2
100
AcDbTrace
 10
1701.968716351083
 20
462.844741755957
 30
0.0
 11
1699.895189514081
 21
462.844741755957
 31
0.0
 12
1700.931952932582
 22
470.719741755957
 32
0.0
 13
1700.931952932582
 23
470.719741755957
 33
0.0
  0
SOLID
  5
41D
330
416
100
AcDbEntity
  8
1
 62
     2
100
AcDbTrace
 10
1699.895189514081
 20
493.594741755957
 30
0.0
 11
1701.968716351083
 21
493.594741755957
 31
0.0
 12
1700.931952932582
 22
485.719741755957
 32
0.0
 13
1700.931952932582
 23
485.719741755957
 33
0.0
  0
MTEXT
  5
41E
330
416
100
AcDbEntity
  8
1
 62
     2
100
AcDbMText
 10
1696.431952932582
 20
504.1648899906029
 30
0.0
 40
11.25
 41
0.0
 71
     7
 72
     1
  1
15
  7
CONVERTER_11
 11
0.0
 21
1.0
 31
0.0
 73
     1
 44
0.60024009603842
  0
ENDBLK
  5
420
330
416
100
AcDbEntity
  8
0
100
AcDbBlockEnd
  0
BLOCK
  5
42B
330
423
100
AcDbEntity
  8
0
100
AcDbBlockBegin
  2
*D38
 70
     1
 10
0.0
 20
0.0
 30
0.0
  3
*D38
  1

  0
LINE
  5
424
330
423
100
AcDbEntity
  8
1
  6
Continuous
 62
     2
100
AcDbLine
 10
1669.431952932581
 20
285.7197417559572
 30
0.0
 11
1669.431952932581
 21
485.719741755957
 31
0.0
  0
LINE
  5
425
330
423
100
AcDbEntity
  8
1
  6
Continuous
 62
     2
100
AcDbLine
 10
1727.931952932582
 20
285.7197417559572
 30
0.0
 11
1664.931952932581
 21
285.7197417559572
 31
0.0
  0
LINE
  5
426
330
423
100
AcDbEntity
  8
1
  6
Continuous
 62
     2
100
AcDbLine
 10
1766.931952932581
 20
285.7197417559572
 30
0.0
 11
1736.931952932582
 21
285.7197417559572
 31
0.0
  0
LINE
  5
427
330
423
100
AcDbEntity
  8
1
  6
Continuous
 62
     2
100
AcDbLine
 10
1766.931952932581
 20
485.719741755957
 30
0.0
 11
1664.931952932581
 21
485.719741755957
 31
0.0
  0
SOLID
  5
428
330
423
100
AcDbEntity
  8
1
 62
     2
100
AcDbTrace
 10
1670.468716351082
 20
477.844741755957
 30
0.0
 11
1668.39518951408
 21
477.844741755957
 31
0.0
 12
1669.431952932581
 22
485.719741755957
 32
0.0
 13
1669.431952932581
 23
485.719741755957
 33
0.0
  0
SOLID
  5
429
330
423
100
AcDbEntity
  8
1
 62
     2
100
AcDbTrace
 10
1668.39518951408
 20
293.5947417559572
 30
0.0
 11
1670.468716351082
 21
293.5947417559572
 31
0.0
 12
1669.431952932581
 22
285.7197417559572
 32
0.0
 13
1669.431952932581
 23
285.7197417559572
 33
0.0
  0
MTEXT
  5
42A
330
423
100
AcDbEntity
  8
1
 62
     2
100
AcDbMText
 10
1664.931952932581
 20
370.4110884633809
 30
0.0
 40
11.25
 41
0.0
 71
     7
 72
     1
  1
200
  7
CONVERTER_11
 11
0.0
 21
1.0
 31
0.0
 73
     1
 44
0.60024009603842
  0
ENDBLK
  5
42C
330
423
100
AcDbEntity
  8
0
100
AcDbBlockEnd
  0
BLOCK
  5
43A
330
42F
100
AcDbEntity
  8
0
100
AcDbBlockBegin
  2
*D39
 70
     1
 10
0.0
 20
0.0
 30
0.0
  3
*D39
  1

  0
LINE
  5
430
330
42F
100
AcDbEntity
  8
1
  6
Continuous
 62
     2
100
AcDbLine
 10
1574.931952932582
 20
210.7197417559572
 30
0.0
 11
1574.931952932582
 21
495.719741755957
 31
0.0
  0
LINE
  5
431
330
42F
100
AcDbEntity
  8
1
  6
Continuous
 62
     2
100
AcDbLine
 10
1601.931952932582
 20
210.7197417559572
 30
0.0
 11
1570.431952932582
 21
210.7197417559572
 31
0.0
  0
LINE
  5
432
330
42F
100
AcDbEntity
  8
1
  6
Continuous
 62
     2
100
AcDbLine
 10
1727.931952932582
 20
210.7197417559572
 30
0.0
 11
1610.931952932582
 21
210.7197417559572
 31
0.0
  0
LINE
  5
433
330
42F
100
AcDbEntity
  8
1
  6
Continuous
 62
     2
100
AcDbLine
 10
1866.431952932581
 20
210.7197417559572
 30
0.0
 11
1736.931952932582
 21
210.7197417559572
 31
0.0
  0
LINE
  5
434
330
42F
100
AcDbEntity
  8
1
  6
Continuous
 62
     2
100
AcDbLine
 10
1601.931952932582
 20
495.719741755957
 30
0.0
 11
1570.431952932582
 21
495.719741755957
 31
0.0
  0
LINE
  5
435
330
42F
100
AcDbEntity
  8
1
  6
Continuous
 62
     2
100
AcDbLine
 10
1696.431952932582
 20
495.719741755957
 30
0.0
 11
1610.931952932582
 21
495.719741755957
 31
0.0
  0
LINE
  5
436
330
42F
100
AcDbEntity
  8
1
  6
Continuous
 62
     2
100
AcDbLine
 10
1866.431952932581
 20
495.719741755957
 30
0.0
 11
1705.431952932582
 21
495.719741755957
 31
0.0
  0
SOLID
  5
437
330
42F
100
AcDbEntity
  8
1
 62
     2
100
AcDbTrace
 10
1573.895189514081
 20
218.5947417559572
 30
0.0
 11
1575.968716351083
 21
218.5947417559572
 31
0.0
 12
1574.931952932582
 22
210.7197417559572
 32
0.0
 13
1574.931952932582
 23
210.7197417559572
 33
0.0
  0
SOLID
  5
438
330
42F
100
AcDbEntity
  8
1
 62
     2
100
AcDbTrace
 10
1575.968716351083
 20
487.844741755957
 30
0.0
 11
1573.895189514081
 21
487.844741755957
 31
0.0
 12
1574.931952932582
 22
495.719741755957
 32
0.0
 13
1574.931952932582
 23
495.719741755957
 33
0.0
  0
MTEXT
  5
439
330
42F
100
AcDbEntity
  8
1
 62
     2
100
AcDbMText
 10
1570.431952932582
 20
340.2476856006659
 30
0.0
 40
11.25
 41
0.0
 71
     7
 72
     1
  1
276
  7
CONVERTER_11
 11
0.0
 21
1.0
 31
0.0
 73
     1
 44
0.60024009603842
  0
ENDBLK
  5
43B
330
42F
100
AcDbEntity
  8
0
100
AcDbBlockEnd
  0
BLOCK
  5
445
330
43E
100
AcDbEntity
  8
0
100
AcDbBlockBegin
  2
*D40
 70
     1
 10
0.0
 20
0.0
 30
0.0
  3
*D40
  1

  0
LINE
  5
43F
330
43E
100
AcDbEntity
  8
1
  6
Continuous
 62
     2
100
AcDbLine
 10
1732.431952932582
 20
238.7197417559572
 30
0.0
 11
1732.431952932582
 21
288.7197417559572
 31
0.0
  0
LINE
  5
440
330
43E
100
AcDbEntity
  8
1
  6
Continuous
 62
     2
100
AcDbLine
 10
1781.431952932581
 20
238.7197417559572
 30
0.0
 11
1727.931952932582
 21
238.7197417559572
 31
0.0
  0
LINE
  5
441
330
43E
100
AcDbEntity
  8
1
  6
Continuous
 62
     2
100
AcDbLine
 10
1843.931952932581
 20
288.7197417559572
 30
0.0
 11
1727.931952932582
 21
288.7197417559572
 31
0.0
  0
SOLID
  5
442
330
43E
100
AcDbEntity
  8
1
 62
     2
100
AcDbTrace
 10
1733.468716351083
 20
280.8447417559572
 30
0.0
 11
1731.395189514081
 21
280.8447417559572
 31
0.0
 12
1732.431952932582
 22
288.7197417559572
 32
0.0
 13
1732.431952932582
 23
288.7197417559572
 33
0.0
  0
SOLID
  5
443
330
43E
100
AcDbEntity
  8
1
 62
     2
100
AcDbTrace
 10
1731.395189514081
 20
246.5947417559572
 30
0.0
 11
1733.468716351083
 21
246.5947417559572
 31
0.0
 12
1732.431952932582
 22
238.7197417559572
 32
0.0
 13
1732.431952932582
 23
238.7197417559572
 33
0.0
  0
MTEXT
  5
444
330
43E
100
AcDbEntity
  8
1
 62
     2
100
AcDbMText
 10
1727.931952932582
 20
255.6137507720649
 30
0.0
 40
11.25
 41
0.0
 71
     7
 72
     1
  1
50
  7
CONVERTER_11
 11
0.0
 21
1.0
 31
0.0
 73
     1
 44
0.60024009603842
  0
ENDBLK
  5
446
330
43E
100
AcDbEntity
  8
0
100
AcDbBlockEnd
  0
BLOCK
  5
450
330
449
100
AcDbEntity
  8
0
100
AcDbBlockBegin
  2
*D41
 70
     1
 10
0.0
 20
0.0
 30
0.0
  3
*D41
  1

  0
LINE
  5
44A
330
449
100
AcDbEntity
  8
1
  6
Continuous
 62
     2
100
AcDbLine
 10
1816.431952932581
 20
47.71974175595693
 30
0.0
 11
1996.431952932581
 21
47.71974175595693
 31
0.0
  0
LINE
  5
44B
330
449
100
AcDbEntity
  8
1
  6
Continuous
 62
     2
100
AcDbLine
 10
1816.431952932581
 20
215.7197417559572
 30
0.0
 11
1816.431952932581
 21
43.21974175595693
 31
0.0
  0
LINE
  5
44C
330
449
100
AcDbEntity
  8
1
  6
Continuous
 62
     2
100
AcDbLine
 10
1996.431952932581
 20
215.7197417559572
 30
0.0
 11
1996.431952932581
 21
43.21974175595693
 31
0.0
  0
SOLID
  5
44D
330
449
100
AcDbEntity
  8
1
 62
     2
100
AcDbTrace
 10
1988.556952932581
 20
46.68297833745619
 30
0.0
 11
1988.556952932581
 21
48.75650517445767
 31
0.0
 12
1996.431952932581
 22
47.71974175595693
 32
0.0
 13
1996.431952932581
 23
47.71974175595693
 33
0.0
  0
SOLID
  5
44E
330
449
100
AcDbEntity
  8
1
 62
     2
100
AcDbTrace
 10
1824.306952932581
 20
48.75650517445767
 30
0.0
 11
1824.306952932581
 21
46.68297833745619
 31
0.0
 12
1816.431952932581
 22
47.71974175595693
 32
0.0
 13
1816.431952932581
 23
47.71974175595693
 33
0.0
  0
MTEXT
  5
44F
330
449
100
AcDbEntity
  8
1
 62
     2
100
AcDbMText
 10
1868.856952932635
 20
55.59469703189485
 30
0.0
 40
11.25
 41
0.0
 71
     7
 72
     1
  1
\C2;\U+00f8\C2;180\C2;-j7
  7
CONVERTER_11
 11
0.9999999999970619
 21
2.424068405545306E-6
 31
0.0
 73
     1
 44
0.60024009603842
  0
ENDBLK
  5
451
330
449
100
AcDbEntity
  8
0
100
AcDbBlockEnd
  0
BLOCK
  5
45B
330
454
100
AcDbEntity
  8
0
100
AcDbBlockBegin
  2
*D42
 70
     1
 10
0.0
 20
0.0
 30
0.0
  3
*D42
  1

  0
LINE
  5
455
330
454
100
AcDbEntity
  8
1
  6
Continuous
 62
     2
100
AcDbLine
 10
1781.431952932581
 20
16.21974175595693
 30
0.0
 11
2031.43195293258
 21
16.21974175595693
 31
0.0
  0
LINE
  5
456
330
454
100
AcDbEntity
  8
1
  6
Continuous
 62
     2
100
AcDbLine
 10
1781.431952932581
 20
220.7197417559572
 30
0.0
 11
1781.431952932581
 21
11.71974175595693
 31
0.0
  0
LINE
  5
457
330
454
100
AcDbEntity
  8
1
  6
Continuous
 62
     2
100
AcDbLine
 10
2031.43195293258
 20
220.7197417559572
 30
0.0
 11
2031.43195293258
 21
11.71974175595693
 31
0.0
  0
SOLID
  5
458
330
454
100
AcDbEntity
  8
1
 62
     2
100
AcDbTrace
 10
2023.55695293258
 20
15.18297833745619
 30
0.0
 11
2023.55695293258
 21
17.25650517445767
 31
0.0
 12
2031.43195293258
 22
16.21974175595693
 32
0.0
 13
2031.43195293258
 23
16.21974175595693
 33
0.0
  0
SOLID
  5
459
330
454
100
AcDbEntity
  8
1
 62
     2
100
AcDbTrace
 10
1789.306952932581
 20
17.25650517445767
 30
0.0
 11
1789.306952932581
 21
15.18297833745619
 31
0.0
 12
1781.431952932581
 22
16.21974175595693
 32
0.0
 13
1781.431952932581
 23
16.21974175595693
 33
0.0
  0
MTEXT
  5
45A
330
454
100
AcDbEntity
  8
1
 62
     2
100
AcDbMText
 10
1880.669452932634
 20
20.71969703189485
 30
0.0
 40
11.25
 41
0.0
 71
     7
 72
     1
  1
\C2;\U+00f8\C2;250
  7
CONVERTER_11
 11
0.9999999999970619
 21
2.424068405545306E-6
 31
0.0
 73
     1
 44
0.60024009603842
  0
ENDBLK
  5
45C
330
454
100
AcDbEntity
  8
0
100
AcDbBlockEnd
  0
BLOCK
  5
468
330
45F
100
AcDbEntity
  8
0
100
AcDbBlockBegin
  2
*D43
 70
     1
 10
0.0
 20
0.0
 30
0.0
  3
*D43
  1

  0
LINE
  5
460
330
45F
100
AcDbEntity
  8
1
  6
Continuous
 62
     2
100
AcDbLine
 10
1748.181952932582
 20
1155.219741755956
 30
0.0
 11
1763.931952932582
 21
1155.219741755956
 31
0.0
  0
LINE
  5
461
330
45F
100
AcDbEntity
  8
1
  6
Continuous
 62
     2
100
AcDbLine
 10
1763.931952932582
 20
1155.219741755956
 30
0.0
 11
1778.931952932581
 21
1155.219741755956
 31
0.0
  0
LINE
  5
462
330
45F
100
AcDbEntity
  8
1
  6
Continuous
 62
     2
100
AcDbLine
 10
1778.931952932581
 20
1155.219741755956
 30
0.0
 11
1840.066927792461
 21
1155.219741755956
 31
0.0
  0
LINE
  5
463
330
45F
100
AcDbEntity
  8
1
  6
Continuous
 62
     2
100
AcDbLine
 10
1763.931952932582
 20
1086.219741755956
 30
0.0
 11
1763.931952932582
 21
1159.719741755956
 31
0.0
  0
LINE
  5
464
330
45F
100
AcDbEntity
  8
1
  6
Continuous
 62
     2
100
AcDbLine
 10
1778.931952932581
 20
1101.219741755956
 30
0.0
 11
1778.931952932581
 21
1159.719741755956
 31
0.0
  0
SOLID
  5
465
330
45F
100
AcDbEntity
  8
1
 62
     2
100
AcDbTrace
 10
1756.056952932582
 20
1154.182978337455
 30
0.0
 11
1756.056952932582
 21
1156.256505174457
 31
0.0
 12
1763.931952932582
 22
1155.219741755956
 32
0.0
 13
1763.931952932582
 23
1155.219741755956
 33
0.0
  0
SOLID
  5
466
330
45F
100
AcDbEntity
  8
1
 62
     2
100
AcDbTrace
 10
1786.806952932581
 20
1156.256505174457
 30
0.0
 11
1786.806952932581
 21
1154.182978337455
 31
0.0
 12
1778.931952932581
 22
1155.219741755956
 32
0.0
 13
1778.931952932581
 23
1155.219741755956
 33
0.0
  0
MTEXT
  5
467
330
45F
100
AcDbEntity
  8
1
 62
     2
100
AcDbMText
 10
1786.066927792461
 20
1159.719741755956
 30
0.0
 40
11.25
 41
0.0
 71
     7
 72
     1
  1
\C2;15\C2;x45%%d
  7
CONVERTER_11
 11
0.9999999999970619
 21
2.424068405545306E-6
 31
0.0
 73
     1
 44
0.60024009603842
  0
ENDBLK
  5
469
330
45F
100
AcDbEntity
  8
0
100
AcDbBlockEnd
  0
BLOCK
  5
475
330
46C
100
AcDbEntity
  8
0
100
AcDbBlockBegin
  2
*D44
 70
     1
 10
0.0
 20
0.0
 30
0.0
  3
*D44
  1

  0
LINE
  5
46D
330
46C
100
AcDbEntity
  8
1
  6
Continuous
 62
     2
100
AcDbLine
 10
1794.681952932581
 20
987.9796759979222
 30
0.0
 11
1778.931952932581
 21
987.9796759979222
 31
0.0
  0
LINE
  5
46E
330
46C
100
AcDbEntity
  8
1
  6
Continuous
 62
     2
100
AcDbLine
 10
1763.931952932582
 20
987.9796759979222
 30
0.0
 11
1778.931952932581
 21
987.9796759979222
 31
0.0
  0
LINE
  5
46F
330
46C
100
AcDbEntity
  8
1
  6
Continuous
 62
     2
100
AcDbLine
 10
1763.931952932582
 20
987.9796759979222
 30
0.0
 11
1740.452678323661
 21
987.9796759979222
 31
0.0
  0
LINE
  5
470
330
46C
100
AcDbEntity
  8
1
  6
Continuous
 62
     2
100
AcDbLine
 10
1763.931952932582
 20
1021.219741755956
 30
0.0
 11
1763.931952932582
 21
983.4796759979222
 31
0.0
  0
LINE
  5
471
330
46C
100
AcDbEntity
  8
1
  6
Continuous
 62
     2
100
AcDbLine
 10
1778.931952932581
 20
1023.219741755956
 30
0.0
 11
1778.931952932581
 21
983.4796759979222
 31
0.0
  0
SOLID
  5
472
330
46C
100
AcDbEntity
  8
1
 62
     2
100
AcDbTrace
 10
1756.056952932582
 20
986.9429125794214
 30
0.0
 11
1756.056952932582
 21
989.0164394164229
 31
0.0
 12
1763.931952932582
 22
987.9796759979222
 32
0.0
 13
1763.931952932582
 23
987.9796759979222
 33
0.0
  0
SOLID
  5
473
330
46C
100
AcDbEntity
  8
1
 62
     2
100
AcDbTrace
 10
1786.806952932581
 20
989.0164394164229
 30
0.0
 11
1786.806952932581
 21
986.9429125794214
 31
0.0
 12
1778.931952932581
 22
987.9796759979222
 32
0.0
 13
1778.931952932581
 23
987.9796759979222
 33
0.0
  0
MTEXT
  5
474
330
46C
100
AcDbEntity
  8
1
 62
     2
100
AcDbMText
 10
1740.452678323661
 20
992.4796759979222
 30
0.0
 40
11.25
 41
0.0
 71
     7
 72
     1
  1
15
  7
CONVERTER_11
 11
0.9999999999970619
 21
2.424068405545306E-6
 31
0.0
 73
     1
 44
0.60024009603842
  0
ENDBLK
  5
476
330
46C
100
AcDbEntity
  8
0
100
AcDbBlockEnd
  0
BLOCK
  5
482
330
479
100
AcDbEntity
  8
0
100
AcDbBlockBegin
  2
*D45
 70
     1
 10
0.0
 20
0.0
 30
0.0
  3
*D45
  1

  0
LINE
  5
47A
330
479
100
AcDbEntity
  8
1
  6
Continuous
 62
     2
100
AcDbLine
 10
1873.031952932582
 20
1070.469741755956
 30
0.0
 11
1873.031952932582
 21
1086.219741755956
 31
0.0
  0
LINE
  5
47B
330
479
100
AcDbEntity
  8
1
  6
Continuous
 62
     2
100
AcDbLine
 10
1873.031952932582
 20
1086.219741755956
 30
0.0
 11
1873.031952932582
 21
1101.219741755956
 31
0.0
  0
LINE
  5
47C
330
479
100
AcDbEntity
  8
1
  6
Continuous
 62
     2
100
AcDbLine
 10
1873.031952932582
 20
1101.219741755956
 30
0.0
 11
1873.031952932582
 21
1126.252843799972
 31
0.0
  0
LINE
  5
47D
330
479
100
AcDbEntity
  8
1
  6
Continuous
 62
     2
100
AcDbLine
 10
1841.931952932581
 20
1086.219741755956
 30
0.0
 11
1877.531952932582
 21
1086.219741755956
 31
0.0
  0
LINE
  5
47E
330
479
100
AcDbEntity
  8
1
  6
Continuous
 62
     2
100
AcDbLine
 10
1843.931952932581
 20
1101.219741755956
 30
0.0
 11
1877.531952932582
 21
1101.219741755956
 31
0.0
  0
SOLID
  5
47F
330
479
100
AcDbEntity
  8
1
 62
     2
100
AcDbTrace
 10
1871.995189514081
 20
1109.094741755956
 30
0.0
 11
1874.068716351083
 21
1109.094741755956
 31
0.0
 12
1873.031952932582
 22
1101.219741755956
 32
0.0
 13
1873.031952932582
 23
1101.219741755956
 33
0.0
  0
SOLID
  5
480
330
479
100
AcDbEntity
  8
1
 62
     2
100
AcDbTrace
 10
1874.068716351083
 20
1078.344741755956
 30
0.0
 11
1871.995189514081
 21
1078.344741755956
 31
0.0
 12
1873.031952932582
 22
1086.219741755956
 32
0.0
 13
1873.031952932582
 23
1086.219741755956
 33
0.0
  0
MTEXT
  5
481
330
479
100
AcDbEntity
  8
1
 62
     2
100
AcDbMText
 10
1868.531952932582
 20
1112.752843799972
 30
0.0
 40
11.25
 41
0.0
 71
     7
 72
     1
  1
15
  7
CONVERTER_11
 11
0.0
 21
1.0
 31
0.0
 73
     1
 44
0.60024009603842
  0
ENDBLK
  5
483
330
479
100
AcDbEntity
  8
0
100
AcDbBlockEnd
  0
BLOCK
  5
491
330
486
100
AcDbEntity
  8
0
100
AcDbBlockBegin
  2
*D46
 70
     1
 10
0.0
 20
0.0
 30
0.0
  3
*D46
  1

  0
LINE
  5
487
330
486
100
AcDbEntity
  8
1
  6
Continuous
 62
     2
100
AcDbLine
 10
2114.032941597189
 20
485.719741755957
 30
0.0
 11
2114.032941597189
 21
285.7197417559572
 31
0.0
  0
LINE
  5
488
330
486
100
AcDbEntity
  8
1
  6
Continuous
 62
     2
100
AcDbLine
 10
2048.181952932581
 20
485.719741755957
 30
0.0
 11
2120.782941597189
 21
485.719741755957
 31
0.0
  0
LINE
  5
489
330
486
100
AcDbEntity
  8
1
  6
Continuous
 62
     2
100
AcDbLine
 10
2048.181952932581
 20
285.7197417559572
 30
0.0
 11
2120.782941597189
 21
285.7197417559572
 31
0.0
  0
LINE
  5
48A
330
486
100
AcDbEntity
  8
1
 62
     2
100
AcDbLine
 10
2114.032941597189
 20
485.719741755957
 30
0.0
 11
2115.514032195048
 21
474.469741755957
 31
0.0
  0
LINE
  5
48B
330
486
100
AcDbEntity
  8
1
 62
     2
100
AcDbLine
 10
2114.032941597189
 20
485.719741755957
 30
0.0
 11
2112.551850999331
 21
474.469741755957
 31
0.0
  0
LINE
  5
48C
330
486
100
AcDbEntity
  8
1
 62
     2
100
AcDbLine
 10
2115.514032195048
 20
474.469741755957
 30
0.0
 11
2112.551850999331
 21
474.469741755957
 31
0.0
  0
LINE
  5
48D
330
486
100
AcDbEntity
  8
1
 62
     2
100
AcDbLine
 10
2114.032941597189
 20
285.7197417559572
 30
0.0
 11
2112.551850999331
 21
296.9697417559572
 31
0.0
  0
LINE
  5
48E
330
486
100
AcDbEntity
  8
1
 62
     2
100
AcDbLine
 10
2114.032941597189
 20
285.7197417559572
 30
0.0
 11
2115.514032195048
 21
296.9697417559572
 31
0.0
  0
LINE
  5
48F
330
486
100
AcDbEntity
  8
1
 62
     2
100
AcDbLine
 10
2112.551850999331
 20
296.9697417559572
 30
0.0
 11
2115.514032195048
 21
296.9697417559572
 31
0.0
  0
MTEXT
  5
490
330
486
100
AcDbEntity
  8
1
 62
     2
100
AcDbMText
 10
2109.532941597189
 20
372.2197417559571
 30
0.0
 40
11.25
 41
0.0
 71
     7
 72
     1
  1
200
  7
CONVERTER_11
 11
0.0
 21
1.0
 31
0.0
 73
     1
 44
0.60024009603842
  0
ENDBLK
  5
492
330
486
100
AcDbEntity
  8
0
100
AcDbBlockEnd
  0
BLOCK
  5
494
330
493
100
AcDbEntity
  8
0
100
AcDbBlockBegin
  2
_CLOSED
 70
     0
 10
0.0
 20
0.0
 30
0.0
  3
_CLOSED
  1

  0
LINE
  5
496
330
493
100
AcDbEntity
  8
0
  6
ByBlock
 62
     0
370
    -2
100
AcDbLine
 10
-1.0
 20
0.166667
 30
0.0
 11
0.0
 21
0.0
 31
0.0
  0
LINE
  5
497
330
493
100
AcDbEntity
  8
0
  6
ByBlock
 62
     0
370
    -2
100
AcDbLine
 10
0.0
 20
0.0
 30
0.0
 11
-1.0
 21
-0.166667
 31
0.0
  0
LINE
  5
498
330
493
100
AcDbEntity
  8
0
  6
ByBlock
 62
     0
370
    -2
100
AcDbLine
 10
-1.0
 20
0.166667
 30
0.0
 11
-1.0
 21
-0.166667
 31
0.0
  0
LINE
  5
499
330
493
100
AcDbEntity
  8
0
  6
ByBlock
 62
     0
370
    -2
100
AcDbLine
 10
0.0
 20
0.0
 30
0.0
 11
-1.0
 21
0.0
 31
0.0
  0
ENDBLK
  5
495
330
493
100
AcDbEntity
  8
0
100
AcDbBlockEnd
  0
BLOCK
  5
4A4
330
49C
100
AcDbEntity
  8
0
100
AcDbBlockBegin
  2
*D48
 70
     1
 10
0.0
 20
0.0
 30
0.0
  3
*D48
  1

  0
LINE
  5
49D
330
49C
100
AcDbEntity
  8
1
  6
Continuous
 62
     2
100
AcDbLine
 10
1606.431952932582
 20
490.719741755957
 30
0.0
 11
1606.431952932582
 21
595.719741755957
 31
0.0
  0
LINE
  5
49E
330
49C
100
AcDbEntity
  8
1
  6
Continuous
 62
     2
100
AcDbLine
 10
1876.431952932581
 20
595.719741755957
 30
0.0
 11
1601.931952932582
 21
595.719741755957
 31
0.0
  0
LINE
  5
49F
330
49C
100
AcDbEntity
  8
1
  6
Continuous
 62
     2
100
AcDbLine
 10
1790.431952932581
 20
490.719741755957
 30
0.0
 11
1705.431952932582
 21
490.719741755957
 31
0.0
  0
LINE
  5
4A0
330
49C
100
AcDbEntity
  8
1
  6
Continuous
 62
     2
100
AcDbLine
 10
1696.431952932582
 20
490.719741755957
 30
0.0
 11
1601.931952932582
 21
490.719741755957
 31
0.0
  0
SOLID
  5
4A1
330
49C
100
AcDbEntity
  8
1
 62
     2
100
AcDbTrace
 10
1607.468716351083
 20
587.844741755957
 30
0.0
 11
1605.395189514081
 21
587.844741755957
 31
0.0
 12
1606.431952932582
 22
595.719741755957
 32
0.0
 13
1606.431952932582
 23
595.719741755957
 33
0.0
  0
SOLID
  5
4A2
330
49C
100
AcDbEntity
  8
1
 62
     2
100
AcDbTrace
 10
1605.395189514081
 20
498.594741755957
 30
0.0
 11
1607.468716351083
 21
498.594741755957
 31
0.0
 12
1606.431952932582
 22
490.719741755957
 32
0.0
 13
1606.431952932582
 23
490.719741755957
 33
0.0
  0
MTEXT
  5
4A3
330
49C
100
AcDbEntity
  8
1
 62
     2
100
AcDbMText
 10
1601.931952932582
 20
539.828262548658
 30
0.0
 40
11.25
 41
0.0
 71
     7
 72
     1
  1
102
  7
CONVERTER_11
 11
0.0
 21
1.0
 31
0.0
 73
     1
 44
0.60024009603842
  0
ENDBLK
  5
4A5
330
49C
100
AcDbEntity
  8
0
100
AcDbBlockEnd
  0
BLOCK
  5
4AF
330
4A8
100
AcDbEntity
  8
0
100
AcDbBlockBegin
  2
*D49
 70
     1
 10
0.0
 20
0.0
 30
0.0
  3
*D49
  1

  0
LINE
  5
4A9
330
4A8
100
AcDbEntity
  8
1
  6
Continuous
 62
     2
100
AcDbLine
 10
1606.431952932582
 20
110.7197417559568
 30
0.0
 11
1606.431952932582
 21
220.7197417559571
 31
0.0
  0
LINE
  5
4AA
330
4A8
100
AcDbEntity
  8
1
  6
Continuous
 62
     2
100
AcDbLine
 10
1781.431952932581
 20
220.7197417559571
 30
0.0
 11
1601.931952932582
 21
220.7197417559571
 31
0.0
  0
LINE
  5
4AB
330
4A8
100
AcDbEntity
  8
1
  6
Continuous
 62
     2
100
AcDbLine
 10
1876.431952932581
 20
110.7197417559568
 30
0.0
 11
1601.931952932582
 21
110.7197417559568
 31
0.0
  0
SOLID
  5
4AC
330
4A8
100
AcDbEntity
  8
1
 62
     2
100
AcDbTrace
 10
1607.468716351083
 20
212.8447417559571
 30
0.0
 11
1605.395189514081
 21
212.8447417559571
 31
0.0
 12
1606.431952932582
 22
220.7197417559571
 32
0.0
 13
1606.431952932582
 23
220.7197417559571
 33
0.0
  0
SOLID
  5
4AD
330
4A8
100
AcDbEntity
  8
1
 62
     2
100
AcDbTrace
 10
1605.395189514081
 20
118.5947417559568
 30
0.0
 11
1607.468716351083
 21
118.5947417559568
 31
0.0
 12
1606.431952932582
 22
110.7197417559568
 32
0.0
 13
1606.431952932582
 23
110.7197417559568
 33
0.0
  0
MTEXT
  5
4AE
330
4A8
100
AcDbEntity
  8
1
 62
     2
100
AcDbMText
 10
1601.931952932582
 20
153.907241755957
 30
0.0
 40
11.25
 41
0.0
 71
     7
 72
     1
  1
106
  7
CONVERTER_11
 11
0.0
 21
1.0
 31
0.0
 73
     1
 44
0.60024009603842
  0
ENDBLK
  5
4B0
330
4A8
100
AcDbEntity
  8
0
100
AcDbBlockEnd
  0
BLOCK
  5
4BB
330
4B3
100
AcDbEntity
  8
0
100
AcDbBlockBegin
  2
*D50
 70
     1
 10
0.0
 20
0.0
 30
0.0
  3
*D50
  1

  0
LINE
  5
4B4
330
4B3
100
AcDbEntity
  8
1
  6
Continuous
 62
     2
100
AcDbLine
 10
1606.431952932582
 20
220.7197417559572
 30
0.0
 11
1606.431952932582
 21
490.719741755957
 31
0.0
  0
LINE
  5
4B5
330
4B3
100
AcDbEntity
  8
1
  6
Continuous
 62
     2
100
AcDbLine
 10
1790.431952932581
 20
490.719741755957
 30
0.0
 11
1705.431952932582
 21
490.719741755957
 31
0.0
  0
LINE
  5
4B6
330
4B3
100
AcDbEntity
  8
1
  6
Continuous
 62
     2
100
AcDbLine
 10
1696.431952932582
 20
490.719741755957
 30
0.0
 11
1601.931952932582
 21
490.719741755957
 31
0.0
  0
LINE
  5
4B7
330
4B3
100
AcDbEntity
  8
1
  6
Continuous
 62
     2
100
AcDbLine
 10
1781.431952932581
 20
220.7197417559572
 30
0.0
 11
1601.931952932582
 21
220.7197417559572
 31
0.0
  0
SOLID
  5
4B8
330
4B3
100
AcDbEntity
  8
1
 62
     2
100
AcDbTrace
 10
1607.468716351083
 20
482.844741755957
 30
0.0
 11
1605.395189514081
 21
482.844741755957
 31
0.0
 12
1606.431952932582
 22
490.719741755957
 32
0.0
 13
1606.431952932582
 23
490.719741755957
 33
0.0
  0
SOLID
  5
4B9
330
4B3
100
AcDbEntity
  8
1
 62
     2
100
AcDbTrace
 10
1605.395189514081
 20
228.5947417559572
 30
0.0
 11
1607.468716351083
 21
228.5947417559572
 31
0.0
 12
1606.431952932582
 22
220.7197417559572
 32
0.0
 13
1606.431952932582
 23
220.7197417559572
 33
0.0
  0
MTEXT
  5
4BA
330
4B3
100
AcDbEntity
  8
1
 62
     2
100
AcDbMText
 10
1601.931952932582
 20
342.2197417559571
 30
0.0
 40
11.25
 41
0.0
 71
     7
 72
     1
  1
268
  7
CONVERTER_11
 11
0.0
 21
1.0
 31
0.0
 73
     1
 44
0.60024009603842
  0
ENDBLK
  5
4BC
330
4B3
100
AcDbEntity
  8
0
100
AcDbBlockEnd
  0
BLOCK
  5
4C6
330
4BF
100
AcDbEntity
  8
0
100
AcDbBlockBegin
  2
*D51
 70
     1
 10
0.0
 20
0.0
 30
0.0
  3
*D51
  1

  0
LINE
  5
4C0
330
4BF
100
AcDbEntity
  8
1
  6
Continuous
 62
     2
100
AcDbLine
 10
2062.931952932581
 20
115.7197417559572
 30
0.0
 11
2062.931952932581
 21
185.7197417559572
 31
0.0
  0
LINE
  5
4C1
330
4BF
100
AcDbEntity
  8
1
  6
Continuous
 62
     2
100
AcDbLine
 10
1906.431952932581
 20
115.7197417559572
 30
0.0
 11
2067.431952932581
 21
115.7197417559572
 31
0.0
  0
LINE
  5
4C2
330
4BF
100
AcDbEntity
  8
1
  6
Continuous
 62
     2
100
AcDbLine
 10
1906.431952932581
 20
185.7197417559572
 30
0.0
 11
2067.431952932581
 21
185.7197417559572
 31
0.0
  0
SOLID
  5
4C3
330
4BF
100
AcDbEntity
  8
1
 62
     2
100
AcDbTrace
 10
2063.968716351082
 20
177.8447417559572
 30
0.0
 11
2061.89518951408
 21
177.8447417559572
 31
0.0
 12
2062.931952932581
 22
185.7197417559572
 32
0.0
 13
2062.931952932581
 23
185.7197417559572
 33
0.0
  0
SOLID
  5
4C4
330
4BF
100
AcDbEntity
  8
1
 62
     2
100
AcDbTrace
 10
2061.89518951408
 20
123.5947417559572
 30
0.0
 11
2063.968716351082
 21
123.5947417559572
 31
0.0
 12
2062.931952932581
 22
115.7197417559572
 32
0.0
 13
2062.931952932581
 23
115.7197417559572
 33
0.0
  0
MTEXT
  5
4C5
330
4BF
100
AcDbEntity
  8
1
 62
     2
100
AcDbMText
 10
2058.431952932581
 20
145.1140255832654
 30
0.0
 40
11.25
 41
0.0
 71
     7
 72
     1
  1
70
  7
CONVERTER_11
 11
0.0
 21
1.0
 31
0.0
 73
     1
 44
0.60024009603842
  0
ENDBLK
  5
4C7
330
4BF
100
AcDbEntity
  8
0
100
AcDbBlockEnd
  0
BLOCK
  5
4D3
330
4CA
100
AcDbEntity
  8
0
100
AcDbBlockBegin
  2
*D52
 70
     1
 10
0.0
 20
0.0
 30
0.0
  3
*D52
  1

  0
LINE
  5
4CB
330
4CA
100
AcDbEntity
  8
1
  6
Continuous
 62
     2
100
AcDbLine
 10
2062.931952932581
 20
131.4697417559572
 30
0.0
 11
2062.931952932581
 21
115.7197417559572
 31
0.0
  0
LINE
  5
4CC
330
4CA
100
AcDbEntity
  8
1
  6
Continuous
 62
     2
100
AcDbLine
 10
2062.931952932581
 20
110.7197417559569
 30
0.0
 11
2062.931952932581
 21
115.7197417559572
 31
0.0
  0
LINE
  5
4CD
330
4CA
100
AcDbEntity
  8
1
  6
Continuous
 62
     2
100
AcDbLine
 10
2062.931952932581
 20
110.7197417559569
 30
0.0
 11
2062.931952932581
 21
91.17127315774798
 31
0.0
  0
LINE
  5
4CE
330
4CA
100
AcDbEntity
  8
1
  6
Continuous
 62
     2
100
AcDbLine
 10
1936.431952932581
 20
110.7197417559569
 30
0.0
 11
2067.431952932581
 21
110.7197417559569
 31
0.0
  0
LINE
  5
4CF
330
4CA
100
AcDbEntity
  8
1
  6
Continuous
 62
     2
100
AcDbLine
 10
1906.431952932581
 20
115.7197417559572
 30
0.0
 11
2067.431952932581
 21
115.7197417559572
 31
0.0
  0
SOLID
  5
4D0
330
4CA
100
AcDbEntity
  8
1
 62
     2
100
AcDbTrace
 10
2061.89518951408
 20
123.5947417559572
 30
0.0
 11
2063.968716351082
 21
123.5947417559572
 31
0.0
 12
2062.931952932581
 22
115.7197417559572
 32
0.0
 13
2062.931952932581
 23
115.7197417559572
 33
0.0
  0
SOLID
  5
4D1
330
4CA
100
AcDbEntity
  8
1
 62
     2
100
AcDbTrace
 10
2063.968716351082
 20
102.8447417559569
 30
0.0
 11
2061.89518951408
 21
102.8447417559569
 31
0.0
 12
2062.931952932581
 22
110.7197417559569
 32
0.0
 13
2062.931952932581
 23
110.7197417559569
 33
0.0
  0
MTEXT
  5
4D2
330
4CA
100
AcDbEntity
  8
1
 62
     2
100
AcDbMText
 10
2058.431952932581
 20
91.17127315774798
 30
0.0
 40
11.25
 41
0.0
 71
     7
 72
     1
  1
5
  7
CONVERTER_11
 11
0.0
 21
1.0
 31
0.0
 73
     1
 44
0.60024009603842
  0
ENDBLK
  5
4D4
330
4CA
100
AcDbEntity
  8
0
100
AcDbBlockEnd
  0
BLOCK
  5
4DE
330
4D7
100
AcDbEntity
  8
0
100
AcDbBlockBegin
  2
*D53
 70
     1
 10
0.0
 20
0.0
 30
0.0
  3
*D53
  1

  0
LINE
  5
4D8
330
4D7
100
AcDbEntity
  8
1
  6
Continuous
 62
     2
100
AcDbLine
 10
1763.931952932582
 20
1218.219741755956
 30
0.0
 11
1906.431952932581
 21
1218.219741755956
 31
0.0
  0
LINE
  5
4D9
330
4D7
100
AcDbEntity
  8
1
  6
Continuous
 62
     2
100
AcDbLine
 10
1763.931952932582
 20
1086.219741755956
 30
0.0
 11
1763.931952932582
 21
1222.719741755956
 31
0.0
  0
LINE
  5
4DA
330
4D7
100
AcDbEntity
  8
1
  6
Continuous
 62
     2
100
AcDbLine
 10
1906.431952932581
 20
1104.309912307594
 30
0.0
 11
1906.431952932581
 21
1222.719741755956
 31
0.0
  0
SOLID
  5
4DB
330
4D7
100
AcDbEntity
  8
1
 62
     2
100
AcDbTrace
 10
1771.806952932582
 20
1219.256505174457
 30
0.0
 11
1771.806952932582
 21
1217.182978337455
 31
0.0
 12
1763.931952932582
 22
1218.219741755956
 32
0.0
 13
1763.931952932582
 23
1218.219741755956
 33
0.0
  0
SOLID
  5
4DC
330
4D7
100
AcDbEntity
  8
1
 62
     2
100
AcDbTrace
 10
1898.556952932581
 20
1217.182978337455
 30
0.0
 11
1898.556952932581
 21
1219.256505174457
 31
0.0
 12
1906.431952932581
 22
1218.219741755956
 32
0.0
 13
1906.431952932581
 23
1218.219741755956
 33
0.0
  0
MTEXT
  5
4DD
330
4D7
100
AcDbEntity
  8
1
 62
     2
100
AcDbMText
 10
1817.568889777332
 20
1223.844741755956
 30
0.0
 40
11.25
 41
0.0
 71
     7
 72
     1
  1
142,5
  7
CONVERTER_11
 11
0.9999999999970619
 21
2.424068405545306E-6
 31
0.0
 73
     1
 44
0.60024009603842
  0
ENDBLK
  5
4DF
330
4D7
100
AcDbEntity
  8
0
100
AcDbBlockEnd
  0
BLOCK
  5
4E9
330
4E2
100
AcDbEntity
  8
0
100
AcDbBlockBegin
  2
*D54
 70
     1
 10
0.0
 20
0.0
 30
0.0
  3
*D54
  1

  0
LINE
  5
4E3
330
4E2
100
AcDbEntity
  8
1
  6
Continuous
 62
     2
100
AcDbLine
 10
1763.931952932582
 20
1249.719741755956
 30
0.0
 11
2185.931952932581
 21
1249.719741755956
 31
0.0
  0
LINE
  5
4E4
330
4E2
100
AcDbEntity
  8
1
  6
Continuous
 62
     2
100
AcDbLine
 10
1763.931952932582
 20
1086.219741755956
 30
0.0
 11
1763.931952932582
 21
1254.219741755956
 31
0.0
  0
LINE
  5
4E5
330
4E2
100
AcDbEntity
  8
1
  6
Continuous
 62
     2
100
AcDbLine
 10
2185.931952932581
 20
1155.219741755956
 30
0.0
 11
2185.931952932581
 21
1254.219741755956
 31
0.0
  0
SOLID
  5
4E6
330
4E2
100
AcDbEntity
  8
1
 62
     2
100
AcDbTrace
 10
2178.056952932581
 20
1248.682978337455
 30
0.0
 11
2178.056952932581
 21
1250.756505174457
 31
0.0
 12
2185.931952932581
 22
1249.719741755956
 32
0.0
 13
2185.931952932581
 23
1249.719741755956
 33
0.0
  0
SOLID
  5
4E7
330
4E2
100
AcDbEntity
  8
1
 62
     2
100
AcDbTrace
 10
1771.806952932582
 20
1250.756505174457
 30
0.0
 11
1771.806952932582
 21
1248.682978337455
 31
0.0
 12
1763.931952932582
 22
1249.719741755956
 32
0.0
 13
1763.931952932582
 23
1249.719741755956
 33
0.0
  0
MTEXT
  5
4E8
330
4E2
100
AcDbEntity
  8
1
 62
     2
100
AcDbMText
 10
1972.497550844872
 20
1254.219741755956
 30
0.0
 40
11.25
 41
0.0
 71
     7
 72
     1
  1
L
  7
CONVERTER_11
 11
0.9999999999970619
 21
2.424068405545306E-6
 31
0.0
 73
     1
 44
0.60024009603842
  0
ENDBLK
  5
4EA
330
4E2
100
AcDbEntity
  8
0
100
AcDbBlockEnd
  0
BLOCK
  5
4F4
330
4ED
100
AcDbEntity
  8
0
100
AcDbBlockBegin
  2
*D55
 70
     1
 10
0.0
 20
0.0
 30
0.0
  3
*D55
  1

  0
LINE
  5
4EE
330
4ED
100
AcDbEntity
  8
1
  6
Continuous
 62
     2
100
AcDbLine
 10
2217.43195293258
 20
1030.219741755956
 30
0.0
 11
2217.43195293258
 21
1101.219741755956
 31
0.0
  0
LINE
  5
4EF
330
4ED
100
AcDbEntity
  8
1
  6
Continuous
 62
     2
100
AcDbLine
 10
2201.482644102964
 20
1030.219741755956
 30
0.0
 11
2221.93195293258
 21
1030.219741755956
 31
0.0
  0
LINE
  5
4F0
330
4ED
100
AcDbEntity
  8
1
  6
Continuous
 62
     2
100
AcDbLine
 10
2033.93195293258
 20
1101.219741755956
 30
0.0
 11
2221.93195293258
 21
1101.219741755956
 31
0.0
  0
SOLID
  5
4F1
330
4ED
100
AcDbEntity
  8
1
 62
     2
100
AcDbTrace
 10
2218.468716351081
 20
1093.344741755956
 30
0.0
 11
2216.395189514079
 21
1093.344741755956
 31
0.0
 12
2217.43195293258
 22
1101.219741755956
 32
0.0
 13
2217.43195293258
 23
1101.219741755956
 33
0.0
  0
SOLID
  5
4F2
330
4ED
100
AcDbEntity
  8
1
 62
     2
100
AcDbTrace
 10
2216.395189514079
 20
1038.094741755956
 30
0.0
 11
2218.468716351081
 21
1038.094741755956
 31
0.0
 12
2217.43195293258
 22
1030.219741755956
 32
0.0
 13
2217.43195293258
 23
1030.219741755956
 33
0.0
  0
MTEXT
  5
4F3
330
4ED
100
AcDbEntity
  8
1
 62
     2
100
AcDbMText
 10
2212.93195293258
 20
1059.479961938882
 30
0.0
 40
11.25
 41
0.0
 71
     7
 72
     1
  1
71
  7
CONVERTER_11
 11
0.0
 21
1.0
 31
0.0
 73
     1
 44
0.60024009603842
  0
ENDBLK
  5
4F5
330
4ED
100
AcDbEntity
  8
0
100
AcDbBlockEnd
  0
BLOCK
  5
4FF
330
4F8
100
AcDbEntity
  8
0
100
AcDbBlockBegin
  2
*D56
 70
     1
 10
0.0
 20
0.0
 30
0.0
  3
*D56
  1

  0
LINE
  5
4F9
330
4F8
100
AcDbEntity
  8
1
  6
Continuous
 62
     2
100
AcDbLine
 10
2217.43195293258
 20
816.219741755957
 30
0.0
 11
2217.43195293258
 21
926.2197417559571
 31
0.0
  0
LINE
  5
4FA
330
4F8
100
AcDbEntity
  8
1
  6
Continuous
 62
     2
100
AcDbLine
 10
2033.93195293258
 20
816.219741755957
 30
0.0
 11
2221.93195293258
 21
816.219741755957
 31
0.0
  0
LINE
  5
4FB
330
4F8
100
AcDbEntity
  8
1
  6
Continuous
 62
     2
100
AcDbLine
 10
2052.239454355369
 20
926.2197417559571
 30
0.0
 11
2221.93195293258
 21
926.2197417559571
 31
0.0
  0
SOLID
  5
4FC
330
4F8
100
AcDbEntity
  8
1
 62
     2
100
AcDbTrace
 10
2218.468716351081
 20
918.3447417559571
 30
0.0
 11
2216.395189514079
 21
918.3447417559571
 31
0.0
 12
2217.43195293258
 22
926.2197417559571
 32
0.0
 13
2217.43195293258
 23
926.2197417559571
 33
0.0
  0
SOLID
  5
4FD
330
4F8
100
AcDbEntity
  8
1
 62
     2
100
AcDbTrace
 10
2216.395189514079
 20
824.094741755957
 30
0.0
 11
2218.468716351081
 21
824.094741755957
 31
0.0
 12
2217.43195293258
 22
816.219741755957
 32
0.0
 13
2217.43195293258
 23
816.219741755957
 33
0.0
  0
MTEXT
  5
4FE
330
4F8
100
AcDbEntity
  8
1
 62
     2
100
AcDbMText
 10
2212.93195293258
 20
853.9709895082201
 30
0.0
 40
11.25
 41
0.0
 71
     7
 72
     1
  1
110
  7
CONVERTER_11
 11
0.0
 21
1.0
 31
0.0
 73
     1
 44
0.60024009603842
  0
ENDBLK
  5
500
330
4F8
100
AcDbEntity
  8
0
100
AcDbBlockEnd
  0
BLOCK
  5
50A
330
503
100
AcDbEntity
  8
0
100
AcDbBlockBegin
  2
*D57
 70
     1
 10
0.0
 20
0.0
 30
0.0
  3
*D57
  1

  0
LINE
  5
504
330
503
100
AcDbEntity
  8
1
  6
Continuous
 62
     2
100
AcDbLine
 10
2217.43195293258
 20
926.2197417559571
 30
0.0
 11
2217.43195293258
 21
1030.219741755956
 31
0.0
  0
LINE
  5
505
330
503
100
AcDbEntity
  8
1
  6
Continuous
 62
     2
100
AcDbLine
 10
2052.239454355369
 20
926.2197417559571
 30
0.0
 11
2221.93195293258
 21
926.2197417559571
 31
0.0
  0
LINE
  5
506
330
503
100
AcDbEntity
  8
1
  6
Continuous
 62
     2
100
AcDbLine
 10
2201.482644102964
 20
1030.219741755956
 30
0.0
 11
2221.93195293258
 21
1030.219741755956
 31
0.0
  0
SOLID
  5
507
330
503
100
AcDbEntity
  8
1
 62
     2
100
AcDbTrace
 10
2218.468716351081
 20
1022.344741755956
 30
0.0
 11
2216.395189514079
 21
1022.344741755956
 31
0.0
 12
2217.43195293258
 22
1030.219741755956
 32
0.0
 13
2217.43195293258
 23
1030.219741755956
 33
0.0
  0
SOLID
  5
508
330
503
100
AcDbEntity
  8
1
 62
     2
100
AcDbTrace
 10
2216.395189514079
 20
934.0947417559571
 30
0.0
 11
2218.468716351081
 21
934.0947417559571
 31
0.0
 12
2217.43195293258
 22
926.2197417559571
 32
0.0
 13
2217.43195293258
 23
926.2197417559571
 33
0.0
  0
MTEXT
  5
509
330
503
100
AcDbEntity
  8
1
 62
     2
100
AcDbMText
 10
2212.93195293258
 20
965.171175865692
 30
0.0
 40
11.25
 41
0.0
 71
     7
 72
     1
  1
104
  7
CONVERTER_11
 11
0.0
 21
1.0
 31
0.0
 73
     1
 44
0.60024009603842
  0
ENDBLK
  5
50B
330
503
100
AcDbEntity
  8
0
100
AcDbBlockEnd
  0
BLOCK
  5
51B
330
50E
100
AcDbEntity
  8
0
100
AcDbBlockBegin
  2
*D58
 70
     1
 10
0.0
 20
0.0
 30
0.0
  3
*D58
  1

  0
LINE
  5
50F
330
50E
100
AcDbEntity
  8
1
  6
Continuous
 62
     2
100
AcDbLine
 10
2079.565416577222
 20
508.219741755957
 30
0.0
 11
2079.565416577222
 21
485.719741755957
 31
0.0
  0
LINE
  5
510
330
50E
100
AcDbEntity
  8
1
  6
Continuous
 62
     2
100
AcDbLine
 10
2079.565416577222
 20
485.719741755957
 30
0.0
 11
2079.565416577222
 21
470.719741755957
 31
0.0
  0
LINE
  5
511
330
50E
100
AcDbEntity
  8
1
  6
Continuous
 62
     2
100
AcDbLine
 10
2079.565416577222
 20
470.719741755957
 30
0.0
 11
2079.565416577222
 21
448.219741755957
 31
0.0
  0
LINE
  5
512
330
50E
100
AcDbEntity
  8
1
  6
Continuous
 62
     2
100
AcDbLine
 10
2036.181952932581
 20
485.719741755957
 30
0.0
 11
2086.315416577222
 21
485.719741755957
 31
0.0
  0
LINE
  5
513
330
50E
100
AcDbEntity
  8
1
  6
Continuous
 62
     2
100
AcDbLine
 10
2024.303691750908
 20
470.719741755957
 30
0.0
 11
2086.315416577222
 21
470.719741755957
 31
0.0
  0
LINE
  5
514
330
50E
100
AcDbEntity
  8
1
 62
     2
100
AcDbLine
 10
2079.565416577222
 20
485.719741755957
 30
0.0
 11
2078.084325979364
 21
496.969741755957
 31
0.0
  0
LINE
  5
515
330
50E
100
AcDbEntity
  8
1
 62
     2
100
AcDbLine
 10
2079.565416577222
 20
485.719741755957
 30
0.0
 11
2081.04650717508
 21
496.969741755957
 31
0.0
  0
LINE
  5
516
330
50E
100
AcDbEntity
  8
1
 62
     2
100
AcDbLine
 10
2078.084325979364
 20
496.969741755957
 30
0.0
 11
2081.04650717508
 21
496.969741755957
 31
0.0
  0
LINE
  5
517
330
50E
100
AcDbEntity
  8
1
 62
     2
100
AcDbLine
 10
2079.565416577222
 20
470.719741755957
 30
0.0
 11
2081.04650717508
 21
459.469741755957
 31
0.0
  0
LINE
  5
518
330
50E
100
AcDbEntity
  8
1
 62
     2
100
AcDbLine
 10
2079.565416577222
 20
470.719741755957
 30
0.0
 11
2078.084325979364
 21
459.469741755957
 31
0.0
  0
LINE
  5
519
330
50E
100
AcDbEntity
  8
1
 62
     2
100
AcDbLine
 10
2081.04650717508
 20
459.469741755957
 30
0.0
 11
2078.084325979364
 21
459.469741755957
 31
0.0
  0
MTEXT
  5
51A
330
50E
100
AcDbEntity
  8
1
 62
     2
100
AcDbMText
 10
2075.065416577222
 20
490.5555310482112
 30
0.0
 40
11.25
 41
0.0
 71
     7
 72
     1
  1
15
  7
CONVERTER_11
 11
0.0
 21
1.0
 31
0.0
 73
     1
 44
0.60024009603842
  0
ENDBLK
  5
51C
330
50E
100
AcDbEntity
  8
0
100
AcDbBlockEnd
  0
BLOCK
  5
52C
330
51F
100
AcDbEntity
  8
0
100
AcDbBlockBegin
  2
*D59
 70
     1
 10
0.0
 20
0.0
 30
0.0
  3
*D59
  1

  0
LINE
  5
520
330
51F
100
AcDbEntity
  8
1
  6
Continuous
 62
     2
100
AcDbLine
 10
2079.565416577222
 20
323.2197417559572
 30
0.0
 11
2079.565416577222
 21
300.7197417559572
 31
0.0
  0
LINE
  5
521
330
51F
100
AcDbEntity
  8
1
  6
Continuous
 62
     2
100
AcDbLine
 10
2079.565416577222
 20
300.7197417559572
 30
0.0
 11
2079.565416577222
 21
285.7197417559572
 31
0.0
  0
LINE
  5
522
330
51F
100
AcDbEntity
  8
1
  6
Continuous
 62
     2
100
AcDbLine
 10
2079.565416577222
 20
285.7197417559572
 30
0.0
 11
2079.565416577222
 21
263.2197417559572
 31
0.0
  0
LINE
  5
523
330
51F
100
AcDbEntity
  8
1
  6
Continuous
 62
     2
100
AcDbLine
 10
2024.303691750908
 20
300.7197417559572
 30
0.0
 11
2086.315416577222
 21
300.7197417559572
 31
0.0
  0
LINE
  5
524
330
51F
100
AcDbEntity
  8
1
  6
Continuous
 62
     2
100
AcDbLine
 10
2048.181952932581
 20
285.7197417559572
 30
0.0
 11
2086.315416577222
 21
285.7197417559572
 31
0.0
  0
LINE
  5
525
330
51F
100
AcDbEntity
  8
1
 62
     2
100
AcDbLine
 10
2079.565416577222
 20
300.7197417559572
 30
0.0
 11
2078.084325979364
 21
311.9697417559572
 31
0.0
  0
LINE
  5
526
330
51F
100
AcDbEntity
  8
1
 62
     2
100
AcDbLine
 10
2079.565416577222
 20
300.7197417559572
 30
0.0
 11
2081.04650717508
 21
311.9697417559572
 31
0.0
  0
LINE
  5
527
330
51F
100
AcDbEntity
  8
1
 62
     2
100
AcDbLine
 10
2078.084325979364
 20
311.9697417559572
 30
0.0
 11
2081.04650717508
 21
311.9697417559572
 31
0.0
  0
LINE
  5
528
330
51F
100
AcDbEntity
  8
1
 62
     2
100
AcDbLine
 10
2079.565416577222
 20
285.7197417559572
 30
0.0
 11
2081.04650717508
 21
274.4697417559572
 31
0.0
  0
LINE
  5
529
330
51F
100
AcDbEntity
  8
1
 62
     2
100
AcDbLine
 10
2079.565416577222
 20
285.7197417559572
 30
0.0
 11
2078.084325979364
 21
274.4697417559572
 31
0.0
  0
LINE
  5
52A
330
51F
100
AcDbEntity
  8
1
 62
     2
100
AcDbLine
 10
2081.04650717508
 20
274.4697417559572
 30
0.0
 11
2078.084325979364
 21
274.4697417559572
 31
0.0
  0
MTEXT
  5
52B
330
51F
100
AcDbEntity
  8
1
 62
     2
100
AcDbMText
 10
2074.170156187093
 20
266.2928033208927
 30
0.0
 40
11.25
 41
0.0
 71
     7
 72
     1
  1
15
  7
CONVERTER_11
 11
0.0
 21
1.0
 31
0.0
 73
     1
 44
0.60024009603842
  0
ENDBLK
  5
52D
330
51F
100
AcDbEntity
  8
0
100
AcDbBlockEnd
  0
BLOCK
  5
53B
330
530
100
AcDbEntity
  8
0
100
AcDbBlockBegin
  2
*D60
 70
     1
 10
0.0
 20
0.0
 30
0.0
  3
*D60
  1

  0
LINE
  5
531
330
530
100
AcDbEntity
  8
1
  6
Continuous
 62
     2
100
AcDbLine
 10
2079.565416577222
 20
470.719741755957
 30
0.0
 11
2079.565416577222
 21
300.7197417559572
 31
0.0
  0
LINE
  5
532
330
530
100
AcDbEntity
  8
1
  6
Continuous
 62
     2
100
AcDbLine
 10
2024.303691750908
 20
470.719741755957
 30
0.0
 11
2086.315416577222
 21
470.719741755957
 31
0.0
  0
LINE
  5
533
330
530
100
AcDbEntity
  8
1
  6
Continuous
 62
     2
100
AcDbLine
 10
2024.303691750908
 20
300.7197417559572
 30
0.0
 11
2086.315416577222
 21
300.7197417559572
 31
0.0
  0
LINE
  5
534
330
530
100
AcDbEntity
  8
1
 62
     2
100
AcDbLine
 10
2079.565416577222
 20
470.719741755957
 30
0.0
 11
2081.04650717508
 21
459.469741755957
 31
0.0
  0
LINE
  5
535
330
530
100
AcDbEntity
  8
1
 62
     2
100
AcDbLine
 10
2079.565416577222
 20
470.719741755957
 30
0.0
 11
2078.084325979364
 21
459.469741755957
 31
0.0
  0
LINE
  5
536
330
530
100
AcDbEntity
  8
1
 62
     2
100
AcDbLine
 10
2081.04650717508
 20
459.469741755957
 30
0.0
 11
2078.084325979364
 21
459.469741755957
 31
0.0
  0
LINE
  5
537
330
530
100
AcDbEntity
  8
1
 62
     2
100
AcDbLine
 10
2079.565416577222
 20
300.7197417559572
 30
0.0
 11
2078.084325979364
 21
311.9697417559572
 31
0.0
  0
LINE
  5
538
330
530
100
AcDbEntity
  8
1
 62
     2
100
AcDbLine
 10
2079.565416577222
 20
300.7197417559572
 30
0.0
 11
2081.04650717508
 21
311.9697417559572
 31
0.0
  0
LINE
  5
539
330
530
100
AcDbEntity
  8
1
 62
     2
100
AcDbLine
 10
2078.084325979364
 20
311.9697417559572
 30
0.0
 11
2081.04650717508
 21
311.9697417559572
 31
0.0
  0
MTEXT
  5
53A
330
530
100
AcDbEntity
  8
1
 62
     2
100
AcDbMText
 10
2075.065416577222
 20
373.9072417559571
 30
0.0
 40
11.25
 41
0.0
 71
     7
 72
     1
  1
170
  7
CONVERTER_11
 11
0.0
 21
1.0
 31
0.0
 73
     1
 44
0.60024009603842
  0
ENDBLK
  5
53C
330
530
100
AcDbEntity
  8
0
100
AcDbBlockEnd
  0
BLOCK
  5
544
330
53F
100
AcDbEntity
  8
0
100
AcDbBlockBegin
  2
*D61
 70
     1
 10
0.0
 20
0.0
 30
0.0
  3
*D61
  1

  0
LINE
  5
540
330
53F
100
AcDbEntity
  8
1
  6
Continuous
 62
     2
100
AcDbLine
 10
2248.931952932581
 20
1155.219741755956
 30
0.0
 11
2248.931952932581
 21
1053.969101967312
 31
0.0
  0
LINE
  5
541
330
53F
100
AcDbEntity
  8
1
  6
Continuous
 62
     2
100
AcDbLine
 10
2185.931952932581
 20
1155.219741755956
 30
0.0
 11
2253.431952932581
 21
1155.219741755956
 31
0.0
  0
SOLID
  5
542
330
53F
100
AcDbEntity
  8
1
 62
     2
100
AcDbTrace
 10
2249.968716351082
 20
1147.344741755956
 30
0.0
 11
2247.89518951408
 21
1147.344741755956
 31
0.0
 12
2248.931952932581
 22
1155.219741755956
 32
0.0
 13
2248.931952932581
 23
1155.219741755956
 33
0.0
  0
MTEXT
  5
543
330
53F
100
AcDbEntity
  8
1
 62
     2
100
AcDbMText
 10
2244.431952932581
 20
1047.894101967312
 30
0.0
 40
11.25
 41
0.0
 71
     7
 72
     1
  1
\C2;\U+00f8\C2; D
  7
CONVERTER_11
 11
0.0
 21
1.0
 31
0.0
 73
     1
 44
0.60024009603842
  0
ENDBLK
  5
545
330
53F
100
AcDbEntity
  8
0
100
AcDbBlockEnd
  0
BLOCK
  5
54D
330
547
100
AcDbEntity
  8
0
100
AcDbBlockBegin
  2
*D62
 70
     1
 10
0.0
 20
0.0
 30
0.0
  3
*D62
  1

  0
LINE
  5
548
330
547
100
AcDbEntity
  8
1
  6
Continuous
 62
     2
100
AcDbLine
 10
2248.931952932581
 20
880.2197417559565
 30
0.0
 11
2248.931952932581
 21
1017.023181171302
 31
0.0
  0
LINE
  5
549
330
547
100
AcDbEntity
  8
1
  6
Continuous
 62
     2
100
AcDbLine
 10
2221.931952932581
 20
880.2197417559565
 30
0.0
 11
2253.431952932581
 21
880.2197417559565
 31
0.0
  0
LINE
  5
54A
330
547
100
AcDbEntity
  8
1
  6
Continuous
 62
     2
100
AcDbLine
 10
2185.931952932581
 20
880.2197417559565
 30
0.0
 11
2212.931952932581
 21
880.2197417559565
 31
0.0
  0
SOLID
  5
54B
330
547
100
AcDbEntity
  8
1
 62
     2
100
AcDbTrace
 10
2247.89518951408
 20
888.0947417559565
 30
0.0
 11
2249.968716351082
 21
888.0947417559565
 31
0.0
 12
2248.931952932581
 22
880.2197417559565
 32
0.0
 13
2248.931952932581
 23
880.2197417559565
 33
0.0
  0
MTEXT
  5
54C
330
547
100
AcDbEntity
  8
1
 62
     2
100
AcDbMText
 10
2244.431952932581
 20
981.6981811713019
 30
0.0
 40
11.25
 41
0.0
 71
     7
 72
     1
  1
\C2;\U+00f8\C2; D
  7
CONVERTER_11
 11
0.0
 21
1.0
 31
0.0
 73
     1
 44
0.60024009603842
  0
ENDBLK
  5
54E
330
547
100
AcDbEntity
  8
0
100
AcDbBlockEnd
  0
BLOCK
  5
555
330
550
100
AcDbEntity
  8
0
100
AcDbBlockBegin
  2
*D63
 70
     1
 10
0.0
 20
0.0
 30
0.0
  3
*D63
  1

  0
LINE
  5
551
330
550
100
AcDbEntity
  8
1
  6
Continuous
 62
     2
100
AcDbLine
 10
1809.813297097526
 20
843.0480782472168
 30
0.0
 11
1881.482444681565
 21
867.9446176384089
 31
0.0
  0
SOLID
  5
552
330
550
100
AcDbEntity
  8
1
 62
     2
100
AcDbTrace
 10
1846.962972159943
 20
857.0507271892145
 30
0.0
 11
1847.643391688479
 21
855.0920177138325
 31
0.0
 12
1839.864244147577
 22
853.4872227353933
 32
0.0
 13
1839.864244147577
 23
853.4872227353933
 33
0.0
  0
SOLID
  5
553
330
550
100
AcDbEntity
  8
1
 62
     2
100
AcDbTrace
 10
1813.872975750111
 20
843.3607983675909
 30
0.0
 11
1813.192556221575
 21
845.3195078429728
 31
0.0
 12
1820.971703762477
 22
846.9243028214121
 32
0.0
 13
1820.971703762477
 23
846.9243028214121
 33
0.0
  0
MTEXT
  5
554
330
550
100
AcDbEntity
  8
1
 62
     2
100
AcDbMText
 10
1846.636838245735
 20
860.6036819269872
 30
0.0
 40
11.25
 41
0.0
 71
     7
 72
     1
  1
\C2;\U+00f8\C2;20
  7
CONVERTER_11
 11
0.9446270192550444
 21
0.3281459956990641
 31
0.0
 73
     1
 44
0.60024009603842
  0
ENDBLK
  5
556
330
550
100
AcDbEntity
  8
0
100
AcDbBlockEnd
  0
BLOCK
  5
55C
330
558
100
AcDbEntity
  8
0
100
AcDbBlockBegin
  2
*D64
 70
     1
 10
0.0
 20
0.0
 30
0.0
  3
*D64
  1

  0
LINE
  5
559
330
558
100
AcDbEntity
  8
1
  6
Continuous
 62
     2
100
AcDbLine
 10
1906.431952932581
 20
490.719741755957
 30
0.0
 11
1999.996542502403
 21
543.6528842909588
 31
0.0
  0
SOLID
  5
55A
330
558
100
AcDbEntity
  8
1
 62
     2
100
AcDbTrace
 10
1993.652896018163
 20
538.8728578612274
 30
0.0
 11
1992.63188865432
 21
540.6775898376559
 31
0.0
 12
1999.996542502403
 22
543.6528842909588
 32
0.0
 13
1999.996542502403
 23
543.6528842909588
 33
0.0
  0
MTEXT
  5
55B
330
558
100
AcDbEntity
  8
1
 62
     2
100
AcDbMText
 10
1945.826127939214
 20
518.1767903304907
 30
0.0
 40
11.25
 41
0.0
 71
     7
 72
     1
  1
\C2;\U+00f8\C2;215
  7
CONVERTER_11
 11
0.8703682750681087
 21
0.4924013259069935
 31
0.0
 73
     1
 44
0.60024009603842
  0
ENDBLK
  5
55D
330
558
100
AcDbEntity
  8
0
100
AcDbBlockEnd
  0
BLOCK
  5
564
330
55F
100
AcDbEntity
  8
0
100
AcDbBlockBegin
  2
*D65
 70
     1
 10
0.0
 20
0.0
 30
0.0
  3
*D65
  1

  0
LINE
  5
560
330
55F
100
AcDbEntity
  8
1
  6
Continuous
 62
     2
100
AcDbLine
 10
1804.44599644558
 20
892.2327636697629
 30
0.0
 11
2008.417909419582
 21
960.2067198421513
 31
0.0
  0
SOLID
  5
561
330
55F
100
AcDbEntity
  8
1
 62
     2
100
AcDbTrace
 10
2001.27462614749
 20
956.7333918299158
 30
0.0
 11
2000.619064183115
 21
958.7005603673397
 31
0.0
 12
2008.417909419582
 22
960.2067198421513
 32
0.0
 13
2008.417909419582
 23
960.2067198421513
 33
0.0
  0
SOLID
  5
562
330
55F
100
AcDbEntity
  8
1
 62
     2
100
AcDbTrace
 10
1811.589279717672
 20
895.7060916819984
 30
0.0
 11
1812.244841682047
 21
893.7389231445745
 31
0.0
 12
1804.44599644558
 22
892.2327636697629
 32
0.0
 13
1804.44599644558
 23
892.2327636697629
 33
0.0
  0
MTEXT
  5
563
330
55F
100
AcDbEntity
  8
1
 62
     2
100
AcDbMText
 10
1944.922486776437
 20
943.7900719465205
 30
0.0
 40
11.25
 41
0.0
 71
     7
 72
     1
  1
\C2;\U+00f8\C2;215
  7
CONVERTER_11
 11
0.9487065719721066
 21
0.3161579356855276
 31
0.0
 73
     1
 44
0.60024009603842
  0
ENDBLK
  5
565
330
55F
100
AcDbEntity
  8
0
100
AcDbBlockEnd
  0
ENDSEC
  0
SECTION
  2
ENTITIES
  0
INSERT
  5
6C
330
1F
100
AcDbEntity
  8
0
100
AcDbBlockReference
  2
Top__2
 10
524.97541097384
 20
141.2891996801542
 30
0.0
 41
0.22222222222222
 42
0.22222222222222
 43
0.22222222222222
  0
ENDSEC
  0
SECTION
  2
OBJECTS
  0
DICTIONARY
  5
C
330
0
100
AcDbDictionary
281
     1
  3
ACAD_GROUP
350
D
  3
ACAD_LAYOUT
350
1A
  3
ACAD_MLEADERSTYLE
350
569
  3
ACAD_MLINESTYLE
350
17
  3
ACAD_PLOTSETTINGS
350
19
  3
ACAD_PLOTSTYLENAME
350
E
  3
ACAD_SCALELIST
350
47
  3
ACAD_VISUALSTYLE
350
2A
  3
AcDbVariableDictionary
350
567
  0
DICTIONARY
  5
D
102
{ACAD_REACTORS
330
C
102
}
330
C
100
AcDbDictionary
281
     1
  0
DICTIONARY
  5
1A
102
{ACAD_REACTORS
330
C
102
}
330
C
100
AcDbDictionary
281
     1
  3
Layout1
350
1E
  3
Layout2
350
26
  3
Model
350
22
  0
DICTIONARY
  5
569
102
{ACAD_REACTORS
330
C
102
}
330
C
100
AcDbDictionary
281
     1
  0
DICTIONARY
  5
17
102
{ACAD_REACTORS
330
C
102
}
330
C
100
AcDbDictionary
281
     1
  3
Standard
350
18
  0
DICTIONARY
  5
19
102
{ACAD_REACTORS
330
C
102
}
330
C
100
AcDbDictionary
281
     1
  0
ACDBDICTIONARYWDFLT
  5
E
102
{ACAD_REACTORS
330
C
102
}
330
C
100
AcDbDictionary
281
     1
  3
Normal
350
F
100
AcDbDictionaryWithDefault
340
F
  0
DICTIONARY
  5
47
102
{ACAD_REACTORS
330
C
102
}
330
C
100
AcDbDictionary
281
     1
  3
A0
350
48
  3
A1
350
49
  3
A2
350
4A
  3
A3
350
4B
  3
A4
350
4C
  3
A5
350
4D
  3
A6
350
4E
  3
A7
350
4F
  3
A8
350
50
  3
A9
350
51
  3
B0
350
52
  3
B1
350
53
  3
B2
350
54
  3
B3
350
55
  3
B4
350
56
  3
B5
350
57
  3
B6
350
58
  3
B7
350
59
  3
B8
350
5A
  3
B9
350
5B
  3
C0
350
5C
  3
C1
350
5D
  3
C2
350
5E
  3
C3
350
5F
  3
C4
350
60
  3
C5
350
61
  3
C6
350
62
  3
C7
350
63
  3
C8
350
64
  3
C9
350
65
  3
D0
350
66
  3
D1
350
67
  3
D2
350
68
  0
DICTIONARY
  5
2A
102
{ACAD_REACTORS
330
C
102
}
330
C
100
AcDbDictionary
281
     1
  3
2dWireframe
350
2F
  3
3D Hidden
350
31
  3
3dWireframe
350
30
  3
Basic
350
32
  3
Brighten
350
36
  3
ColorChange
350
3A
  3
Conceptual
350
34
  3
Dim
350
35
  3
Facepattern
350
39
  3
Flat
350
2B
  3
FlatWithEdges
350
2C
  3
Gouraud
350
2D
  3
GouraudWithEdges
350
2E
  3
Linepattern
350
38
  3
Realistic
350
33
  3
Thicken
350
37
  0
DICTIONARY
  5
567
102
{ACAD_REACTORS
330
C
102
}
330
C
100
AcDbDictionary
281
     1
  3
CANNOSCALE
350
56A
  0
LAYOUT
  5
1E
102
{ACAD_REACTORS
330
1A
102
}
330
1A
100
AcDbPlotSettings
  1

  2
none_device
  4

  6

 40
0.0
 41
0.0
 42
0.0
 43
0.0
 44
0.0
 45
0.0
 46
0.0
 47
0.0
 48
0.0
 49
0.0
140
0.0
141
0.0
142
1.0
143
1.0
 70
   688
 72
     0
 73
     0
 74
     5
  7

 75
    16
147
1.0
148
0.0
149
0.0
100
AcDbLayout
  1
Layout1
 70
     1
 71
     1
 10
0.0
 20
0.0
 11
12.0
 21
9.0
 12
0.0
 22
0.0
 32
0.0
 14
1.00000000000000E+20
 24
1.00000000000000E+20
 34
1.00000000000000E+20
 15
-1.00000000000000E+20
 25
-1.00000000000000E+20
 35
-1.00000000000000E+20
146
0.0
 13
0.0
 23
0.0
 33
0.0
 16
1.0
 26
0.0
 36
0.0
 17
0.0
 27
1.0
 37
0.0
 76
     0
330
1B
  0
LAYOUT
  5
26
102
{ACAD_REACTORS
330
1A
102
}
330
1A
100
AcDbPlotSettings
  1

  2
none_device
  4

  6

 40
0.0
 41
0.0
 42
0.0
 43
0.0
 44
0.0
 45
0.0
 46
0.0
 47
0.0
 48
0.0
 49
0.0
140
0.0
141
0.0
142
1.0
143
1.0
 70
   688
 72
     0
 73
     0
 74
     5
  7

 75
    16
147
1.0
148
0.0
149
0.0
100
AcDbLayout
  1
Layout2
 70
     1
 71
     2
 10
0.0
 20
0.0
 11
0.0
 21
0.0
 12
0.0
 22
0.0
 32
0.0
 14
0.0
 24
0.0
 34
0.0
 15
0.0
 25
0.0
 35
0.0
146
0.0
 13
0.0
 23
0.0
 33
0.0
 16
1.0
 26
0.0
 36
0.0
 17
0.0
 27
1.0
 37
0.0
 76
     0
330
23
  0
LAYOUT
  5
22
102
{ACAD_REACTORS
330
1A
102
}
330
1A
100
AcDbPlotSettings
  1

  2
none_device
  4

  6

 40
0.0
 41
0.0
 42
0.0
 43
0.0
 44
0.0
 45
0.0
 46
0.0
 47
0.0
 48
0.0
 49
0.0
140
0.0
141
0.0
142
1.0
143
1.0
 70
  1712
 72
     0
 73
     0
 74
     0
  7

 75
     0
147
1.0
148
0.0
149
0.0
100
AcDbLayout
  1
Model
 70
     1
 71
     0
 10
0.0
 20
0.0
 11
12.0
 21
9.0
 12
0.0
 22
0.0
 32
0.0
 14
314.9754109738406
 24
-7.21080031984502
 34
0.0
 15
734.9754109738406
 25
289.789199680155
 35
0.0
146
0.0
 13
0.0
 23
0.0
 33
0.0
 16
1.0
 26
0.0
 36
0.0
 17
0.0
 27
1.0
 37
0.0
 76
     0
330
1F
331
29
  0
MLINESTYLE
  5
18
102
{ACAD_REACTORS
330
17
102
}
330
17
100
AcDbMlineStyle
  2
Standard
 70
     0
  3

 62
   256
 51
90.0
 52
90.0
 71
     2
 49
0.5
 62
   256
  6
BYLAYER
 49
-0.5
 62
   256
  6
BYLAYER
  0
ACDBPLACEHOLDER
  5
F
102
{ACAD_REACTORS
330
E
102
}
330
E
  0
SCALE
  5
48
102
{ACAD_REACTORS
330
47
102
}
330
47
100
AcDbScale
 70
     0
300
1:1
140
1.0
141
1.0
290
     1
  0
SCALE
  5
49
102
{ACAD_REACTORS
330
47
102
}
330
47
100
AcDbScale
 70
     0
300
1:2
140
1.0
141
2.0
290
     0
  0
SCALE
  5
4A
102
{ACAD_REACTORS
330
47
102
}
330
47
100
AcDbScale
 70
     0
300
1:4
140
1.0
141
4.0
290
     0
  0
SCALE
  5
4B
102
{ACAD_REACTORS
330
47
102
}
330
47
100
AcDbScale
 70
     0
300
1:5
140
1.0
141
5.0
290
     0
  0
SCALE
  5
4C
102
{ACAD_REACTORS
330
47
102
}
330
47
100
AcDbScale
 70
     0
300
1:8
140
1.0
141
8.0
290
     0
  0
SCALE
  5
4D
102
{ACAD_REACTORS
330
47
102
}
330
47
100
AcDbScale
 70
     0
300
1:10
140
1.0
141
10.0
290
     0
  0
SCALE
  5
4E
102
{ACAD_REACTORS
330
47
102
}
330
47
100
AcDbScale
 70
     0
300
1:16
140
1.0
141
16.0
290
     0
  0
SCALE
  5
4F
102
{ACAD_REACTORS
330
47
102
}
330
47
100
AcDbScale
 70
     0
300
1:20
140
1.0
141
20.0
290
     0
  0
SCALE
  5
50
102
{ACAD_REACTORS
330
47
102
}
330
47
100
AcDbScale
 70
     0
300
1:30
140
1.0
141
30.0
290
     0
  0
SCALE
  5
51
102
{ACAD_REACTORS
330
47
102
}
330
47
100
AcDbScale
 70
     0
300
1:40
140
1.0
141
40.0
290
     0
  0
SCALE
  5
52
102
{ACAD_REACTORS
330
47
102
}
330
47
100
AcDbScale
 70
     0
300
1:50
140
1.0
141
50.0
290
     0
  0
SCALE
  5
53
102
{ACAD_REACTORS
330
47
102
}
330
47
100
AcDbScale
 70
     0
300
1:100
140
1.0
141
100.0
290
     0
  0
SCALE
  5
54
102
{ACAD_REACTORS
330
47
102
}
330
47
100
AcDbScale
 70
     0
300
2:1
140
2.0
141
1.0
290
     0
  0
SCALE
  5
55
102
{ACAD_REACTORS
330
47
102
}
330
47
100
AcDbScale
 70
     0
300
4:1
140
4.0
141
1.0
290
     0
  0
SCALE
  5
56
102
{ACAD_REACTORS
330
47
102
}
330
47
100
AcDbScale
 70
     0
300
8:1
140
8.0
141
1.0
290
     0
  0
SCALE
  5
57
102
{ACAD_REACTORS
330
47
102
}
330
47
100
AcDbScale
 70
     0
300
10:1
140
10.0
141
1.0
290
     0
  0
SCALE
  5
58
102
{ACAD_REACTORS
330
47
102
}
330
47
100
AcDbScale
 70
     0
300
100:1
140
100.0
141
1.0
290
     0
  0
SCALE
  5
59
102
{ACAD_REACTORS
330
47
102
}
330
47
100
AcDbScale
 70
     0
300
1/128" = 1'-0"
140
0.0078125
141
12.0
290
     0
  0
SCALE
  5
5A
102
{ACAD_REACTORS
330
47
102
}
330
47
100
AcDbScale
 70
     0
300
1/64" = 1'-0"
140
0.015625
141
12.0
290
     0
  0
SCALE
  5
5B
102
{ACAD_REACTORS
330
47
102
}
330
47
100
AcDbScale
 70
     0
300
1/32" = 1'-0"
140
0.03125
141
12.0
290
     0
  0
SCALE
  5
5C
102
{ACAD_REACTORS
330
47
102
}
330
47
100
AcDbScale
 70
     0
300
1/16" = 1'-0"
140
0.0625
141
12.0
290
     0
  0
SCALE
  5
5D
102
{ACAD_REACTORS
330
47
102
}
330
47
100
AcDbScale
 70
     0
300
3/32" = 1'-0"
140
0.09375
141
12.0
290
     0
  0
SCALE
  5
5E
102
{ACAD_REACTORS
330
47
102
}
330
47
100
AcDbScale
 70
     0
300
1/8" = 1'-0"
140
0.125
141
12.0
290
     0
  0
SCALE
  5
5F
102
{ACAD_REACTORS
330
47
102
}
330
47
100
AcDbScale
 70
     0
300
3/16" = 1'-0"
140
0.1875
141
12.0
290
     0
  0
SCALE
  5
60
102
{ACAD_REACTORS
330
47
102
}
330
47
100
AcDbScale
 70
     0
300
1/4" = 1'-0"
140
0.25
141
12.0
290
     0
  0
SCALE
  5
61
102
{ACAD_REACTORS
330
47
102
}
330
47
100
AcDbScale
 70
     0
300
3/8" = 1'-0"
140
0.375
141
12.0
290
     0
  0
SCALE
  5
62
102
{ACAD_REACTORS
330
47
102
}
330
47
100
AcDbScale
 70
     0
300
1/2" = 1'-0"
140
0.5
141
12.0
290
     0
  0
SCALE
  5
63
102
{ACAD_REACTORS
330
47
102
}
330
47
100
AcDbScale
 70
     0
300
3/4" = 1'-0"
140
0.75
141
12.0
290
     0
  0
SCALE
  5
64
102
{ACAD_REACTORS
330
47
102
}
330
47
100
AcDbScale
 70
     0
300
1" = 1'-0"
140
1.0
141
12.0
290
     0
  0
SCALE
  5
65
102
{ACAD_REACTORS
330
47
102
}
330
47
100
AcDbScale
 70
     0
300
1-1/2" = 1'-0"
140
1.5
141
12.0
290
     0
  0
SCALE
  5
66
102
{ACAD_REACTORS
330
47
102
}
330
47
100
AcDbScale
 70
     0
300
3" = 1'-0"
140
3.0
141
12.0
290
     0
  0
SCALE
  5
67
102
{ACAD_REACTORS
330
47
102
}
330
47
100
AcDbScale
 70
     0
300
6" = 1'-0"
140
6.0
141
12.0
290
     0
  0
SCALE
  5
68
102
{ACAD_REACTORS
330
47
102
}
330
47
100
AcDbScale
 70
     0
300
1'-0" = 1'-0"
140
12.0
141
12.0
290
     0
  0
VISUALSTYLE
  5
2F
102
{ACAD_REACTORS
330
2A
102
}
330
2A
100
AcDbVisualStyle
  2
2dWireframe
 70
     4
 71
     0
 72
     2
 73
     0
 90
        0
 40
-0.6
 41
-30.0
 62
     5
 63
     7
 74
     1
 91
        4
 64
     7
 65
   257
 75
     1
175
     1
 42
1.0
 92
        0
 66
   257
 43
1.0
 76
     1
 77
     6
 78
     2
 67
     7
 79
     5
170
     0
171
     0
290
     0
174
     0
 93
        1
 44
0.0
173
     0
291
     0
 45
0.0
1001
ACAD
1000
AcDbSavedByObjectVersion
1070
     0
  0
VISUALSTYLE
  5
31
102
{ACAD_REACTORS
330
2A
102
}
330
2A
100
AcDbVisualStyle
  2
3D Hidden
 70
     6
 71
     1
 72
     2
 73
     2
 90
        0
 40
-0.6
 41
-30.0
 62
     5
 63
     7
 74
     2
 91
        2
 64
     7
 65
   257
 75
     2
175
     1
 42
40.0
 92
        0
 66
   257
 43
1.0
 76
     1
 77
     6
 78
     2
 67
     7
 79
     3
170
     0
171
     0
290
     0
174
     0
 93
        1
 44
0.0
173
     0
291
     0
 45
0.0
1001
ACAD
1000
AcDbSavedByObjectVersion
1070
     0
  0
VISUALSTYLE
  5
30
102
{ACAD_REACTORS
330
2A
102
}
330
2A
100
AcDbVisualStyle
  2
3dWireframe
 70
     5
 71
     0
 72
     2
 73
     0
 90
        0
 40
-0.6
 41
-30.0
 62
     5
 63
     7
 74
     1
 91
        4
 64
     7
 65
   257
 75
     1
175
     1
 42
1.0
 92
        0
 66
   257
 43
1.0
 76
     1
 77
     6
 78
     2
 67
     7
 79
     5
170
     0
171
     0
290
     0
174
     0
 93
        1
 44
0.0
173
     0
291
     0
 45
0.0
1001
ACAD
1000
AcDbSavedByObjectVersion
1070
     0
  0
VISUALSTYLE
  5
32
102
{ACAD_REACTORS
330
2A
102
}
330
2A
100
AcDbVisualStyle
  2
Basic
 70
     7
 71
     1
 72
     0
 73
     1
 90
        0
 40
-0.6
 41
-30.0
 62
     5
 63
     7
 74
     0
 91
        4
 64
     7
 65
   257
 75
     1
175
     1
 42
1.0
 92
        8
 66
     7
 43
1.0
 76
     1
 77
     6
 78
     2
 67
     7
 79
     5
170
     0
171
     0
290
     0
174
     0
 93
        1
 44
0.0
173
     0
291
     1
 45
0.0
1001
ACAD
1000
AcDbSavedByObjectVersion
1070
     0
  0
VISUALSTYLE
  5
36
102
{ACAD_REACTORS
330
2A
102
}
330
2A
100
AcDbVisualStyle
  2
Brighten
 70
    12
 71
     2
 72
     2
 73
     0
 90
        0
 40
-0.6
 41
-30.0
 62
     5
 63
     7
 74
     1
 91
        4
 64
     7
 65
   257
 75
     1
175
     1
 42
1.0
 92
        8
 66
     7
 43
1.0
 76
     1
 77
     6
 78
     2
 67
     7
 79
     5
170
     0
171
     0
290
     0
174
     0
 93
        1
 44
50.0
173
     0
291
     1
 45
0.0
1001
ACAD
1000
AcDbSavedByObjectVersion
1070
     0
  0
VISUALSTYLE
  5
3A
102
{ACAD_REACTORS
330
2A
102
}
330
2A
100
AcDbVisualStyle
  2
ColorChange
 70
    16
 71
     2
 72
     2
 73
     3
 90
        0
 40
-0.6
 41
-30.0
 62
     5
 63
     8
 74
     1
 91
        4
 64
     7
 65
   257
 75
     1
175
     1
 42
1.0
 92
        8
 66
     8
 43
1.0
 76
     1
 77
     6
 78
     2
 67
     7
 79
     5
170
     0
171
     0
290
     0
174
     0
 93
        1
 44
0.0
173
     0
291
     1
 45
0.0
1001
ACAD
1000
AcDbSavedByObjectVersion
1070
     0
  0
VISUALSTYLE
  5
34
102
{ACAD_REACTORS
330
2A
102
}
330
2A
100
AcDbVisualStyle
  2
Conceptual
 70
     9
 71
     3
 72
     2
 73
     0
 90
        0
 40
-0.6
 41
-30.0
 62
     5
 63
     7
 74
     2
 91
        2
 64
     7
 65
   257
 75
     1
175
     1
 42
40.0
 92
        8
 66
     7
 43
1.0
 76
     1
 77
     6
 78
     2
 67
     7
 79
     3
170
     0
171
     0
290
     0
174
     0
 93
        1
 44
0.0
173
     0
291
     0
 45
0.0
1001
ACAD
1000
AcDbSavedByObjectVersion
1070
     0
  0
VISUALSTYLE
  5
35
102
{ACAD_REACTORS
330
2A
102
}
330
2A
100
AcDbVisualStyle
  2
Dim
 70
    11
 71
     2
 72
     2
 73
     0
 90
        0
 40
-0.6
 41
-30.0
 62
     5
 63
     7
 74
     1
 91
        4
 64
     7
 65
   257
 75
     1
175
     1
 42
1.0
 92
        8
 66
     7
 43
1.0
 76
     1
 77
     6
 78
     2
 67
     7
 79
     5
170
     0
171
     0
290
     0
174
     0
 93
        1
 44
-50.0
173
     0
291
     1
 45
0.0
1001
ACAD
1000
AcDbSavedByObjectVersion
1070
     0
  0
VISUALSTYLE
  5
39
102
{ACAD_REACTORS
330
2A
102
}
330
2A
100
AcDbVisualStyle
  2
Facepattern
 70
    15
 71
     2
 72
     2
 73
     0
 90
        0
 40
-0.6
 41
-30.0
 62
     5
 63
     7
 74
     1
 91
        4
 64
     7
 65
   257
 75
     1
175
     1
 42
1.0
 92
        8
 66
     7
 43
1.0
 76
     1
 77
     6
 78
     2
 67
     7
 79
     5
170
     0
171
     0
290
     0
174
     0
 93
        1
 44
0.0
173
     0
291
     1
 45
0.0
1001
ACAD
1000
AcDbSavedByObjectVersion
1070
     0
  0
VISUALSTYLE
  5
2B
102
{ACAD_REACTORS
330
2A
102
}
330
2A
100
AcDbVisualStyle
  2
Flat
 70
     0
 71
     2
 72
     1
 73
     1
 90
        2
 40
-0.6
 41
30.0
 62
     5
 63
     7
 74
     0
 91
        4
 64
     7
 65
   257
 75
     1
175
     1
 42
1.0
 92
        8
 66
     7
 43
1.0
 76
     1
 77
     6
 78
     2
 67
     7
 79
     5
170
     0
171
     0
290
     0
174
     0
 93
       13
 44
0.0
173
     0
291
     1
 45
0.0
1001
ACAD
1000
AcDbSavedByObjectVersion
1070
     0
  0
VISUALSTYLE
  5
2C
102
{ACAD_REACTORS
330
2A
102
}
330
2A
100
AcDbVisualStyle
  2
FlatWithEdges
 70
     1
 71
     2
 72
     1
 73
     1
 90
        2
 40
-0.6
 41
30.0
 62
     5
 63
     7
 74
     1
 91
        4
 64
     7
 65
   257
 75
     1
175
     1
 42
1.0
 92
        0
 66
   257
 43
1.0
 76
     1
 77
     6
 78
     2
 67
     7
 79
     5
170
     0
171
     0
290
     0
174
     0
 93
       13
 44
0.0
173
     0
291
     1
 45
0.0
1001
ACAD
1000
AcDbSavedByObjectVersion
1070
     0
  0
VISUALSTYLE
  5
2D
102
{ACAD_REACTORS
330
2A
102
}
330
2A
100
AcDbVisualStyle
  2
Gouraud
 70
     2
 71
     2
 72
     2
 73
     1
 90
        2
 40
-0.6
 41
30.0
 62
     5
 63
     7
 74
     0
 91
        4
 64
     7
 65
   257
 75
     1
175
     1
 42
1.0
 92
        0
 66
     7
 43
1.0
 76
     1
 77
     6
 78
     2
 67
     7
 79
     5
170
     0
171
     0
290
     0
174
     0
 93
       13
 44
0.0
173
     0
291
     1
 45
0.0
1001
ACAD
1000
AcDbSavedByObjectVersion
1070
     0
  0
VISUALSTYLE
  5
2E
102
{ACAD_REACTORS
330
2A
102
}
330
2A
100
AcDbVisualStyle
  2
GouraudWithEdges
 70
     3
 71
     2
 72
     2
 73
     1
 90
        2
 40
-0.6
 41
30.0
 62
     5
 63
     7
 74
     1
 91
        4
 64
     7
 65
   257
 75
     1
175
     1
 42
1.0
 92
        0
 66
   257
 43
1.0
 76
     1
 77
     6
 78
     2
 67
     7
 79
     5
170
     0
171
     0
290
     0
174
     0
 93
       13
 44
0.0
173
     0
291
     1
 45
0.0
1001
ACAD
1000
AcDbSavedByObjectVersion
1070
     0
  0
VISUALSTYLE
  5
38
102
{ACAD_REACTORS
330
2A
102
}
330
2A
100
AcDbVisualStyle
  2
Linepattern
 70
    14
 71
     2
 72
     2
 73
     0
 90
        0
 40
-0.6
 41
-30.0
 62
     5
 63
     7
 74
     1
 91
        4
 64
     7
 65
   257
 75
     7
175
     7
 42
1.0
 92
        8
 66
     7
 43
1.0
 76
     1
 77
     6
 78
     2
 67
     7
 79
     5
170
     0
171
     0
290
     0
174
     0
 93
        1
 44
0.0
173
     0
291
     1
 45
0.0
1001
ACAD
1000
AcDbSavedByObjectVersion
1070
     0
  0
VISUALSTYLE
  5
33
102
{ACAD_REACTORS
330
2A
102
}
330
2A
100
AcDbVisualStyle
  2
Realistic
 70
     8
 71
     2
 72
     2
 73
     0
 90
        0
 40
-0.6
 41
-30.0
 62
     5
 63
     7
 74
     1
 91
        0
 64
     7
 65
   257
 75
     1
175
     1
 42
1.0
 92
        8
 66
     8
 43
1.0
 76
     1
 77
     6
 78
     2
 67
     7
 79
     5
170
     0
171
     0
290
     0
174
     0
 93
       13
 44
0.0
173
     0
291
     0
 45
0.0
1001
ACAD
1000
AcDbSavedByObjectVersion
1070
     0
  0
VISUALSTYLE
  5
37
102
{ACAD_REACTORS
330
2A
102
}
330
2A
100
AcDbVisualStyle
  2
Thicken
 70
    13
 71
     2
 72
     2
 73
     0
 90
        0
 40
-0.6
 41
-30.0
 62
     5
 63
     7
 74
     1
 91
        4
 64
     7
 65
   257
 75
     1
175
     1
 42
1.0
 92
       12
 66
     7
 43
1.0
 76
     1
 77
     6
 78
     2
 67
     7
 79
     5
170
     0
171
     0
290
     0
174
     0
 93
        1
 44
0.0
173
     0
291
     1
 45
0.0
1001
ACAD
1000
AcDbSavedByObjectVersion
1070
     0
  0
DICTIONARYVAR
  5
56A
102
{ACAD_REACTORS
330
567
102
}
330
567
100
DictionaryVariables
280
     0
  1
1:1
  0
ENDSEC
  0
EOF
